Keith Jarrett - In The Light (1974) [2CD] {ECM 1033/34}

Posted By: ruskaval
Keith Jarrett - In The Light (1974) [2CD] {ECM 1033/34}

Keith Jarrett - In The Light (1974) [2CD] {ECM 1033/34}
EAC rip (secure mode) | FLAC+CUE+LOG -> 406 Mb | MP3 @320 -> 214 Mb
Full Artwork @ 300 dpi (jpg) -> 15 Mb
© 2000 ECM Records | ECM 1033/34 / 835 011-2
Classical / Modern Creative / Piano / Harpsichord


Keith Jarrett - In The Light (1974) [2CD] {ECM 1033/34}

Even before his solo concerts became popular successes, Keith Jarrett was clearly getting a free hand from ECM founder Manfred Eicher, as this ambitious double album of classical compositions proves. In this compendium of eight works for all kinds of ensembles, the then-28-year old Jarrett adamantly refuses to be classified, flitting back and forth through the centuries from the baroque to contemporary dissonance, from exuberant counterpoint for brass quintet to homophonic writing for a string section.

Though the content is uneven in quality, Jarrett is clearly sincere and skilled enough to exploit his European roots with only a handful of syncopated references to his jazz work. The strongest, most moving individual pieces are the strange, gong-haunted "In the Cave, In the Light" (the probable source of the title of Jarrett's publishing company, Cavelight); "Metamorphosis," with its rich, flowing string lines, prominent solo flute, and free journeys in and out of tonality; and the Bartok-streaked String Quartet. Jarrett himself plays formal solo piano in the eclectic "Fughata" and "A Pagan Hymn," and even conducts the Stuttgart Radio Symphony strings. All of it is richly recorded in the ECM way, making four strings sound like twelve.
tracklist:
CD1
1. Metamorphosis
2. Fughata for Harpsichord
3. Brass Quintet

CD2
1. A Pagan Hymn
2. Strings Quartet
3. Short Piece for Guitar and Strings
4. Crystal Moment
5. In The Cave, In The Light

Keith Jarrett - In The Light (1974) [2CD] {ECM 1033/34}

Exact Audio Copy V0.99 prebeta 5 from 4. May 2009

EAC extraction logfile from 24. September 2010, 16:21

Keith Jarrett / In The Light (CD1)

Used drive : TSSTcorpCD/DVDW TS-H552L Adapter: 3 ID: 0

Read mode : Secure
Utilize accurate stream : Yes
Defeat audio cache : Yes
Make use of C2 pointers : No

Read offset correction : 6
Overread into Lead-In and Lead-Out : No
Fill up missing offset samples with silence : Yes
Delete leading and trailing silent blocks : No
Null samples used in CRC calculations : Yes
Used interface : Native Win32 interface for Win NT & 2000
Gap handling : Appended to previous track

Used output format : User Defined Encoder
Selected bitrate : 1024 kBit/s
Quality : High
Add ID3 tag : No
Command line compressor : C:\Program Files\FLAC\flac.exe
Additional command line options : -6 -V -T "ARTIST=%a" -T "TITLE=%t" -T "ALBUM=%g" -T "DATE=%y" -T "TRACKNUMBER=%n" -T "GENRE=%m" -T "COMMENT=EAC FLAC -6" %s


TOC of the extracted CD

Track | Start | Length | Start sector | End sector
––––––––––––––––––––––––––––-
1 | 0:00.24 | 19:23.25 | 24 | 87273
2 | 19:23.49 | 5:29.08 | 87274 | 111956
3 | 24:52.57 | 20:53.70 | 111957 | 206001


Track 1

Filename C:\ruskaval\Keith Jarrett - In The Light (1974) [2CD] {ECM 1033~34}\CD1\01 - Metamorphosis.wav

Pre-gap length 0:00:02.24

Peak level 78.1 %
Track quality 100.0 %
Test CRC 08C50260
Copy CRC 08C50260
Track not present in AccurateRip database
Copy OK

Track 2

Filename C:\ruskaval\Keith Jarrett - In The Light (1974) [2CD] {ECM 1033~34}\CD1\02 - Fughata for Harpsichord.wav

Pre-gap length 0:00:04.00

Peak level 63.4 %
Track quality 100.0 %
Test CRC A550A215
Copy CRC A550A215
Track not present in AccurateRip database
Copy OK

Track 3

Filename C:\ruskaval\Keith Jarrett - In The Light (1974) [2CD] {ECM 1033~34}\CD1\03 - Brass Quintet.wav

Pre-gap length 0:00:02.45

Peak level 77.8 %
Track quality 100.0 %
Test CRC 1E2948E6
Copy CRC 1E2948E6
Track not present in AccurateRip database
Copy OK


None of the tracks are present in the AccurateRip database

No errors occurred

End of status report
–––––––––––––––––––––––––––––––––––––––––––––––––––––––––––––-
Exact Audio Copy V0.99 prebeta 5 from 4. May 2009

EAC extraction logfile from 24. September 2010, 16:27

Keith Jarrett / In The Light (CD2)

Used drive : TSSTcorpCD/DVDW TS-H552L Adapter: 3 ID: 0

Read mode : Secure
Utilize accurate stream : Yes
Defeat audio cache : Yes
Make use of C2 pointers : No

Read offset correction : 6
Overread into Lead-In and Lead-Out : No
Fill up missing offset samples with silence : Yes
Delete leading and trailing silent blocks : No
Null samples used in CRC calculations : Yes
Used interface : Native Win32 interface for Win NT & 2000
Gap handling : Appended to previous track

Used output format : User Defined Encoder
Selected bitrate : 1024 kBit/s
Quality : High
Add ID3 tag : No
Command line compressor : C:\Program Files\FLAC\flac.exe
Additional command line options : -6 -V -T "ARTIST=%a" -T "TITLE=%t" -T "ALBUM=%g" -T "DATE=%y" -T "TRACKNUMBER=%n" -T "GENRE=%m" -T "COMMENT=EAC FLAC -6" %s


TOC of the extracted CD

Track | Start | Length | Start sector | End sector
––––––––––––––––––––––––––––-
1 | 0:00.25 | 7:31.60 | 25 | 33909
2 | 7:32.10 | 16:41.02 | 33910 | 108986
3 | 24:13.12 | 3:56.38 | 108987 | 126724
4 | 28:09.50 | 4:58.42 | 126725 | 149116
5 | 33:08.17 | 12:18.00 | 149117 | 204466


Track 1

Filename C:\ruskaval\Keith Jarrett - In The Light (1974) [2CD] {ECM 1033~34}\CD2\01 - A Pagan Hymn.wav

Pre-gap length 0:00:02.25

Peak level 83.4 %
Track quality 100.0 %
Test CRC 2BE9CD48
Copy CRC 2BE9CD48
Track not present in AccurateRip database
Copy OK

Track 2

Filename C:\ruskaval\Keith Jarrett - In The Light (1974) [2CD] {ECM 1033~34}\CD2\02 - String Quartet.wav

Pre-gap length 0:00:04.13

Peak level 88.4 %
Track quality 100.0 %
Test CRC 9B3DDE3A
Copy CRC 9B3DDE3A
Track not present in AccurateRip database
Copy OK

Track 3

Filename C:\ruskaval\Keith Jarrett - In The Light (1974) [2CD] {ECM 1033~34}\CD2\03 - Short Piece for Guitar and Strings.wav

Pre-gap length 0:00:03.62

Peak level 80.4 %
Track quality 100.0 %
Test CRC 2FD58D90
Copy CRC 2FD58D90
Track not present in AccurateRip database
Copy OK

Track 4

Filename C:\ruskaval\Keith Jarrett - In The Light (1974) [2CD] {ECM 1033~34}\CD2\04 - Crystal Moment.wav

Pre-gap length 0:00:04.08

Peak level 82.1 %
Track quality 100.0 %
Test CRC 9200190A
Copy CRC 9200190A
Track not present in AccurateRip database
Copy OK

Track 5

Filename C:\ruskaval\Keith Jarrett - In The Light (1974) [2CD] {ECM 1033~34}\CD2\05 - In the Cave, In the Light.wav

Pre-gap length 0:00:04.32

Peak level 84.7 %
Track quality 100.0 %
Test CRC C461D6A4
Copy CRC C461D6A4
Track not present in AccurateRip database
Copy OK


None of the tracks are present in the AccurateRip database

No errors occurred

End of status report

HF Linkz

or

FSonic Linkz

p.s. the files are interchangeable…

No Mirror, plz!