Subcategories

Kevin Ayers - Yes We Have No Mananas (1976) {2014 Remaster Japanese Mini LP SHM-CD Edition WPCR-15529}

Posted By: ruskaval
Kevin Ayers - Yes We Have No Mananas (1976) {2014 Remaster Japanese Mini LP SHM-CD Edition WPCR-15529}

Kevin Ayers - Yes We Have No Mananas (1976) {2014 Remaster Japanese Mini LP SHM-CD Edition WPCR-15529}
EAC rip (secure mode) | FLAC (tracks)+CUE+LOG -> 473 Mb | MP3 @320 -> 171 Mb
Full Artwork @ 600 dpi (png) -> 362 Mb | 5% repair rar
© 1976, 2014 Parlophone / Warner Music Japan | WPCR-15529
Rock / Art Rock / Canterbury Scene

Cardboard sleeve reissue from Kevin Ayers features remastering in 2014 and the high-fidelity SHM-CD format (compatible with standard CD players). The cover faithfully replicates the original UK LP artwork. Includes an obi featuring design of original Japanese limited edition's LP (subject to change). Comes with a description and lyrics. Part of eight-album Kevin Ayers cardboard sleeve reissue series features the albums, "Joy Of A Toy +5," "Shooting At The Moon +6," "Whatevershebrings Wesing +10," "Bananamour +7," "Odd Ditties +3," "Yes We Have No Mananas. So Get Your Mananas Today +9," "Rainbow Takeaway +7," and "That's What You Get Babe +4." Bonus tracks.
Kevin Ayers - Yes We Have No Mananas (1976) {2014 Remaster Japanese Mini LP SHM-CD Edition WPCR-15529}

Not long after Island had disposed of his contract, Kevin Ayers hooked up with Harvest once again, releasing the mainstream-sounding Yes We Have No Mañanas in 1976. Although Ayers' symbolic banana references find their way into the title (the banana being his outlet for representing silliness in such a serious world ), the ten tracks find him singing some rather conventional pop/rock. Both "Star" and "Mr. Cool" were released as singles, with some noticeable guitar work from Ollie Halsall adorning both. Ayers made a name for himself by incorporating a unique brand of genial eccentricity into his music – 1970s Joy of a Toy and 1973's Bananamour, for example, as "The Ballad of Mr. Snake" and "The Owl" are typical of Ayers' discounted vaudeville-like fair. On the whole, Mañanas has Ayers sounding more mature, which could account for the album's slight downfall. Even with Billy Livsey's keyboard ritziness, efforts like "Love's Gonna Turn You Around," "Falling in Love Again," and "Blue" are shy of Ayers' off-centeredness – and the absence of this trait to some extent gives Mañanas a slightly colder feel than his earlier work. Two years later, Kevin Ayers released the more appealing Rainbow Takeaway, but he still wasn't his old self.

tracklist:
01 - Star
02 - Mr. Cool
03 - The Owl
04 - Love's Gonna Turn You Round
05 - Falling In Love Again
06 - Help Me
07 - Ballad Of Mr. Snake
08 - Everyone Knows The Song
09 - Yes I Do
10 - Blue
11 - Mr. Cool (BBC John Peel Show)
12 - Love's Gonna Turn You Round (BBC John Peel Show)
13 - Star (BBC John Peel Show)
14 - Ballad Of Mr. Snake (BBC John Peel Show)
15 - Shouting In A Bucket Blues (BBC In Concert)
16 - Star (BBC In Concert)
17 - Mr. Cool (BBC In Concert)
18 - Ballad Of Mr. Snake (BBC In Concert)
19 - Blue (BBC In Concert)

Exact Audio Copy V1.0 beta 3 from 29. August 2011

EAC extraction logfile from 21. May 2014, 17:11

Kevin Ayers / Yes We Have No Mananas

Used drive : ATAPI iHAS124 B Adapter: 2 ID: 1

Read mode : Secure
Utilize accurate stream : Yes
Defeat audio cache : Yes
Make use of C2 pointers : No

Read offset correction : 6
Overread into Lead-In and Lead-Out : No
Fill up missing offset samples with silence : Yes
Delete leading and trailing silent blocks : No
Null samples used in CRC calculations : Yes
Used interface : Native Win32 interface for Win NT & 2000
Gap handling : Appended to previous track

Used output format : User Defined Encoder
Selected bitrate : 1024 kBit/s
Quality : High
Add ID3 tag : No
Command line compressor : C:\Program Files (x86)\FLAC Frontend\tools\flac.exe
Additional command line options : -8 -V -T "ARTIST=%artist%" -T "TITLE=%title%" -T "ALBUM=%albumtitle%" -T "DATE=%year%" -T "TRACKNUMBER=%tracknr%" -T "TOTALTRACKS=%numtracks%" -T "GENRE=%genre%" -T "ALBUMARTIST=%albumartist%" -T "ALBUM ARTIST=%albumartist%" -T "COMMENT=EAC Secure Mode, Test & Copy, AccurateRip, FLAC -8" %source%


TOC of the extracted CD

Track | Start | Length | Start sector | End sector
––––––––––––––––––––––––––––-
1 | 0:00.00 | 4:21.41 | 0 | 19615
2 | 4:21.41 | 3:03.24 | 19616 | 33364
3 | 7:24.65 | 3:17.40 | 33365 | 48179
4 | 10:42.30 | 4:52.71 | 48180 | 70150
5 | 15:35.26 | 2:38.69 | 70151 | 82069
6 | 18:14.20 | 2:42.17 | 82070 | 94236
7 | 20:56.37 | 2:07.51 | 94237 | 103812
8 | 23:04.13 | 2:34.48 | 103813 | 115410
9 | 25:38.61 | 3:13.60 | 115411 | 129945
10 | 28:52.46 | 6:33.00 | 129946 | 159420
11 | 35:25.46 | 3:01.29 | 159421 | 173024
12 | 38:27.00 | 4:44.21 | 173025 | 194345
13 | 43:11.21 | 4:42.12 | 194346 | 215507
14 | 47:53.33 | 2:23.40 | 215508 | 226272
15 | 50:16.73 | 5:26.38 | 226273 | 250760
16 | 55:43.36 | 4:40.40 | 250761 | 271800
17 | 60:24.01 | 3:44.64 | 271801 | 288664
18 | 64:08.65 | 2:39.44 | 288665 | 300633
19 | 66:48.34 | 6:24.25 | 300634 | 329458


Track 1

Filename C:\Kevin Ayers - Yes We Have No Mananas (1976) {2014 Remaster Japan Mini LP SHM-CD Edition}\01 - Star.wav

Pre-gap length 0:00:02.00

Peak level 99.1 %
Extraction speed 3.9 X
Track quality 100.0 %
Test CRC ABA88884
Copy CRC ABA88884
Accurately ripped (confidence 7) [C242B83C] (AR v2)
Copy OK

Track 2

Filename C:\Kevin Ayers - Yes We Have No Mananas (1976) {2014 Remaster Japan Mini LP SHM-CD Edition}\02 - Mr. Cool.wav

Pre-gap length 0:00:00.37

Peak level 99.1 %
Extraction speed 4.2 X
Track quality 100.0 %
Test CRC 1102F5AA
Copy CRC 1102F5AA
Accurately ripped (confidence 7) [F2710FF3] (AR v2)
Copy OK

Track 3

Filename C:\Kevin Ayers - Yes We Have No Mananas (1976) {2014 Remaster Japan Mini LP SHM-CD Edition}\03 - The Owl.wav

Pre-gap length 0:00:01.13

Peak level 99.2 %
Extraction speed 3.5 X
Track quality 99.9 %
Test CRC 5165C13D
Copy CRC 5165C13D
Accurately ripped (confidence 7) [9FBF7CD7] (AR v2)
Copy OK

Track 4

Filename C:\Kevin Ayers - Yes We Have No Mananas (1976) {2014 Remaster Japan Mini LP SHM-CD Edition}\04 - Love's Gonna Turn You Round.wav

Pre-gap length 0:00:03.11

Peak level 99.1 %
Extraction speed 5.1 X
Track quality 100.0 %
Test CRC C9EDBD01
Copy CRC C9EDBD01
Accurately ripped (confidence 7) [7BE3B5D9] (AR v2)
Copy OK

Track 5

Filename C:\Kevin Ayers - Yes We Have No Mananas (1976) {2014 Remaster Japan Mini LP SHM-CD Edition}\05 - Falling In Love Again.wav

Pre-gap length 0:00:00.51

Peak level 99.1 %
Extraction speed 4.9 X
Track quality 100.0 %
Test CRC 62623F83
Copy CRC 62623F83
Accurately ripped (confidence 7) [5248334E] (AR v2)
Copy OK

Track 6

Filename C:\Kevin Ayers - Yes We Have No Mananas (1976) {2014 Remaster Japan Mini LP SHM-CD Edition}\06 - Help Me.wav

Pre-gap length 0:00:02.07

Peak level 99.2 %
Extraction speed 5.0 X
Track quality 100.0 %
Test CRC B1D17A6A
Copy CRC B1D17A6A
Accurately ripped (confidence 7) [E928C38A] (AR v2)
Copy OK

Track 7

Filename C:\Kevin Ayers - Yes We Have No Mananas (1976) {2014 Remaster Japan Mini LP SHM-CD Edition}\07 - Ballad Of Mr. Snake.wav

Pre-gap length 0:00:01.40

Peak level 99.1 %
Extraction speed 4.9 X
Track quality 100.0 %
Test CRC 43925415
Copy CRC 43925415
Accurately ripped (confidence 7) [6E970348] (AR v2)
Copy OK

Track 8

Filename C:\Kevin Ayers - Yes We Have No Mananas (1976) {2014 Remaster Japan Mini LP SHM-CD Edition}\08 - Everyone Knows The Song.wav

Pre-gap length 0:00:00.55

Peak level 99.1 %
Extraction speed 5.3 X
Track quality 100.0 %
Test CRC 604CC9D6
Copy CRC 604CC9D6
Accurately ripped (confidence 7) [C293FFEA] (AR v2)
Copy OK

Track 9

Filename C:\Kevin Ayers - Yes We Have No Mananas (1976) {2014 Remaster Japan Mini LP SHM-CD Edition}\09 - Yes I Do.wav

Pre-gap length 0:00:00.11

Peak level 99.1 %
Extraction speed 5.7 X
Track quality 100.0 %
Test CRC 71171256
Copy CRC 71171256
Accurately ripped (confidence 7) [2EEF81E1] (AR v2)
Copy OK

Track 10

Filename C:\Kevin Ayers - Yes We Have No Mananas (1976) {2014 Remaster Japan Mini LP SHM-CD Edition}\10 - Blue.wav

Pre-gap length 0:00:00.67

Peak level 98.4 %
Extraction speed 6.6 X
Track quality 100.0 %
Test CRC 71CB0CB1
Copy CRC 71CB0CB1
Accurately ripped (confidence 7) [728D5066] (AR v2)
Copy OK

Track 11

Filename C:\Kevin Ayers - Yes We Have No Mananas (1976) {2014 Remaster Japan Mini LP SHM-CD Edition}\11 - Mr. Cool (BBC John Peel Show).wav

Pre-gap length 0:00:07.11

Peak level 99.2 %
Extraction speed 6.2 X
Track quality 100.0 %
Test CRC 60955EDA
Copy CRC 60955EDA
Accurately ripped (confidence 7) [FEB68253] (AR v2)
Copy OK

Track 12

Filename C:\Kevin Ayers - Yes We Have No Mananas (1976) {2014 Remaster Japan Mini LP SHM-CD Edition}\12 - Love's Gonna Turn You Round (BBC John Peel Show).wav

Pre-gap length 0:00:01.72

Peak level 99.1 %
Extraction speed 6.9 X
Track quality 100.0 %
Test CRC 28D3E8F0
Copy CRC 28D3E8F0
Accurately ripped (confidence 7) [92456CEC] (AR v2)
Copy OK

Track 13

Filename C:\Kevin Ayers - Yes We Have No Mananas (1976) {2014 Remaster Japan Mini LP SHM-CD Edition}\13 - Star (BBC John Peel Show).wav

Pre-gap length 0:00:02.09

Peak level 99.0 %
Extraction speed 5.8 X
Track quality 99.9 %
Test CRC FA03CA60
Copy CRC FA03CA60
Accurately ripped (confidence 7) [C6D4B962] (AR v2)
Copy OK

Track 14

Filename C:\Kevin Ayers - Yes We Have No Mananas (1976) {2014 Remaster Japan Mini LP SHM-CD Edition}\14 - Ballad Of Mr. Snake (BBC John Peel Show).wav

Pre-gap length 0:00:01.47

Peak level 98.7 %
Extraction speed 6.6 X
Track quality 100.0 %
Test CRC BE63AD53
Copy CRC BE63AD53
Accurately ripped (confidence 7) [D7545735] (AR v2)
Copy OK

Track 15

Filename C:\Kevin Ayers - Yes We Have No Mananas (1976) {2014 Remaster Japan Mini LP SHM-CD Edition}\15 - Shouting In A Bucket Blues (BBC In Concert).wav

Pre-gap length 0:00:02.29

Peak level 99.1 %
Extraction speed 7.6 X
Track quality 100.0 %
Test CRC 2017A49D
Copy CRC 2017A49D
Accurately ripped (confidence 7) [D3B0C984] (AR v2)
Copy OK

Track 16

Filename C:\Kevin Ayers - Yes We Have No Mananas (1976) {2014 Remaster Japan Mini LP SHM-CD Edition}\16 - Star (BBC In Concert).wav

Peak level 99.1 %
Extraction speed 6.3 X
Track quality 99.9 %
Test CRC 338444B1
Copy CRC 338444B1
Accurately ripped (confidence 7) [E1A275FC] (AR v2)
Copy OK

Track 17

Filename C:\Kevin Ayers - Yes We Have No Mananas (1976) {2014 Remaster Japan Mini LP SHM-CD Edition}\17 - Mr. Cool (BBC In Concert).wav

Peak level 99.1 %
Extraction speed 7.8 X
Track quality 100.0 %
Test CRC AC62164B
Copy CRC AC62164B
Accurately ripped (confidence 7) [3F996F94] (AR v2)
Copy OK

Track 18

Filename C:\Kevin Ayers - Yes We Have No Mananas (1976) {2014 Remaster Japan Mini LP SHM-CD Edition}\18 - Ballad Of Mr. Snake (BBC In Concert).wav

Peak level 96.0 %
Extraction speed 7.5 X
Track quality 100.0 %
Test CRC 4962DE2E
Copy CRC 4962DE2E
Accurately ripped (confidence 7) [4A760175] (AR v2)
Copy OK

Track 19

Filename C:\Kevin Ayers - Yes We Have No Mananas (1976) {2014 Remaster Japan Mini LP SHM-CD Edition}\19 - Blue (BBC In Concert).wav

Peak level 99.1 %
Extraction speed 8.6 X
Track quality 100.0 %
Test CRC 04982855
Copy CRC 04982855
Accurately ripped (confidence 7) [8D7BCB78] (AR v2)
Copy OK


All tracks accurately ripped

No errors occurred

End of status report

==== Log checksum E2F24A8F79D53F168A83BE9AF1FDC5072E6E3AF36563F1A77096971262CBEADE ====


Kevin Ayers - Yes We Have No Mananas (1976) {2014 Remaster Japanese Mini LP SHM-CD Edition WPCR-15529}

Kevin Ayers - Yes We Have No Mananas (1976) {2014 Remaster Japanese Mini LP SHM-CD Edition WPCR-15529}


see more Kevin Ayers…

NEXT -> more Kevin Ayers on the way…


===