Subcategories

King Curtis - Wail Man Wail! - The Best Of King Curtis 1952-1961 [3CD Set] (2012) {Fantastic Voyage}

Posted By: ruskaval
King Curtis - Wail Man Wail! - The Best Of King Curtis 1952-1961 [3CD Set] (2012) {Fantastic Voyage}

King Curtis - Wail Man Wail! - The Best Of King Curtis 1952-1961 [3CD Set] (2012) {Fantastic Voyage}
EAC rip (secure mode) | FLAC (tracks)+CUE+LOG -> 815 Mb | MP3 @320 -> 506 Mb
Full Artwork @ 300 dpi (jpg) -> 41 Mb | 5% repair rar
© 2012 Fantastic Voyage | FVTD088
Jazz / R&B / Blues / Rock&Roll / Soul / Saxophone

The Best Of King Curtis 1952-1961 - Saxophone titan King Curtis gets the stellar showcase he deserves on Dave Penny’s latest career-defining set for Fantastic Voyage, continuing the roll which has seen the label raise the benchmark for knowledgeable, expertly-annotated compilations.

Over three discs and nearly 100 tracks, Wail Man Wail! traverses the unmistakable tones of the late Curtis Ousley after he arrived from Texas in New York City in 1952, winning amateur night at Harlem’s Apollo before embarking on a recording career which took him to several seminal independent labels and bands with the likes of Lester Young and Lionel Hampton. He settled in New York for 17 years, declaring himself King Curtis and quickly making a name for roaring instrumentals and enhancing countless sessions. With the assistance of K.C. expert Roy Simmonds, Dave Penny has excelled himself in providing both beginner’s guide and record collector’s magnet, starting with Curtis’ riproaring role in the earliest days of rock ’n’ roll on CD1, collating outings under his own name for labels such as RPM, Gem, Apollo, DeLuxe, Atlantic/Atco, ABC-Paramount, Everest and Sue, also encompassing his time with Alan Freed’s rock ’n’ roll orchestra. Titles include his debut, ‘Tenor In The Sky’, ‘Honeydripper’, ‘Dynamite’ and ‘Wicky Wacky’. Discs 2 and 3 chart some of his many memorable recording sessions from between 1952 to 1957, then 1958 to 1961, respectively, names including Solomon Burke, the Willows, Roy Gaines, Neil Sedaka, Wilbert Harrison, Ruth Brown, the Coasters, Waylon Jennings, Lionel Hampton, Bobby Darin, Chuck Willis, the Avons, the Willows, Mickey & Sylvia, the Nitecaps and obscurities such as Washboard Bill.
King Curtis - Wail Man Wail! - The Best Of King Curtis 1952-1961 [3CD Set] (2012) {Fantastic Voyage}

King Curtis was yet another name to fall victim to an early demise, in his case stabbed to death in 1971 after challenging two junkies using drugs outside his Manhattan apartment. Just the groin-rasping solo on ‘Jest Smoochin’’ is enough to convince anyone with a heart and soul that they’re in the presence of greatness. There are scores of similar moments on Wail Man Wail!, the latest instalment in Fantastic Voyage’s The Architects Of Rock ’N’ Roll series, and an exemplary tribute to one of the musical giants of the last century.
King Curtis - Wail Man Wail! - The Best Of King Curtis 1952-1961 [3CD Set] (2012) {Fantastic Voyage}

This King Curtis 3CD is a spectacular release because you obtain 96 tunes - almost 4 hours - for very small money AND because it is a clever compilation that focuses on King Curtis early career as well as his sideman career. I have not laid my hands on any album that covers his early career so extensive. Despite having many albums there are very few tunes that I have heard before. I imagine that even very experienced fans of King Curtis will enjoy this release.

The CDs are split between 3 logical themes:
CD 1 KINGS ROCK (1953-1961)
CD 2 WAIL, CURTIS, WAIL (1952-1957)
CD3 TAKIN' CARE OF BUSINESS (1958-1961)

"Kings Rock" is dedicated to various (very often single) releases in his own name on various labels. Sometimes credited as King Curtis & his Orchestra, other times just King Curtis or King Curtis Combo and even King Curtis & His Tenor Sax with Orchestra. The groups consists of various musicians - know and unknown - to the first group belongs Mickey "Guitar" Baker, Kenny Burrell, Al Casey and Herman Foster, but Curtis regulars like Jimmy Lewis, Belton Evans and Ernie Hayes can also be found. However every other musician seem to become anonymous when the King is blowing his tenor. In fact it is striking just how mature and advanced his playing seems to be from the very first moment.

"Wail, Curtis, Wail" and "Takin' Care of Business" are both dedicated to his sideman career and it is a goldmine of obscure releases from the past. You will hear artists that you that knew about and not a single one is irrelevant. If you did not know Melvin Daniels, Big Connie, Mr. Bear & Bearcats (they really knew how to name a band in the past) or The Twin Tones here is a change to take a trip in the past and enjoy all those that did not make the way to the encyclopedias or even Wikipedia. There are however also artists like Big Maybelle and on "Takin' Care of Business" artist like Neil Sedaka, Bobby Darin, The Coasters and (surprise) Waylon Jennings and even Lionel Hampton can be found between the more obscure pearls.

To sum up: Wail Man Wail is a welcome and clever compiled release that covers a part of King Curtis career that perhaps sometimes is a little overlooked, but it is not merely a documentation, it is an album that can be enjoyed for its sheer musicianship and great entertainment values. If your party is a little dull or your visitors are not talking to each put on any of these discs and things will change for the better.
King Curtis - Wail Man Wail! - The Best Of King Curtis 1952-1961 [3CD Set] (2012) {Fantastic Voyage}


tracklist:
Disc 1:

01. No More Crying On My Pillow - King Curtis & His Tenor Sax with Orchestra, vocals Melvin Daniels
02. Tenor In The Sky - King Curtis & His Tenor Sax with Orchestra
03. Movin' On - King Curtis
04. Rockabye Baby - King Curtis
05. Open Up - King Curtis
06. King's Rock - King Curtis
07. Dynamite At Midnight - King Curtis
08. The Stranger - King Curtis
09. Steel Guitar Rag - King Curtis
10. Wicky Wacky, Pt. 1 - King Curtis
11. Wicky Wacky, Pt. 2 - King Curtis
12. The Count And The King - King Curtis & Count Hastings with Leroy Kirkland's Hi-Flyers
13. The King - The King's Henchmen
14. Battle Royal - King Curtis & Count Hastings with Leroy Kirkland's Hi-Flyers
15. Jest Smoochin' - King Curtis & His Royal Men
16. Birth Of The Blues - King Curtis & His Royal Men
17. Ific - King Curtis & His Orchestra
18. You Made Me Love You - King Curtis & His Orchestra
19. Castle Rock - King Curtis & His Orchestra
20. Chili - King Curtis & His Orchestra
21. Honeydripper, Pt. 1 - King Curtis & His Orchestra
22. Honeydripper, Pt. 2 - King Curtis & His Orchestra
23. Peter Gunn - King Curtis
24. Heavenly Blues - King Curtis & His Orchestra
25. Restless Guitar - King Curtis & His Orchestra
26. King Neptune's Guitar - King Curtis
27. Beatnik Hoedown - King Curtis
28. The Lone Prairie - King Curtis Combo
29. Jay Walk - King Curtis Combo
30. St Louis Blues - Sonny Jackson
31. My Babe - Sonny Jackson
32. Hot-Rod - King Curtis

King Curtis - Wail Man Wail! - The Best Of King Curtis 1952-1961 [3CD Set] (2012) {Fantastic Voyage}


Disc 2:
01. I'll Be There - Melvin Daniels with King Curtis Orchestra
02. Korea, Korea - Bob Kent Band
03. Boogie In The Moonlight - Melvin Daniels with King Curtis Orchestra
04. Work, Little Carrie, Work - Doc Pomus All Stars
05. Woman, Woman, Woman - The Sparks Of Rhythm
06. Why Do Me That Way - Solomon Burke
07. Mr Bear Comes To Town - Mr Bear & The Bearcats
08. If (You Want To Be My Baby) - Varetta Dillard
09. Dee Dat Dee Dum Dum - Roy ''Mr Guitar'' Gaines
10. Mumbles Blues - Big Connie
11. I'm Going Crazy - The Tibbs Brothers
12. Bamboo Rock 'n' Roll - The Nitecaps
13. Yes Sir! - The Cues
14. In The Morning - Washboard Bill
15. Our Love Will Never End - The Avons
16. Don't Push, Don't Pull, Don't Shove - The Willows
17. Gum Shoe - Sonny Thompson Orchestra
18. I'm Going Home - Mickey & Sylvia
19. Oh! You Sweet Girl - The Nitecaps
20. Rib Joint - Sam Price & His Texas Bluesicians
21. Juicy Fruit - Rudy Greene
22. Wail Man Wail - Sammy Lowe & His Orchestra
23. You're The One For Me - Rudy Greene
24. Pot Likker - Washboard Bill
25. Ice Cream Baby - The Pearls
26. Handy Andy - The Five Keys
27. Before You Go - The Twin-Tones
28. Blues, Early Early (Parts 1 & 2) - Big Maybelle
29. Rack 'Em Back - Walter Spriggs
30. The Stroll - The Diamonds

King Curtis - Wail Man Wail! - The Best Of King Curtis 1952-1961 [3CD Set] (2012) {Fantastic Voyage}


Disc 3:
01. (We're Gonna) Jump For Joy - Joe Turner
02. Keep A-Driving - Chuck Willis
03. Crowded Classroom - The Strollers
04. The Shadow Knows - The Coasters
05. Lady Love - The Del-Larks
06. Keep A Walkin' - Bobby Darin
07. Rock And Ree-Ah-Zole - The Bobbettes
08. Yakety Yak - The Coasters
09. Switchen In The Kitchen - Pretty Boy
10. In The Mood - Hutch Davie
11. Just Multiply - Varetta Dillard
12. Crawfish - The Stone Crushers
13. Fine Little Girl - The Arcades
14. This Little Girl's Gone Rockin' - Ruth Brown
15. When Sin Stops - Waylon Jennings
16. That Is Rock & Roll - The Coasters
17. I Ain't Sharin' Sharon - Bobby Darin
18. You Gotta Learn Your Rhythm And Blues - Neil Sedaka
19. The Lover's Curse - Bracey Everett
20. Charlie Brown - The Coasters
21. Jole Blon - Waylon Jennings
22. Always - Sammy Turner
23. Takin' Care Of Business - Ruth Brown
24. Stupid Cupid - Neil Sedaka
25. Besame Mucho, Pt. 2 - The Coasters
26. More Juice - Lionel Hampton
27. Your Love - Roy Hamilton
28. Madisonville, Pt. 1 - The Strolls
29. Madisonville, Pt. 2 - The Strolls
30. Shoppin' For Clothes - The Coasters
31. Tossin' And Turnin' - Bobby Lewis
32. Hearts Of Stone - The Top Notes
33. Better Forget Him - The Shells
34. Off To Work Again - Wilbert Harrison

King Curtis - Wail Man Wail! - The Best Of King Curtis 1952-1961 [3CD Set] (2012) {Fantastic Voyage}


Exact Audio Copy V1.0 beta 3 from 29. August 2011

EAC extraction logfile from 1. May 2014, 21:06

Various Artists / Wail Man Wail!: The Best Of King Curtis 1952-1961 (Disc 1)

Used drive : TSSTcorpCDDVDW SH-224BB Adapter: 0 ID: 0

Read mode : Secure
Utilize accurate stream : Yes
Defeat audio cache : Yes
Make use of C2 pointers : No

Read offset correction : 6
Overread into Lead-In and Lead-Out : No
Fill up missing offset samples with silence : Yes
Delete leading and trailing silent blocks : No
Null samples used in CRC calculations : Yes
Used interface : Native Win32 interface for Win NT & 2000
Gap handling : Appended to previous track

Used output format : User Defined Encoder
Selected bitrate : 768 kBit/s
Quality : High
Add ID3 tag : No
Command line compressor : C:\Program Files (x86)\Exact Audio Copy\FLAC\FLAC.EXE
Additional command line options : -8 -V -T "ARTIST=%artist%" -T "TITLE=%title%" -T "ALBUM=%albumtitle%" -T "DATE=%year%" -T "TRACKNUMBER=%tracknr%" -T "TOTALTRACKS=%numtracks%" -T "GENRE=%genre%" -T "ALBUMARTIST=%albumartist%" -T "ALBUM ARTIST=%albumartist%" -T "COMMENT=EAC Secure Mode, Test & Copy, AccurateRip, FLAC -8" %source%


TOC of the extracted CD

Track | Start | Length | Start sector | End sector
––––––––––––––––––––––––––––-
1 | 0:00.00 | 3:03.52 | 0 | 13776
2 | 3:03.52 | 2:20.59 | 13777 | 24335
3 | 5:24.36 | 2:42.41 | 24336 | 36526
4 | 8:07.02 | 2:22.06 | 36527 | 47182
5 | 10:29.08 | 2:20.17 | 47183 | 57699
6 | 12:49.25 | 3:02.48 | 57700 | 71397
7 | 15:51.73 | 2:44.30 | 71398 | 83727
8 | 18:36.28 | 2:43.21 | 83728 | 95973
9 | 21:19.49 | 2:33.45 | 95974 | 107493
10 | 23:53.19 | 2:18.30 | 107494 | 117873
11 | 26:11.49 | 2:42.70 | 117874 | 130093
12 | 28:54.44 | 2:37.13 | 130094 | 141881
13 | 31:31.57 | 2:50.53 | 141882 | 154684
14 | 34:22.35 | 3:14.53 | 154685 | 169287
15 | 37:37.13 | 2:45.57 | 169288 | 181719
16 | 40:22.70 | 2:35.49 | 181720 | 193393
17 | 42:58.44 | 2:03.29 | 193394 | 202647
18 | 45:01.73 | 2:02.62 | 202648 | 211859
19 | 47:04.60 | 2:09.62 | 211860 | 221596
20 | 49:14.47 | 2:09.65 | 221597 | 231336
21 | 51:24.37 | 2:01.42 | 231337 | 240453
22 | 53:26.04 | 2:19.40 | 240454 | 250918
23 | 55:45.44 | 2:56.37 | 250919 | 264155
24 | 58:42.06 | 2:32.64 | 264156 | 275619
25 | 61:14.70 | 2:05.40 | 275620 | 285034
26 | 63:20.35 | 2:06.22 | 285035 | 294506
27 | 65:26.57 | 1:50.01 | 294507 | 302757
28 | 67:16.58 | 2:08.04 | 302758 | 312361
29 | 69:24.62 | 2:40.08 | 312362 | 324369
30 | 72:04.70 | 2:39.44 | 324370 | 336338
31 | 74:44.39 | 2:31.38 | 336339 | 347701
32 | 77:16.02 | 1:55.10 | 347702 | 356336


Track 1

Filename C:\Rips\Various Artists - Wail Man Wail! The Best Of King Curtis 1952-1961 (2012) [FLAC]\CD1\01 - King Curtis & His Tenor Sax with Orchestra, vocals Melvin Daniels - No More Crying On My Pillow.wav

Pre-gap length 0:00:02.00

Peak level 89.3 %
Extraction speed 4.5 X
Track quality 100.0 %
Test CRC 0734109B
Copy CRC 0734109B
Accurately ripped (confidence 1) [AB598E3B] (AR v2)
Copy OK

Track 2

Filename C:\Rips\Various Artists - Wail Man Wail! The Best Of King Curtis 1952-1961 (2012) [FLAC]\CD1\02 - King Curtis & His Tenor Sax with Orchestra - Tenor In The Sky.wav

Pre-gap length 0:00:02.42

Peak level 73.9 %
Extraction speed 4.5 X
Track quality 100.0 %
Test CRC 09BB4DF6
Copy CRC 09BB4DF6
Accurately ripped (confidence 1) [F0C8B515] (AR v2)
Copy OK

Track 3

Filename C:\Rips\Various Artists - Wail Man Wail! The Best Of King Curtis 1952-1961 (2012) [FLAC]\CD1\03 - King Curtis - Movin' On.wav

Pre-gap length 0:00:02.37

Peak level 72.4 %
Extraction speed 4.9 X
Track quality 100.0 %
Test CRC 9A19C704
Copy CRC 9A19C704
Accurately ripped (confidence 1) [C42C421A] (AR v2)
Copy OK

Track 4

Filename C:\Rips\Various Artists - Wail Man Wail! The Best Of King Curtis 1952-1961 (2012) [FLAC]\CD1\04 - King Curtis - Rockabye Baby.wav

Pre-gap length 0:00:02.38

Peak level 53.5 %
Extraction speed 3.6 X
Track quality 99.9 %
Test CRC 23750F2C
Copy CRC 23750F2C
Accurately ripped (confidence 1) [981FAC90] (AR v2)
Copy OK

Track 5

Filename C:\Rips\Various Artists - Wail Man Wail! The Best Of King Curtis 1952-1961 (2012) [FLAC]\CD1\05 - King Curtis - Open Up.wav

Pre-gap length 0:00:02.35

Peak level 100.0 %
Extraction speed 5.2 X
Track quality 100.0 %
Test CRC 45040886
Copy CRC 45040886
Accurately ripped (confidence 1) [02E7EFC1] (AR v2)
Copy OK

Track 6

Filename C:\Rips\Various Artists - Wail Man Wail! The Best Of King Curtis 1952-1961 (2012) [FLAC]\CD1\06 - King Curtis - King's Rock.wav

Pre-gap length 0:00:02.27

Peak level 83.7 %
Extraction speed 5.7 X
Track quality 100.0 %
Test CRC 5A59B988
Copy CRC 5A59B988
Accurately ripped (confidence 1) [F35E8CAA] (AR v2)
Copy OK

Track 7

Filename C:\Rips\Various Artists - Wail Man Wail! The Best Of King Curtis 1952-1961 (2012) [FLAC]\CD1\07 - King Curtis - Dynamite At Midnight.wav

Pre-gap length 0:00:02.63

Peak level 89.9 %
Extraction speed 5.5 X
Track quality 100.0 %
Test CRC B57CBE07
Copy CRC B57CBE07
Accurately ripped (confidence 1) [E4458888] (AR v2)
Copy OK

Track 8

Filename C:\Rips\Various Artists - Wail Man Wail! The Best Of King Curtis 1952-1961 (2012) [FLAC]\CD1\08 - King Curtis - The Stranger.wav

Pre-gap length 0:00:02.68

Peak level 68.3 %
Extraction speed 5.7 X
Track quality 100.0 %
Test CRC 2EA965EE
Copy CRC 2EA965EE
Accurately ripped (confidence 1) [3C1F6995] (AR v2)
Copy OK

Track 9

Filename C:\Rips\Various Artists - Wail Man Wail! The Best Of King Curtis 1952-1961 (2012) [FLAC]\CD1\09 - King Curtis - Steel Guitar Rag.wav

Pre-gap length 0:00:02.20

Peak level 72.9 %
Extraction speed 5.8 X
Track quality 100.0 %
Test CRC 579587C9
Copy CRC 579587C9
Accurately ripped (confidence 1) [B4762860] (AR v2)
Copy OK

Track 10

Filename C:\Rips\Various Artists - Wail Man Wail! The Best Of King Curtis 1952-1961 (2012) [FLAC]\CD1\10 - King Curtis - Wicky Wacky, Pt. 1.wav

Pre-gap length 0:00:02.34

Peak level 79.3 %
Extraction speed 6.0 X
Track quality 100.0 %
Test CRC 4A64B865
Copy CRC 4A64B865
Accurately ripped (confidence 1) [42DD9F67] (AR v2)
Copy OK

Track 11

Filename C:\Rips\Various Artists - Wail Man Wail! The Best Of King Curtis 1952-1961 (2012) [FLAC]\CD1\11 - King Curtis - Wicky Wacky, Pt. 2.wav

Pre-gap length 0:00:02.63

Peak level 75.3 %
Extraction speed 6.3 X
Track quality 100.0 %
Test CRC 8FBB4CE4
Copy CRC 8FBB4CE4
Accurately ripped (confidence 1) [28AA71B4] (AR v2)
Copy OK

Track 12

Filename C:\Rips\Various Artists - Wail Man Wail! The Best Of King Curtis 1952-1961 (2012) [FLAC]\CD1\12 - King Curtis & Count Hastings with Leroy Kirkland's Hi-Flyers - The Count And The King.wav

Pre-gap length 0:00:02.15

Peak level 100.0 %
Extraction speed 6.4 X
Track quality 100.0 %
Test CRC 2D5D220A
Copy CRC 2D5D220A
Accurately ripped (confidence 1) [1E3A5987] (AR v2)
Copy OK

Track 13

Filename C:\Rips\Various Artists - Wail Man Wail! The Best Of King Curtis 1952-1961 (2012) [FLAC]\CD1\13 - The King's Henchmen - The King.wav

Pre-gap length 0:00:02.57

Peak level 58.6 %
Extraction speed 6.7 X
Track quality 100.0 %
Test CRC E1DF0C17
Copy CRC E1DF0C17
Accurately ripped (confidence 1) [0737C4D3] (AR v2)
Copy OK

Track 14

Filename C:\Rips\Various Artists - Wail Man Wail! The Best Of King Curtis 1952-1961 (2012) [FLAC]\CD1\14 - King Curtis & Count Hastings with Leroy Kirkland's Hi-Flyers - Battle Royal.wav

Pre-gap length 0:00:02.19

Peak level 100.0 %
Extraction speed 7.1 X
Track quality 100.0 %
Test CRC 9EC286A2
Copy CRC 9EC286A2
Accurately ripped (confidence 1) [EB1ACC80] (AR v2)
Copy OK

Track 15

Filename C:\Rips\Various Artists - Wail Man Wail! The Best Of King Curtis 1952-1961 (2012) [FLAC]\CD1\15 - King Curtis & His Royal Men - Jest Smoochin'.wav

Pre-gap length 0:00:03.21

Peak level 59.8 %
Extraction speed 6.9 X
Track quality 100.0 %
Test CRC A1C65C05
Copy CRC A1C65C05
Accurately ripped (confidence 1) [9714AA63] (AR v2)
Copy OK

Track 16

Filename C:\Rips\Various Artists - Wail Man Wail! The Best Of King Curtis 1952-1961 (2012) [FLAC]\CD1\16 - King Curtis & His Royal Men - Birth Of The Blues.wav

Pre-gap length 0:00:00.73

Peak level 64.7 %
Extraction speed 7.0 X
Track quality 100.0 %
Test CRC 8966AD56
Copy CRC 8966AD56
Accurately ripped (confidence 1) [A087253C] (AR v2)
Copy OK

Track 17

Filename C:\Rips\Various Artists - Wail Man Wail! The Best Of King Curtis 1952-1961 (2012) [FLAC]\CD1\17 - King Curtis & His Orchestra - Ific.wav

Pre-gap length 0:00:01.72

Peak level 68.7 %
Extraction speed 6.8 X
Track quality 100.0 %
Test CRC C6C23F14
Copy CRC C6C23F14
Accurately ripped (confidence 1) [6B4073D5] (AR v2)
Copy OK

Track 18

Filename C:\Rips\Various Artists - Wail Man Wail! The Best Of King Curtis 1952-1961 (2012) [FLAC]\CD1\18 - King Curtis & His Orchestra - You Made Me Love You.wav

Pre-gap length 0:00:01.31

Peak level 67.3 %
Extraction speed 4.7 X
Track quality 99.9 %
Test CRC 7FDE752F
Copy CRC 7FDE752F
Accurately ripped (confidence 1) [ECF1605F] (AR v2)
Copy OK

Track 19

Filename C:\Rips\Various Artists - Wail Man Wail! The Best Of King Curtis 1952-1961 (2012) [FLAC]\CD1\19 - King Curtis & His Orchestra - Castle Rock.wav

Pre-gap length 0:00:02.51

Peak level 66.9 %
Extraction speed 5.0 X
Track quality 99.9 %
Test CRC DAA1D6E9
Copy CRC DAA1D6E9
Accurately ripped (confidence 1) [B9414267] (AR v2)
Copy OK

Track 20

Filename C:\Rips\Various Artists - Wail Man Wail! The Best Of King Curtis 1952-1961 (2012) [FLAC]\CD1\20 - King Curtis & His Orchestra - Chili.wav

Pre-gap length 0:00:02.12

Peak level 62.2 %
Extraction speed 7.3 X
Track quality 100.0 %
Test CRC F3CC80F6
Copy CRC F3CC80F6
Accurately ripped (confidence 1) [D5D9DB0F] (AR v2)
Copy OK

Track 21

Filename C:\Rips\Various Artists - Wail Man Wail! The Best Of King Curtis 1952-1961 (2012) [FLAC]\CD1\21 - King Curtis & His Orchestra - Honeydripper, Pt. 1.wav

Pre-gap length 0:00:03.13

Peak level 59.4 %
Extraction speed 7.3 X
Track quality 100.0 %
Test CRC 0FBAD2E6
Copy CRC 0FBAD2E6
Accurately ripped (confidence 1) [51A786A3] (AR v2)
Copy OK

Track 22

Filename C:\Rips\Various Artists - Wail Man Wail! The Best Of King Curtis 1952-1961 (2012) [FLAC]\CD1\22 - King Curtis & His Orchestra - Honeydripper, Pt. 2.wav

Pre-gap length 0:00:02.25

Peak level 77.1 %
Extraction speed 7.7 X
Track quality 100.0 %
Test CRC 56A15400
Copy CRC 56A15400
Accurately ripped (confidence 1) [2BDD5DAA] (AR v2)
Copy OK

Track 23

Filename C:\Rips\Various Artists - Wail Man Wail! The Best Of King Curtis 1952-1961 (2012) [FLAC]\CD1\23 - King Curtis - Peter Gunn.wav

Pre-gap length 0:00:02.18

Peak level 68.4 %
Extraction speed 8.2 X
Track quality 100.0 %
Test CRC 45F4B890
Copy CRC 45F4B890
Accurately ripped (confidence 1) [507B0611] (AR v2)
Copy OK

Track 24

Filename C:\Rips\Various Artists - Wail Man Wail! The Best Of King Curtis 1952-1961 (2012) [FLAC]\CD1\24 - King Curtis & His Orchestra - Heavenly Blues.wav

Pre-gap length 0:00:01.59

Peak level 54.7 %
Extraction speed 8.1 X
Track quality 100.0 %
Test CRC 4352CDE4
Copy CRC 4352CDE4
Accurately ripped (confidence 1) [C0367077] (AR v2)
Copy OK

Track 25

Filename C:\Rips\Various Artists - Wail Man Wail! The Best Of King Curtis 1952-1961 (2012) [FLAC]\CD1\25 - King Curtis & His Orchestra - Restless Guitar.wav

Pre-gap length 0:00:02.43

Peak level 71.2 %
Extraction speed 7.7 X
Track quality 100.0 %
Test CRC 9FCAF058
Copy CRC 9FCAF058
Accurately ripped (confidence 1) [70F80F7C] (AR v2)
Copy OK

Track 26

Filename C:\Rips\Various Artists - Wail Man Wail! The Best Of King Curtis 1952-1961 (2012) [FLAC]\CD1\26 - King Curtis - King Neptune's Guitar.wav

Pre-gap length 0:00:03.03

Peak level 59.4 %
Extraction speed 8.0 X
Track quality 100.0 %
Test CRC 45C65780
Copy CRC 45C65780
Accurately ripped (confidence 1) [4C07F322] (AR v2)
Copy OK

Track 27

Filename C:\Rips\Various Artists - Wail Man Wail! The Best Of King Curtis 1952-1961 (2012) [FLAC]\CD1\27 - King Curtis - Beatnik Hoedown.wav

Pre-gap length 0:00:02.23

Peak level 61.2 %
Extraction speed 7.7 X
Track quality 100.0 %
Test CRC 3875F3D0
Copy CRC 3875F3D0
Accurately ripped (confidence 1) [27CA3749] (AR v2)
Copy OK

Track 28

Filename C:\Rips\Various Artists - Wail Man Wail! The Best Of King Curtis 1952-1961 (2012) [FLAC]\CD1\28 - King Curtis Combo - The Lone Prairie.wav

Pre-gap length 0:00:02.51

Peak level 58.2 %
Extraction speed 8.0 X
Track quality 100.0 %
Test CRC 82889BF4
Copy CRC 82889BF4
Accurately ripped (confidence 1) [DFB0A296] (AR v2)
Copy OK

Track 29

Filename C:\Rips\Various Artists - Wail Man Wail! The Best Of King Curtis 1952-1961 (2012) [FLAC]\CD1\29 - King Curtis Combo - Jay Walk.wav

Pre-gap length 0:00:03.09

Peak level 60.8 %
Extraction speed 8.6 X
Track quality 100.0 %
Test CRC 883CD36A
Copy CRC 883CD36A
Accurately ripped (confidence 1) [C2547910] (AR v2)
Copy OK

Track 30

Filename C:\Rips\Various Artists - Wail Man Wail! The Best Of King Curtis 1952-1961 (2012) [FLAC]\CD1\30 - Sonny Jackson - St Louis Blues.wav

Pre-gap length 0:00:03.52

Peak level 54.1 %
Extraction speed 8.7 X
Track quality 100.0 %
Test CRC 287A4BB7
Copy CRC 287A4BB7
Accurately ripped (confidence 1) [BE9C0D32] (AR v2)
Copy OK

Track 31

Filename C:\Rips\Various Artists - Wail Man Wail! The Best Of King Curtis 1952-1961 (2012) [FLAC]\CD1\31 - Sonny Jackson - My Babe.wav

Pre-gap length 0:00:02.41

Peak level 63.2 %
Extraction speed 8.7 X
Track quality 100.0 %
Test CRC F0582BA0
Copy CRC F0582BA0
Accurately ripped (confidence 1) [EE4FC80A] (AR v2)
Copy OK

Track 32

Filename C:\Rips\Various Artists - Wail Man Wail! The Best Of King Curtis 1952-1961 (2012) [FLAC]\CD1\32 - King Curtis - Hot-Rod.wav

Pre-gap length 0:00:03.12

Peak level 73.4 %
Extraction speed 8.2 X
Track quality 100.0 %
Test CRC 998990E3
Copy CRC 998990E3
Accurately ripped (confidence 1) [62A7F5B8] (AR v2)
Copy OK


All tracks accurately ripped

No errors occurred

End of status report

==== Log checksum 737E5B9A57A11BE5283F04F5A2FEB86E13F1D3E96237238E4A04625B8CC250E6 ====

Exact Audio Copy V1.0 beta 3 from 29. August 2011

EAC extraction logfile from 1. May 2014, 22:27

Various Artists / Wail Man Wail!: The Best Of King Curtis 1952-1961 (Disc 2)

Used drive : TSSTcorpCDDVDW SH-224BB Adapter: 0 ID: 0

Read mode : Secure
Utilize accurate stream : Yes
Defeat audio cache : Yes
Make use of C2 pointers : No

Read offset correction : 6
Overread into Lead-In and Lead-Out : No
Fill up missing offset samples with silence : Yes
Delete leading and trailing silent blocks : No
Null samples used in CRC calculations : Yes
Used interface : Native Win32 interface for Win NT & 2000
Gap handling : Appended to previous track

Used output format : User Defined Encoder
Selected bitrate : 768 kBit/s
Quality : High
Add ID3 tag : No
Command line compressor : C:\Program Files (x86)\Exact Audio Copy\FLAC\FLAC.EXE
Additional command line options : -8 -V -T "ARTIST=%artist%" -T "TITLE=%title%" -T "ALBUM=%albumtitle%" -T "DATE=%year%" -T "TRACKNUMBER=%tracknr%" -T "TOTALTRACKS=%numtracks%" -T "GENRE=%genre%" -T "ALBUMARTIST=%albumartist%" -T "ALBUM ARTIST=%albumartist%" -T "COMMENT=EAC Secure Mode, Test & Copy, AccurateRip, FLAC -8" %source%


TOC of the extracted CD

Track | Start | Length | Start sector | End sector
––––––––––––––––––––––––––––-
1 | 0:00.00 | 3:28.58 | 0 | 15657
2 | 3:28.58 | 3:15.33 | 15658 | 30315
3 | 6:44.16 | 2:30.39 | 30316 | 41604
4 | 9:14.55 | 2:24.04 | 41605 | 52408
5 | 11:38.59 | 2:39.39 | 52409 | 64372
6 | 14:18.23 | 2:50.45 | 64373 | 77167
7 | 17:08.68 | 2:05.60 | 77168 | 86602
8 | 19:14.53 | 2:17.37 | 86603 | 96914
9 | 21:32.15 | 2:11.66 | 96915 | 106805
10 | 23:44.06 | 2:23.08 | 106806 | 117538
11 | 26:07.14 | 2:41.32 | 117539 | 129645
12 | 28:48.46 | 2:33.74 | 129646 | 141194
13 | 31:22.45 | 2:21.23 | 141195 | 151792
14 | 33:43.68 | 2:24.30 | 151793 | 162622
15 | 36:08.23 | 2:36.71 | 162623 | 174393
16 | 38:45.19 | 2:24.62 | 174394 | 185255
17 | 41:10.06 | 2:42.12 | 185256 | 197417
18 | 43:52.18 | 2:23.22 | 197418 | 208164
19 | 46:15.40 | 2:08.16 | 208165 | 217780
20 | 48:23.56 | 2:39.26 | 217781 | 229731
21 | 51:03.07 | 2:17.27 | 229732 | 240033
22 | 53:20.34 | 2:44.14 | 240034 | 252347
23 | 56:04.48 | 2:22.12 | 252348 | 263009
24 | 58:26.60 | 2:44.05 | 263010 | 275314
25 | 61:10.65 | 2:11.70 | 275315 | 285209
26 | 63:22.60 | 2:17.00 | 285210 | 295484
27 | 65:39.60 | 2:45.58 | 295485 | 307917
28 | 68:25.43 | 4:31.59 | 307918 | 328301
29 | 72:57.27 | 1:57.42 | 328302 | 337118
30 | 74:54.69 | 2:30.31 | 337119 | 348399


Track 1

Filename C:\Rips\Various Artists - Wail Man Wail! The Best Of King Curtis 1952-1961 (2012) [FLAC]\CD2\01 - Melvin Daniels with King Curtis Orchestra - I'll Be There.wav

Pre-gap length 0:00:02.00

Peak level 67.5 %
Extraction speed 4.5 X
Track quality 100.0 %
Test CRC 57A0D3DD
Copy CRC 57A0D3DD
Accurately ripped (confidence 1) [A337BA2B] (AR v2)
Copy OK

Track 2

Filename C:\Rips\Various Artists - Wail Man Wail! The Best Of King Curtis 1952-1961 (2012) [FLAC]\CD2\02 - Bob Kent Band - Korea, Korea.wav

Pre-gap length 0:00:03.61

Peak level 84.7 %
Extraction speed 4.7 X
Track quality 100.0 %
Test CRC E3C53E0E
Copy CRC E3C53E0E
Accurately ripped (confidence 1) [07D9E5D3] (AR v2)
Copy OK

Track 3

Filename C:\Rips\Various Artists - Wail Man Wail! The Best Of King Curtis 1952-1961 (2012) [FLAC]\CD2\03 - Melvin Daniels with King Curtis Orchestra - Boogie In The Moonlight.wav

Pre-gap length 0:00:03.55

Peak level 67.4 %
Extraction speed 4.8 X
Track quality 100.0 %
Test CRC 3537111E
Copy CRC 3537111E
Accurately ripped (confidence 1) [27E507F7] (AR v2)
Copy OK

Track 4

Filename C:\Rips\Various Artists - Wail Man Wail! The Best Of King Curtis 1952-1961 (2012) [FLAC]\CD2\04 - Doc Pomus All Stars - Work, Little Carrie, Work.wav

Pre-gap length 0:00:04.15

Peak level 87.7 %
Extraction speed 3.7 X
Track quality 99.9 %
Test CRC D3AFDC4F
Copy CRC D3AFDC4F
Accurately ripped (confidence 1) [8FDE24EB] (AR v2)
Copy OK

Track 5

Filename C:\Rips\Various Artists - Wail Man Wail! The Best Of King Curtis 1952-1961 (2012) [FLAC]\CD2\05 - The Sparks Of Rhythm - Woman, Woman, Woman.wav

Pre-gap length 0:00:02.40

Peak level 75.2 %
Extraction speed 5.3 X
Track quality 100.0 %
Test CRC F32FE923
Copy CRC F32FE923
Accurately ripped (confidence 1) [DB1A3DCF] (AR v2)
Copy OK

Track 6

Filename C:\Rips\Various Artists - Wail Man Wail! The Best Of King Curtis 1952-1961 (2012) [FLAC]\CD2\06 - Solomon Burke - Why Do Me That Way.wav

Pre-gap length 0:00:02.13

Peak level 89.5 %
Extraction speed 5.4 X
Track quality 100.0 %
Test CRC 19433445
Copy CRC 19433445
Accurately ripped (confidence 1) [1811B495] (AR v2)
Copy OK

Track 7

Filename C:\Rips\Various Artists - Wail Man Wail! The Best Of King Curtis 1952-1961 (2012) [FLAC]\CD2\07 - Mr Bear & The Bearcats - Mr Bear Comes To Town.wav

Pre-gap length 0:00:02.38

Peak level 63.1 %
Extraction speed 3.7 X
Track quality 99.9 %
Test CRC 70ECDDCA
Copy CRC 70ECDDCA
Accurately ripped (confidence 1) [42B6EFF0] (AR v2)
Copy OK

Track 8

Filename C:\Rips\Various Artists - Wail Man Wail! The Best Of King Curtis 1952-1961 (2012) [FLAC]\CD2\08 - Varetta Dillard - If (You Want To Be My Baby).wav

Pre-gap length 0:00:02.37

Peak level 81.4 %
Extraction speed 5.5 X
Track quality 100.0 %
Test CRC A024B8E1
Copy CRC A024B8E1
Accurately ripped (confidence 1) [5A97065E] (AR v2)
Copy OK

Track 9

Filename C:\Rips\Various Artists - Wail Man Wail! The Best Of King Curtis 1952-1961 (2012) [FLAC]\CD2\09 - Roy ''Mr Guitar'' Gaines - Dee Dat Dee Dum Dum.wav

Pre-gap length 0:00:02.70

Peak level 60.9 %
Extraction speed 5.6 X
Track quality 100.0 %
Test CRC F5F18A10
Copy CRC F5F18A10
Accurately ripped (confidence 1) [A0291B5F] (AR v2)
Copy OK

Track 10

Filename C:\Rips\Various Artists - Wail Man Wail! The Best Of King Curtis 1952-1961 (2012) [FLAC]\CD2\10 - Big Connie - Mumbles Blues.wav

Pre-gap length 0:00:02.42

Peak level 55.4 %
Extraction speed 4.2 X
Track quality 99.9 %
Test CRC 8BF8D12C
Copy CRC 8BF8D12C
Accurately ripped (confidence 1) [5FCC427C] (AR v2)
Copy OK

Track 11

Filename C:\Rips\Various Artists - Wail Man Wail! The Best Of King Curtis 1952-1961 (2012) [FLAC]\CD2\11 - The Tibbs Brothers - I'm Going Crazy.wav

Pre-gap length 0:00:02.30

Peak level 54.0 %
Extraction speed 6.2 X
Track quality 100.0 %
Test CRC 2FCBD40F
Copy CRC 2FCBD40F
Accurately ripped (confidence 1) [AE6637E9] (AR v2)
Copy OK

Track 12

Filename C:\Rips\Various Artists - Wail Man Wail! The Best Of King Curtis 1952-1961 (2012) [FLAC]\CD2\12 - The Nitecaps - Bamboo Rock 'n' Roll.wav

Pre-gap length 0:00:02.51

Peak level 86.2 %
Extraction speed 6.2 X
Track quality 100.0 %
Test CRC 5D0F51EE
Copy CRC 5D0F51EE
Accurately ripped (confidence 1) [81DEA2ED] (AR v2)
Copy OK

Track 13

Filename C:\Rips\Various Artists - Wail Man Wail! The Best Of King Curtis 1952-1961 (2012) [FLAC]\CD2\13 - The Cues - Yes Sir!.wav

Pre-gap length 0:00:02.64

Peak level 100.0 %
Extraction speed 6.2 X
Track quality 100.0 %
Test CRC 6B3139E9
Copy CRC 6B3139E9
Accurately ripped (confidence 1) [2240F9A6] (AR v2)
Copy OK

Track 14

Filename C:\Rips\Various Artists - Wail Man Wail! The Best Of King Curtis 1952-1961 (2012) [FLAC]\CD2\14 - Washboard Bill - In The Morning.wav

Pre-gap length 0:00:02.33

Peak level 66.9 %
Extraction speed 4.7 X
Track quality 99.9 %
Test CRC 89870D29
Copy CRC 89870D29
Accurately ripped (confidence 1) [428A82C3] (AR v2)
Copy OK

Track 15

Filename C:\Rips\Various Artists - Wail Man Wail! The Best Of King Curtis 1952-1961 (2012) [FLAC]\CD2\15 - The Avons - Our Love Will Never End.wav

Pre-gap length 0:00:02.64

Peak level 78.6 %
Extraction speed 6.6 X
Track quality 100.0 %
Test CRC 640F9DFB
Copy CRC 640F9DFB
Accurately ripped (confidence 1) [43482C16] (AR v2)
Copy OK

Track 16

Filename C:\Rips\Various Artists - Wail Man Wail! The Best Of King Curtis 1952-1961 (2012) [FLAC]\CD2\16 - The Willows - Don't Push, Don't Pull, Don't Shove.wav

Pre-gap length 0:00:02.63

Peak level 100.0 %
Extraction speed 6.8 X
Track quality 100.0 %
Test CRC 01440C5F
Copy CRC 01440C5F
Accurately ripped (confidence 1) [04AB7749] (AR v2)
Copy OK

Track 17

Filename C:\Rips\Various Artists - Wail Man Wail! The Best Of King Curtis 1952-1961 (2012) [FLAC]\CD2\17 - Sonny Thompson Orchestra - Gum Shoe.wav

Pre-gap length 0:00:02.10

Peak level 63.8 %
Extraction speed 7.0 X
Track quality 100.0 %
Test CRC CEE40D40
Copy CRC CEE40D40
Accurately ripped (confidence 1) [C8BA34B0] (AR v2)
Copy OK

Track 18

Filename C:\Rips\Various Artists - Wail Man Wail! The Best Of King Curtis 1952-1961 (2012) [FLAC]\CD2\18 - Mickey & Sylvia - I'm Going Home.wav

Pre-gap length 0:00:02.42

Peak level 70.1 %
Extraction speed 7.0 X
Track quality 100.0 %
Test CRC CB875F3C
Copy CRC CB875F3C
Accurately ripped (confidence 1) [7D6160E1] (AR v2)
Copy OK

Track 19

Filename C:\Rips\Various Artists - Wail Man Wail! The Best Of King Curtis 1952-1961 (2012) [FLAC]\CD2\19 - The Nitecaps - Oh! You Sweet Girl.wav

Pre-gap length 0:00:02.13

Peak level 86.9 %
Extraction speed 6.8 X
Track quality 100.0 %
Test CRC 3611CFED
Copy CRC 3611CFED
Accurately ripped (confidence 1) [04609F7F] (AR v2)
Copy OK

Track 20

Filename C:\Rips\Various Artists - Wail Man Wail! The Best Of King Curtis 1952-1961 (2012) [FLAC]\CD2\20 - Sam Price & His Texas Bluesicians - Rib Joint.wav

Pre-gap length 0:00:03.35

Peak level 85.6 %
Extraction speed 5.4 X
Track quality 99.9 %
Test CRC 7AFD99FA
Copy CRC 7AFD99FA
Accurately ripped (confidence 1) [9702A207] (AR v2)
Copy OK

Track 21

Filename C:\Rips\Various Artists - Wail Man Wail! The Best Of King Curtis 1952-1961 (2012) [FLAC]\CD2\21 - Rudy Greene - Juicy Fruit.wav

Pre-gap length 0:00:03.52

Peak level 68.6 %
Extraction speed 7.2 X
Track quality 100.0 %
Test CRC 0990A618
Copy CRC 0990A618
Accurately ripped (confidence 1) [4D16F77A] (AR v2)
Copy OK

Track 22

Filename C:\Rips\Various Artists - Wail Man Wail! The Best Of King Curtis 1952-1961 (2012) [FLAC]\CD2\22 - Sammy Lowe & His Orchestra - Wail Man Wail.wav

Pre-gap length 0:00:03.04

Peak level 87.9 %
Extraction speed 7.6 X
Track quality 100.0 %
Test CRC 2CFCAA71
Copy CRC 2CFCAA71
Accurately ripped (confidence 1) [69F7F0F1] (AR v2)
Copy OK

Track 23

Filename C:\Rips\Various Artists - Wail Man Wail! The Best Of King Curtis 1952-1961 (2012) [FLAC]\CD2\23 - Rudy Greene - You're The One For Me.wav

Pre-gap length 0:00:03.21

Peak level 75.8 %
Extraction speed 7.5 X
Track quality 100.0 %
Test CRC 9E7A6BB0
Copy CRC 9E7A6BB0
Accurately ripped (confidence 1) [6BF17726] (AR v2)
Copy OK

Track 24

Filename C:\Rips\Various Artists - Wail Man Wail! The Best Of King Curtis 1952-1961 (2012) [FLAC]\CD2\24 - Washboard Bill - Pot Likker.wav

Pre-gap length 0:00:03.23

Peak level 70.5 %
Extraction speed 8.0 X
Track quality 100.0 %
Test CRC 45DF7269
Copy CRC 45DF7269
Accurately ripped (confidence 1) [7BCF1337] (AR v2)
Copy OK

Track 25

Filename C:\Rips\Various Artists - Wail Man Wail! The Best Of King Curtis 1952-1961 (2012) [FLAC]\CD2\25 - The Pearls - Ice Cream Baby.wav

Pre-gap length 0:00:03.14

Peak level 68.9 %
Extraction speed 7.9 X
Track quality 100.0 %
Test CRC 5308522C
Copy CRC 5308522C
Accurately ripped (confidence 1) [4CB4C7BA] (AR v2)
Copy OK

Track 26

Filename C:\Rips\Various Artists - Wail Man Wail! The Best Of King Curtis 1952-1961 (2012) [FLAC]\CD2\26 - The Five Keys - Handy Andy.wav

Pre-gap length 0:00:02.68

Peak level 99.4 %
Extraction speed 8.0 X
Track quality 100.0 %
Test CRC D76C1CF8
Copy CRC D76C1CF8
Accurately ripped (confidence 1) [D1330311] (AR v2)
Copy OK

Track 27

Filename C:\Rips\Various Artists - Wail Man Wail! The Best Of King Curtis 1952-1961 (2012) [FLAC]\CD2\27 - The Twin-Tones - Before You Go.wav

Pre-gap length 0:00:01.60

Peak level 94.7 %
Extraction speed 8.5 X
Track quality 100.0 %
Test CRC 677AFDDB
Copy CRC 677AFDDB
Accurately ripped (confidence 1) [CC9D1FAE] (AR v2)
Copy OK

Track 28

Filename C:\Rips\Various Artists - Wail Man Wail! The Best Of King Curtis 1952-1961 (2012) [FLAC]\CD2\28 - Big Maybelle - Blues, Early Early (Parts 1 & 2).wav

Pre-gap length 0:00:02.27

Peak level 72.8 %
Extraction speed 9.3 X
Track quality 100.0 %
Test CRC A7A63AEB
Copy CRC A7A63AEB
Accurately ripped (confidence 1) [F3146486] (AR v2)
Copy OK

Track 29

Filename C:\Rips\Various Artists - Wail Man Wail! The Best Of King Curtis 1952-1961 (2012) [FLAC]\CD2\29 - Walter Spriggs - Rack 'Em Back.wav

Pre-gap length 0:00:02.06

Peak level 78.6 %
Extraction speed 7.5 X
Track quality 100.0 %
Test CRC D380F09A
Copy CRC D380F09A
Accurately ripped (confidence 1) [E77F2ED5] (AR v2)
Copy OK

Track 30

Filename C:\Rips\Various Artists - Wail Man Wail! The Best Of King Curtis 1952-1961 (2012) [FLAC]\CD2\30 - The Diamonds - The Stroll.wav

Pre-gap length 0:00:03.08

Peak level 73.5 %
Extraction speed 5.9 X
Track quality 99.9 %
Test CRC F6E6B6CE
Copy CRC F6E6B6CE
Accurately ripped (confidence 1) [F6008EFC] (AR v2)
Copy OK


All tracks accurately ripped

No errors occurred

End of status report

==== Log checksum A5A287C9A25870CDD8FCA45E0CF075FC38131A7E4A2027C2CE3FB40BB2512071 ====

Exact Audio Copy V1.0 beta 3 from 29. August 2011

EAC extraction logfile from 1. May 2014, 23:36

Various Artists / Wail Man Wail!: The Best Of King Curtis 1952-1961 (Disc 3)

Used drive : TSSTcorpCDDVDW SH-224BB Adapter: 0 ID: 0

Read mode : Secure
Utilize accurate stream : Yes
Defeat audio cache : Yes
Make use of C2 pointers : No

Read offset correction : 6
Overread into Lead-In and Lead-Out : No
Fill up missing offset samples with silence : Yes
Delete leading and trailing silent blocks : No
Null samples used in CRC calculations : Yes
Used interface : Native Win32 interface for Win NT & 2000
Gap handling : Appended to previous track

Used output format : User Defined Encoder
Selected bitrate : 768 kBit/s
Quality : High
Add ID3 tag : No
Command line compressor : C:\Program Files (x86)\Exact Audio Copy\FLAC\FLAC.EXE
Additional command line options : -8 -V -T "ARTIST=%artist%" -T "TITLE=%title%" -T "ALBUM=%albumtitle%" -T "DATE=%year%" -T "TRACKNUMBER=%tracknr%" -T "TOTALTRACKS=%numtracks%" -T "GENRE=%genre%" -T "ALBUMARTIST=%albumartist%" -T "ALBUM ARTIST=%albumartist%" -T "COMMENT=EAC Secure Mode, Test & Copy, AccurateRip, FLAC -8" %source%


TOC of the extracted CD

Track | Start | Length | Start sector | End sector
––––––––––––––––––––––––––––-
1 | 0:00.00 | 2:08.69 | 0 | 9668
2 | 2:08.69 | 2:20.03 | 9669 | 20171
3 | 4:28.72 | 2:10.56 | 20172 | 29977
4 | 6:39.53 | 2:14.34 | 29978 | 40061
5 | 8:54.12 | 2:07.09 | 40062 | 49595
6 | 11:01.21 | 1:58.36 | 49596 | 58481
7 | 12:59.57 | 2:29.12 | 58482 | 69668
8 | 15:28.69 | 1:56.54 | 69669 | 78422
9 | 17:25.48 | 2:28.32 | 78423 | 89554
10 | 19:54.05 | 2:21.45 | 89555 | 100174
11 | 22:15.50 | 2:27.68 | 100175 | 111267
12 | 24:43.43 | 2:20.45 | 111268 | 121812
13 | 27:04.13 | 2:30.66 | 121813 | 133128
14 | 29:35.04 | 1:48.61 | 133129 | 141289
15 | 31:23.65 | 2:10.56 | 141290 | 151095
16 | 33:34.46 | 2:26.04 | 151096 | 162049
17 | 36:00.50 | 2:14.18 | 162050 | 172117
18 | 38:14.68 | 2:20.69 | 172118 | 182686
19 | 40:35.62 | 2:15.64 | 182687 | 192875
20 | 42:51.51 | 2:22.20 | 192876 | 203545
21 | 45:13.71 | 1:55.69 | 203546 | 212239
22 | 47:09.65 | 2:13.02 | 212240 | 222216
23 | 49:22.67 | 2:21.43 | 222217 | 232834
24 | 51:44.35 | 2:27.07 | 232835 | 243866
25 | 54:11.42 | 2:14.49 | 243867 | 253965
26 | 56:26.16 | 3:02.70 | 253966 | 267685
27 | 59:29.11 | 2:39.32 | 267686 | 279642
28 | 62:08.43 | 2:13.32 | 279643 | 289649
29 | 64:22.00 | 2:13.38 | 289650 | 299662
30 | 66:35.38 | 2:58.70 | 299663 | 313082
31 | 69:34.33 | 2:21.71 | 313083 | 323728
32 | 71:56.29 | 2:03.73 | 323729 | 333026
33 | 74:00.27 | 2:47.14 | 333027 | 345565
34 | 76:47.41 | 2:37.19 | 345566 | 357359


Track 1

Filename C:\Rips\Various Artists - Wail Man Wail! The Best Of King Curtis 1952-1961 (2012) [FLAC]\CD3\01 - Joe Turner with Howard Biggs Orchestra - (We're Gonna) Jump For Joy.wav

Pre-gap length 0:00:02.00

Peak level 81.7 %
Extraction speed 4.1 X
Track quality 100.0 %
Test CRC 38A7AD56
Copy CRC 38A7AD56
Accurately ripped (confidence 1) [86DD14A2] (AR v2)
Copy OK

Track 2

Filename C:\Rips\Various Artists - Wail Man Wail! The Best Of King Curtis 1952-1961 (2012) [FLAC]\CD3\02 - Chuck Willis - Keep A-Driving.wav

Pre-gap length 0:00:02.14

Peak level 93.3 %
Extraction speed 4.3 X
Track quality 100.0 %
Test CRC DFFA5C44
Copy CRC DFFA5C44
Accurately ripped (confidence 1) [AAB35F74] (AR v2)
Copy OK

Track 3

Filename C:\Rips\Various Artists - Wail Man Wail! The Best Of King Curtis 1952-1961 (2012) [FLAC]\CD3\03 - The Strollers - Crowded Classroom.wav

Pre-gap length 0:00:02.14

Peak level 85.0 %
Extraction speed 4.5 X
Track quality 100.0 %
Test CRC 3A91CDAC
Copy CRC 3A91CDAC
Accurately ripped (confidence 1) [B70FB734] (AR v2)
Copy OK

Track 4

Filename C:\Rips\Various Artists - Wail Man Wail! The Best Of King Curtis 1952-1961 (2012) [FLAC]\CD3\04 - The Coasters - The Shadow Knows.wav

Pre-gap length 0:00:02.45

Peak level 54.5 %
Extraction speed 3.4 X
Track quality 99.9 %
Test CRC 73DB7F63
Copy CRC 73DB7F63
Accurately ripped (confidence 1) [CE294FF3] (AR v2)
Copy OK

Track 5

Filename C:\Rips\Various Artists - Wail Man Wail! The Best Of King Curtis 1952-1961 (2012) [FLAC]\CD3\05 - The Del-Larks - Lady Love.wav

Pre-gap length 0:00:00.74

Peak level 70.3 %
Extraction speed 3.5 X
Track quality 99.9 %
Test CRC 09BD4998
Copy CRC 09BD4998
Accurately ripped (confidence 1) [5C668BED] (AR v2)
Copy OK

Track 6

Filename C:\Rips\Various Artists - Wail Man Wail! The Best Of King Curtis 1952-1961 (2012) [FLAC]\CD3\06 - Bobby Darin - Keep A Walkin'.wav

Pre-gap length 0:00:02.58

Peak level 41.4 %
Extraction speed 5.0 X
Track quality 100.0 %
Test CRC 4D2F048E
Copy CRC 4D2F048E
Accurately ripped (confidence 1) [8E67BBE1] (AR v2)
Copy OK

Track 7

Filename C:\Rips\Various Artists - Wail Man Wail! The Best Of King Curtis 1952-1961 (2012) [FLAC]\CD3\07 - The Bobbettes - Rock And Ree-Ah-Zole.wav

Pre-gap length 0:00:02.09

Peak level 68.4 %
Extraction speed 5.3 X
Track quality 100.0 %
Test CRC 3EFBB5B1
Copy CRC 3EFBB5B1
Accurately ripped (confidence 1) [BB958146] (AR v2)
Copy OK

Track 8

Filename C:\Rips\Various Artists - Wail Man Wail! The Best Of King Curtis 1952-1961 (2012) [FLAC]\CD3\08 - The Coasters - Yakety Yak.wav

Pre-gap length 0:00:02.57

Peak level 51.9 %
Extraction speed 5.1 X
Track quality 100.0 %
Test CRC 1B4D8A68
Copy CRC 1B4D8A68
Accurately ripped (confidence 1) [5CB8396C] (AR v2)
Copy OK

Track 9

Filename C:\Rips\Various Artists - Wail Man Wail! The Best Of King Curtis 1952-1961 (2012) [FLAC]\CD3\09 - Pretty Boy with Lee Simmons Orchestra - Switchen In The Kitchen.wav

Pre-gap length 0:00:02.45

Peak level 97.4 %
Extraction speed 5.7 X
Track quality 100.0 %
Test CRC 2B2492A4
Copy CRC 2B2492A4
Accurately ripped (confidence 1) [AF4BB362] (AR v2)
Copy OK

Track 10

Filename C:\Rips\Various Artists - Wail Man Wail! The Best Of King Curtis 1952-1961 (2012) [FLAC]\CD3\10 - Hutch Davie - In The Mood.wav

Pre-gap length 0:00:02.66

Peak level 57.0 %
Extraction speed 5.9 X
Track quality 100.0 %
Test CRC 332193C9
Copy CRC 332193C9
Accurately ripped (confidence 1) [150D5CE4] (AR v2)
Copy OK

Track 11

Filename C:\Rips\Various Artists - Wail Man Wail! The Best Of King Curtis 1952-1961 (2012) [FLAC]\CD3\11 - Varetta Dillard with Sid Bass & His Orchestra - Just Multiply.wav

Pre-gap length 0:00:02.62

Peak level 72.1 %
Extraction speed 6.1 X
Track quality 100.0 %
Test CRC 90FF9195
Copy CRC 90FF9195
Accurately ripped (confidence 1) [3DFE6DB5] (AR v2)
Copy OK

Track 12

Filename C:\Rips\Various Artists - Wail Man Wail! The Best Of King Curtis 1952-1961 (2012) [FLAC]\CD3\12 - The Stone Crushers - Crawfish.wav

Pre-gap length 0:00:02.34

Peak level 76.6 %
Extraction speed 6.0 X
Track quality 100.0 %
Test CRC 4138CCB0
Copy CRC 4138CCB0
Accurately ripped (confidence 1) [C743B726] (AR v2)
Copy OK

Track 13

Filename C:\Rips\Various Artists - Wail Man Wail! The Best Of King Curtis 1952-1961 (2012) [FLAC]\CD3\13 - The Arcades - Fine Little Girl.wav

Pre-gap length 0:00:03.16

Peak level 65.3 %
Extraction speed 6.2 X
Track quality 100.0 %
Test CRC 4ABB7148
Copy CRC 4ABB7148
Accurately ripped (confidence 1) [536044DB] (AR v2)
Copy OK

Track 14

Filename C:\Rips\Various Artists - Wail Man Wail! The Best Of King Curtis 1952-1961 (2012) [FLAC]\CD3\14 - Ruth Brown with Howard Biggs Orchestra - This Little Girl's Gone Rockin'.wav

Pre-gap length 0:00:01.09

Peak level 63.6 %
Extraction speed 5.8 X
Track quality 100.0 %
Test CRC BA24D2BB
Copy CRC BA24D2BB
Accurately ripped (confidence 1) [FE7BAEE9] (AR v2)
Copy OK

Track 15

Filename C:\Rips\Various Artists - Wail Man Wail! The Best Of King Curtis 1952-1961 (2012) [FLAC]\CD3\15 - Waylon Jennings - When Sin Stops.wav

Pre-gap length 0:00:01.63

Peak level 91.1 %
Extraction speed 6.2 X
Track quality 100.0 %
Test CRC 71EA3BB2
Copy CRC 71EA3BB2
Accurately ripped (confidence 1) [0F2BF8E3] (AR v2)
Copy OK

Track 16

Filename C:\Rips\Various Artists - Wail Man Wail! The Best Of King Curtis 1952-1961 (2012) [FLAC]\CD3\16 - The Coasters - That Is Rock And Roll.wav

Pre-gap length 0:00:02.68

Peak level 46.9 %
Extraction speed 4.8 X
Track quality 99.9 %
Test CRC D9374F4C
Copy CRC D9374F4C
Accurately ripped (confidence 1) [574EDA74] (AR v2)
Copy OK

Track 17

Filename C:\Rips\Various Artists - Wail Man Wail! The Best Of King Curtis 1952-1961 (2012) [FLAC]\CD3\17 - Bobby Darin - I Ain't Sharin' Sharon.wav

Pre-gap length 0:00:03.33

Peak level 43.8 %
Extraction speed 6.5 X
Track quality 100.0 %
Test CRC 26DC4461
Copy CRC 26DC4461
Accurately ripped (confidence 1) [0EBF2B90] (AR v2)
Copy OK

Track 18

Filename C:\Rips\Various Artists - Wail Man Wail! The Best Of King Curtis 1952-1961 (2012) [FLAC]\CD3\18 - Neil Sedaka - You Gotta Learn Your Rhythm And Blues.wav

Pre-gap length 0:00:02.54

Peak level 64.2 %
Extraction speed 6.7 X
Track quality 100.0 %
Test CRC B7ACB120
Copy CRC B7ACB120
Accurately ripped (confidence 1) [E9291AD5] (AR v2)
Copy OK

Track 19

Filename C:\Rips\Various Artists - Wail Man Wail! The Best Of King Curtis 1952-1961 (2012) [FLAC]\CD3\19 - Bracey Everett - The Lover's Curse.wav

Pre-gap length 0:00:03.03

Peak level 42.0 %
Extraction speed 6.8 X
Track quality 100.0 %
Test CRC 237BA7FD
Copy CRC 237BA7FD
Accurately ripped (confidence 1) [FE3038FF] (AR v2)
Copy OK

Track 20

Filename C:\Rips\Various Artists - Wail Man Wail! The Best Of King Curtis 1952-1961 (2012) [FLAC]\CD3\20 - The Coasters - Charlie Brown.wav

Pre-gap length 0:00:02.47

Peak level 49.7 %
Extraction speed 6.8 X
Track quality 100.0 %
Test CRC 5C74161D
Copy CRC 5C74161D
Accurately ripped (confidence 1) [CB25B929] (AR v2)
Copy OK

Track 21

Filename C:\Rips\Various Artists - Wail Man Wail! The Best Of King Curtis 1952-1961 (2012) [FLAC]\CD3\21 - Waylon Jennings - Jole Blon.wav

Pre-gap length 0:00:02.61

Peak level 90.6 %
Extraction speed 6.7 X
Track quality 100.0 %
Test CRC 9D96768C
Copy CRC 9D96768C
Accurately ripped (confidence 1) [89696040] (AR v2)
Copy OK

Track 22

Filename C:\Rips\Various Artists - Wail Man Wail! The Best Of King Curtis 1952-1961 (2012) [FLAC]\CD3\22 - Sammy Turner with Stan Applebaum Orchestra - Always.wav

Pre-gap length 0:00:03.02

Peak level 77.7 %
Extraction speed 7.1 X
Track quality 100.0 %
Test CRC A9715B88
Copy CRC A9715B88
Accurately ripped (confidence 1) [36877706] (AR v2)
Copy OK

Track 23

Filename C:\Rips\Various Artists - Wail Man Wail! The Best Of King Curtis 1952-1961 (2012) [FLAC]\CD3\23 - Ruth Brown with Howard Biggs Orchestra - Takin' Care Of Business.wav

Pre-gap length 0:00:02.53

Peak level 61.0 %
Extraction speed 7.5 X
Track quality 100.0 %
Test CRC 7D23919F
Copy CRC 7D23919F
Accurately ripped (confidence 1) [84A7D2AD] (AR v2)
Copy OK

Track 24

Filename C:\Rips\Various Artists - Wail Man Wail! The Best Of King Curtis 1952-1961 (2012) [FLAC]\CD3\24 - Neil Sedaka - Stupid Cupid.wav

Pre-gap length 0:00:02.68

Peak level 74.1 %
Extraction speed 7.6 X
Track quality 100.0 %
Test CRC 8B38E302
Copy CRC 8B38E302
Accurately ripped (confidence 1) [A78CD4D7] (AR v2)
Copy OK

Track 25

Filename C:\Rips\Various Artists - Wail Man Wail! The Best Of King Curtis 1952-1961 (2012) [FLAC]\CD3\25 - The Coasters - Besame Mucho (Pt. 2).wav

Pre-gap length 0:00:03.51

Peak level 48.3 %
Extraction speed 7.6 X
Track quality 100.0 %
Test CRC 30092517
Copy CRC 30092517
Accurately ripped (confidence 1) [441C6F09] (AR v2)
Copy OK

Track 26

Filename C:\Rips\Various Artists - Wail Man Wail! The Best Of King Curtis 1952-1961 (2012) [FLAC]\CD3\26 - Lionel Hampton & His Orchestra - More Juice.wav

Pre-gap length 0:00:00.20

Peak level 49.7 %
Extraction speed 6.2 X
Track quality 99.9 %
Test CRC 81CE7567
Copy CRC 81CE7567
Accurately ripped (confidence 1) [EBC00F52] (AR v2)
Copy OK

Track 27

Filename C:\Rips\Various Artists - Wail Man Wail! The Best Of King Curtis 1952-1961 (2012) [FLAC]\CD3\27 - Roy Hamilton - Your Love.wav

Pre-gap length 0:00:00.33

Peak level 100.0 %
Extraction speed 8.0 X
Track quality 100.0 %
Test CRC 77DFDC82
Copy CRC 77DFDC82
Accurately ripped (confidence 1) [47E54DCA] (AR v2)
Copy OK

Track 28

Filename C:\Rips\Various Artists - Wail Man Wail! The Best Of King Curtis 1952-1961 (2012) [FLAC]\CD3\28 - The Strolls feat. King Curtiss - Madisonville (Pt. 1).wav

Pre-gap length 0:00:02.15

Peak level 97.3 %
Extraction speed 5.5 X
Track quality 99.9 %
Test CRC 1B37DCE1
Copy CRC 1B37DCE1
Accurately ripped (confidence 1) [9A2BC2DE] (AR v2)
Copy OK

Track 29

Filename C:\Rips\Various Artists - Wail Man Wail! The Best Of King Curtis 1952-1961 (2012) [FLAC]\CD3\29 - The Strolls feat. King Curtiss - Madisonville (Pt. 2).wav

Pre-gap length 0:00:02.33

Peak level 99.9 %
Extraction speed 8.0 X
Track quality 100.0 %
Test CRC FDE67FC7
Copy CRC FDE67FC7
Accurately ripped (confidence 1) [2474163C] (AR v2)
Copy OK

Track 30

Filename C:\Rips\Various Artists - Wail Man Wail! The Best Of King Curtis 1952-1961 (2012) [FLAC]\CD3\30 - The Coasters - Shoppin' For Clothes.wav

Pre-gap length 0:00:03.08

Peak level 50.4 %
Extraction speed 6.3 X
Track quality 99.9 %
Test CRC 4785F1F2
Copy CRC 4785F1F2
Accurately ripped (confidence 1) [6A3FC420] (AR v2)
Copy OK

Track 31

Filename C:\Rips\Various Artists - Wail Man Wail! The Best Of King Curtis 1952-1961 (2012) [FLAC]\CD3\31 - Bobby Lewis with Joe Rene Orchestra - Tossin' And Turnin'.wav

Pre-gap length 0:00:02.24

Peak level 78.6 %
Extraction speed 8.2 X
Track quality 100.0 %
Test CRC D15E95F7
Copy CRC D15E95F7
Accurately ripped (confidence 1) [BB70CDA9] (AR v2)
Copy OK

Track 32

Filename C:\Rips\Various Artists - Wail Man Wail! The Best Of King Curtis 1952-1961 (2012) [FLAC]\CD3\32 - The Top Notes with Teddy Randazzo Orchestra - Hearts Of Stone.wav

Pre-gap length 0:00:02.61

Peak level 65.2 %
Extraction speed 7.8 X
Track quality 100.0 %
Test CRC C6946993
Copy CRC C6946993
Accurately ripped (confidence 1) [F7F9F4ED] (AR v2)
Copy OK

Track 33

Filename C:\Rips\Various Artists - Wail Man Wail! The Best Of King Curtis 1952-1961 (2012) [FLAC]\CD3\33 - The Shells - Better Forget Him.wav

Pre-gap length 0:00:00.64

Peak level 70.9 %
Extraction speed 8.5 X
Track quality 100.0 %
Test CRC 0BB40B6D
Copy CRC 0BB40B6D
Accurately ripped (confidence 1) [33059A5A] (AR v2)
Copy OK

Track 34

Filename C:\Rips\Various Artists - Wail Man Wail! The Best Of King Curtis 1952-1961 (2012) [FLAC]\CD3\34 - Wilbert Harrison - Off To Work Again.wav

Pre-gap length 0:00:01.30

Peak level 66.2 %
Extraction speed 8.5 X
Track quality 100.0 %
Test CRC 55E7E514
Copy CRC 55E7E514
Accurately ripped (confidence 1) [30BE7F31] (AR v2)
Copy OK


All tracks accurately ripped

No errors occurred

End of status report

==== Log checksum C5E0906803CF1A564BC4030096E6059B9667DA1782207D1DC9F3C32F9BD4C20E ====


King Curtis - Wail Man Wail! - The Best Of King Curtis 1952-1961 [3CD Set] (2012) {Fantastic Voyage}



===