Subcategories

Klaus Nomi - The Star Collection (1991) {RCA-BMG ND 75004}

Posted By: ruskaval
Klaus Nomi - The Star Collection (1991) {RCA-BMG ND 75004}

Klaus Nomi - The Star Collection (1991) {RCA-BMG ND 75004}
EAC rip (secure mode) | FLAC (tracks)+CUE+LOG -> 265 Mb | MP3 @320 -> 131 Mb
Full Artwork @ 300 dpi (png) -> 28 Mb | 5% repair rar
© 1991 RCA / BMG | ND 75004
New Wave / Opera / Pop / Synth Pop / Alternative

This collection contains tracks from Nomi's debut and the follow-up, Simple Man. As such, the material is an interesting blend of catchy synth-pop, like 'Just One Look' and 'Falling In Love Again' (sung partly in German) and serious choral pieces like 'Death and From Beyond'. 'Rubberband Lazer', an addictive pop song with weird country infusions and brilliant bursts of synth, and the theatrical' Ding Dong The Witch Is Dead 'with its sing-along chorus are my favorites here.

tracklist:
01 - Cold Song
02 - Can't Help Falling in Love
03 - Der Nussbaum
04 - Just One Look
05 - The Twist
06 - Total Eclipse
07 - Three Wishes
08 - Icurok
09 - Wasting My Times
10 - Rubberband Lazer
11 - Ding Dong
12 - Nomi Chant
13 - Death
14 - Wayward Sisters
15 - From Beyond
16 - Falling in Love Again

Exact Audio Copy V1.1 from 23. June 2015

EAC extraction logfile from 17. April 2016, 19:24

Klaus Nomi / The Star Collection

Used drive : HL-DT-STDVD+-RW GH70N Adapter: 1 ID: 0

Read mode : Secure
Utilize accurate stream : Yes
Defeat audio cache : Yes
Make use of C2 pointers : No

Read offset correction : 667
Overread into Lead-In and Lead-Out : No
Fill up missing offset samples with silence : Yes
Delete leading and trailing silent blocks : No
Null samples used in CRC calculations : Yes
Used interface : Native Win32 interface for Win NT & 2000
Gap handling : Appended to previous track

Used output format : User Defined Encoder
Selected bitrate : 56 kBit/s
Quality : High
Add ID3 tag : Yes
Command line compressor : C:\Program Files (x86)\flac-1.3.1-win\win64\flac.exe
Additional command line options : -8 -e -V -T "ARTIST=%artist%" -T "TITLE=%title%" -T "ALBUM=%albumtitle%" -T "DATE=%year%" -T "TRACKNUMBER=%tracknr%" -T "GENRE=%genre%" -T "PERFORMER=%albuminterpret%" -T "COMPOSER=%composer%" %haslyrics%–tag-from-file=LYRICS="%lyricsfile%"%haslyrics% -T "ALBUMARTIST=%albumartist%" -T "DISCNUMBER=%cdnumber%" -T "TOTALDISCS=%totalcds%" -T "TOTALTRACKS=%numtracks%" -T "COMMENT=%comment%" %source% -o %dest%


TOC of the extracted CD

Track | Start | Length | Start sector | End sector
––––––––––––––––––––––––––––-
1 | 0:00.33 | 4:04.60 | 33 | 18392
2 | 4:05.18 | 3:56.12 | 18393 | 36104
3 | 8:01.30 | 3:05.65 | 36105 | 50044
4 | 11:07.20 | 3:21.38 | 50045 | 65157
5 | 14:28.58 | 3:04.17 | 65158 | 78974
6 | 17:33.00 | 3:29.05 | 78975 | 94654
7 | 21:02.05 | 3:20.05 | 94655 | 109659
8 | 24:22.10 | 4:25.28 | 109660 | 129562
9 | 28:47.38 | 4:14.37 | 129563 | 148649
10 | 33:02.00 | 4:21.38 | 148650 | 168262
11 | 37:23.38 | 3:11.32 | 168263 | 182619
12 | 40:34.70 | 1:55.28 | 182620 | 191272
13 | 42:30.23 | 4:21.27 | 191273 | 210874
14 | 46:51.50 | 1:43.33 | 210875 | 218632
15 | 48:35.08 | 2:51.72 | 218633 | 231529
16 | 51:27.05 | 2:40.73 | 231530 | 243602


Track 1

Filename E:\rip\Klaus Nomi - The Star Collection [FLAC]\01 - Cold Song.wav

Pre-gap length 0:00:02.44

Peak level 100.0 %
Extraction speed 2.8 X
Track quality 100.0 %
Test CRC B510AE1E
Copy CRC B510AE1E
Accurately ripped (confidence 22) [99089F25] (AR v2)
Copy OK

Track 2

Filename E:\rip\Klaus Nomi - The Star Collection [FLAC]\02 - Can't Help Falling in Love.wav

Pre-gap length 0:00:01.20

Peak level 100.0 %
Extraction speed 3.1 X
Track quality 100.0 %
Test CRC 04F65DE1
Copy CRC 04F65DE1
Accurately ripped (confidence 21) [D26D3344] (AR v2)
Copy OK

Track 3

Filename E:\rip\Klaus Nomi - The Star Collection [FLAC]\03 - Der Nussbaum.wav

Pre-gap length 0:00:01.02

Peak level 59.3 %
Extraction speed 3.1 X
Track quality 100.0 %
Test CRC 81A4C326
Copy CRC 81A4C326
Accurately ripped (confidence 22) [FE1DFDF3] (AR v2)
Copy OK

Track 4

Filename E:\rip\Klaus Nomi - The Star Collection [FLAC]\04 - Just One Look.wav

Pre-gap length 0:00:01.53

Peak level 88.6 %
Extraction speed 2.9 X
Track quality 99.9 %
Test CRC 5073A351
Copy CRC 5073A351
Accurately ripped (confidence 22) [BC40B738] (AR v2)
Copy OK

Track 5

Filename E:\rip\Klaus Nomi - The Star Collection [FLAC]\05 - The Twist.wav

Pre-gap length 0:00:02.17

Peak level 96.5 %
Extraction speed 3.0 X
Track quality 99.9 %
Test CRC 694B042B
Copy CRC 694B042B
Accurately ripped (confidence 21) [E1230382] (AR v2)
Copy OK

Track 6

Filename E:\rip\Klaus Nomi - The Star Collection [FLAC]\06 - Total Eclipse.wav

Pre-gap length 0:00:01.26

Peak level 84.7 %
Extraction speed 3.7 X
Track quality 100.0 %
Test CRC 4967E1E1
Copy CRC 4967E1E1
Accurately ripped (confidence 22) [080444BA] (AR v2)
Copy OK

Track 7

Filename E:\rip\Klaus Nomi - The Star Collection [FLAC]\07 - Three Wishes.wav

Peak level 92.1 %
Extraction speed 3.8 X
Track quality 100.0 %
Test CRC 28BB81CE
Copy CRC 28BB81CE
Accurately ripped (confidence 22) [FA2640E1] (AR v2)
Copy OK

Track 8

Filename E:\rip\Klaus Nomi - The Star Collection [FLAC]\08 - Icurok.wav

Pre-gap length 0:00:01.02

Peak level 94.1 %
Extraction speed 4.3 X
Track quality 100.0 %
Test CRC A415EC25
Copy CRC A415EC25
Accurately ripped (confidence 22) [2FC09CF4] (AR v2)
Copy OK

Track 9

Filename E:\rip\Klaus Nomi - The Star Collection [FLAC]\09 - Wasting My Times.wav

Pre-gap length 0:00:00.64

Peak level 100.0 %
Extraction speed 4.4 X
Track quality 100.0 %
Test CRC 444D6457
Copy CRC 444D6457
Accurately ripped (confidence 22) [834DABEA] (AR v2)
Copy OK

Track 10

Filename E:\rip\Klaus Nomi - The Star Collection [FLAC]\10 - Rubberband Lazer.wav

Pre-gap length 0:00:00.36

Peak level 92.2 %
Extraction speed 4.6 X
Track quality 100.0 %
Test CRC 82C4757D
Copy CRC 82C4757D
Accurately ripped (confidence 22) [E1BDAF3D] (AR v2)
Copy OK

Track 11

Filename E:\rip\Klaus Nomi - The Star Collection [FLAC]\11 - Ding Dong.wav

Peak level 89.3 %
Extraction speed 4.5 X
Track quality 100.0 %
Test CRC E8B937C5
Copy CRC E8B937C5
Accurately ripped (confidence 22) [2EBA7B11] (AR v2)
Copy OK

Track 12

Filename E:\rip\Klaus Nomi - The Star Collection [FLAC]\12 - Nomi Chant.wav

Peak level 57.1 %
Extraction speed 4.1 X
Track quality 100.0 %
Test CRC FAFA2F5A
Copy CRC FAFA2F5A
Accurately ripped (confidence 22) [D49DA49D] (AR v2)
Copy OK

Track 13

Filename E:\rip\Klaus Nomi - The Star Collection [FLAC]\13 - Death.wav

Pre-gap length 0:00:01.10

Peak level 62.2 %
Extraction speed 5.1 X
Track quality 100.0 %
Test CRC C231AB26
Copy CRC C231AB26
Accurately ripped (confidence 22) [A24536C7] (AR v2)
Copy OK

Track 14

Filename E:\rip\Klaus Nomi - The Star Collection [FLAC]\14 - Wayward Sisters.wav

Pre-gap length 0:00:00.76

Peak level 76.3 %
Extraction speed 4.1 X
Track quality 100.0 %
Test CRC BC48F0ED
Copy CRC BC48F0ED
Accurately ripped (confidence 22) [4D062751] (AR v2)
Copy OK

Track 15

Filename E:\rip\Klaus Nomi - The Star Collection [FLAC]\15 - From Beyond.wav

Pre-gap length 0:00:01.40

Peak level 27.5 %
Extraction speed 4.1 X
Track quality 99.9 %
Test CRC 8D9B362C
Copy CRC 8D9B362C
Accurately ripped (confidence 22) [5945DF43] (AR v2)
Copy OK

Track 16

Filename E:\rip\Klaus Nomi - The Star Collection [FLAC]\16 - Falling in Love Again.wav

Peak level 91.2 %
Extraction speed 5.0 X
Track quality 100.0 %
Test CRC 47CEEFF7
Copy CRC 47CEEFF7
Accurately ripped (confidence 21) [6D9B0C4E] (AR v2)
Copy OK


All tracks accurately ripped

No errors occurred

End of status report

–– CUETools DB Plugin V2.1.6

[CTDB TOCID: s6_R7r0FrEOq6yuajwF5UkfMAUU-] found
Submit result: s6_R7r0FrEOq6yuajwF5UkfMAUU- has been confirmed
Track | CTDB Status
1 | (14/15) Accurately ripped
2 | (14/15) Accurately ripped
3 | (14/15) Accurately ripped
4 | (14/15) Accurately ripped
5 | (14/15) Accurately ripped
6 | (14/15) Accurately ripped
7 | (14/15) Accurately ripped
8 | (14/15) Accurately ripped
9 | (14/15) Accurately ripped
10 | (14/15) Accurately ripped
11 | (14/15) Accurately ripped
12 | (14/15) Accurately ripped
13 | (14/15) Accurately ripped
14 | (14/15) Accurately ripped
15 | (14/15) Accurately ripped
16 | (14/15) Accurately ripped


==== Log checksum 16FD1FA6CEE052F7CBCE056354E9F2BF63110756B4AEED84EF7765D5B55127F3 ====


Klaus Nomi - The Star Collection (1991) {RCA-BMG ND 75004}

Klaus Nomi - The Star Collection (1991) {RCA-BMG ND 75004}



see also:
Klaus Nomi - Klaus Nomi (1981) {RCA}


===