Subcategories

Kobra And The Lotus - Prevail I (Japanese Edition) (2017)

Posted By: delpotro
Kobra And The Lotus - Prevail I (Japanese Edition) (2017)

Kobra And The Lotus - Prevail I (Japanese Edition) (2017)
EAC Rip | FLAC (image+log+.cue) - 351 Mb | Scans - 88 Mb | 00:48:03
Hard Rock, Heavy Metal, Female Vocal | Label: Ward Records Inc., Napalm Records

It's been three years since Kobra And The Lotus' last studio album 'High Preistess' was released back in 2014. The time since has not been wasted, with their third album under their belt, and completing multiple tours worldwide (with the likes of Kamelot, Sonata Arctica and Demon Hunter to name a few), their path of self-discovery has led them to this most important moment in their career. 'Prevail I", the band's latest offering, is a rock juggernaut full of blistering guitars, pounding rhythms and haunting vocal melodies that will take the listener on a sonic journey leading them out from the darkness and into the light. Produced by Jacob Hansen (Volbeat, Amaranthe, Epica etc) and mastered by Grammy award winning Ted Jensen, and featuring the soon to be classic songs “You Don’t Know” and “Light Me Up” that will undoubtedly usher the band to much deserved elevated hard rock status. Evolution is inevitable and Kobra And The Lotus have delivered their most powerful album to date, PREVAIL I, with PREVAIL II to complete the story in the not too distant future…
Tracklist:
01. Gotham
02. Trigger Pulse
03. You Don't Know
04. Specimen X (Mortal Chamber)
05. Light Me Up
06. Manifest Destiny
07. Victim
08. Check the Phyrg
09. Hell on Earth
10. Prevail
11. The Chain (Bonus Track)

Exact Audio Copy V1.3 from 2. September 2016

EAC extraction logfile from 18. May 2017, 20:10

Kobra And The Lotus / Prevail I (Japan)

Used drive : ATAPI iHAS122 W Adapter: 2 ID: 0

Read mode : Secure
Utilize accurate stream : Yes
Defeat audio cache : Yes
Make use of C2 pointers : No

Read offset correction : 48
Overread into Lead-In and Lead-Out : No
Fill up missing offset samples with silence : Yes
Delete leading and trailing silent blocks : No
Null samples used in CRC calculations : Yes
Used interface : Installed external ASPI interface

Used output format : User Defined Encoder
Selected bitrate : 1024 kBit/s
Quality : High
Add ID3 tag : No
Command line compressor : C:\Program Files\FLAC\flac.exe
Additional command line options : -V -8 -T "Date=%year%" -T "Genre=%genre%" -T"COMMENT=Ripped by Ilijan - ilko" -8 -V %source%


TOC of the extracted CD

Track | Start | Length | Start sector | End sector
––––––––––––––––––––––––––––-
1 | 0:00.00 | 5:28.34 | 0 | 24633
2 | 5:28.34 | 4:13.20 | 24634 | 43628
3 | 9:41.54 | 4:22.05 | 43629 | 63283
4 | 14:03.59 | 6:25.43 | 63284 | 92201
5 | 20:29.27 | 3:44.21 | 92202 | 109022
6 | 24:13.48 | 4:16.30 | 109023 | 128252
7 | 28:30.03 | 4:20.20 | 128253 | 147772
8 | 32:50.23 | 4:10.37 | 147773 | 166559
9 | 37:00.60 | 4:23.14 | 166560 | 186298
10 | 41:23.74 | 4:12.01 | 186299 | 205199
11 | 45:36.00 | 2:27.11 | 205200 | 216235


Range status and errors

Selected range

Filename D:\ilko\Kobra And The Lotus - Prevail I (Japan).wav

Peak level 98.8 %
Extraction speed 3.9 X
Range quality 100.0 %
Test CRC 0D8817B5
Copy CRC 0D8817B5
Copy OK

No errors occurred


AccurateRip summary

Track 1 not present in database
Track 2 not present in database
Track 3 not present in database
Track 4 not present in database
Track 5 not present in database
Track 6 not present in database
Track 7 not present in database
Track 8 not present in database
Track 9 not present in database
Track 10 not present in database
Track 11 not present in database

None of the tracks are present in the AccurateRip database

End of status report

–– CUETools DB Plugin V2.1.6

[CTDB TOCID: LgVIL9zAVSfRGgpG7yM4kPbynxs-] disk not present in database
Submit result: LgVIL9zAVSfRGgpG7yM4kPbynxs- has been uploaded


==== Log checksum 7FD9346501EA9ECD4D90A41DB32CA46C3F8C6BCEAD88D587FD47AABA518A5FBA ====

Thanks to the Original ripper ilko !