Subcategories
Tags
Language
Tags

KOKOKO! - Fongola (2019)

Posted By: delpotro
KOKOKO! - Fongola (2019)

KOKOKO! - Fongola (2019)
EAC Rip | FLAC (tracks+log+.cue) - 260 Mb | MP3 CBR 320 kbps - 103 Mb | 00:43:46
World, Afrobeat, Electronic | Label: Transgressive Records

You can trace the seeds of Fongola back to so many different places. It began in Kinshasa, in the Ngwaka neighbourhood where DIY experimental musical instruments are made, and the Lingwala neighbourhood where Makara Bianko sings every night on electronic loops with his dancers and where the band first met. We spent our tours across Europe dreaming about what we wanted to tell the world. It was recorded in makeshift studios we built out of ping pong tables and mattresses in Kinshasa and Brussels. Finally, I spent months putting it all together in Abattoir, Anderlecht like a giant electronic puzzle with pieces that don’t fit and no blueprint.” - Débruit

Signed with independent label Transgressive (Flume, SOPHIE, Let’s Eat Grandma), KOKOKO!’s distorted polyrhythms and spontaneous lo-fi sounds provide a chaotic soundtrack to their home country. When most people think of culture in the Democratic Republic of Congo, it’s The Rumble in The Jungle fight of Muhammad Ali vs George Foreman and the accompanying Soul Power concert with James Brown in the 70s, Mobutu in his abacost and leopard print hat, les sapeurs in their elegant tailoring, and the king of Congolese rumba Papa Wemba. A faded vintage postcard. KOKOKO! represent the antithesis of tradition, and their debut album Fongola - which translates to “the key” - is a torrid, anarchic, youthful journey smashing a new path through modern life in Africa’s third most populous city.
Tracklist:
1. Likolo (04:00)
2. Azo Toke (03:58)
3. Buka Dansa (04:21)
4. Identité (04:10)
5. Malembe (03:56)
6. L.O.V.E. (02:57)
7. Tongos'a (03:49)
8. Zala Mayele (04:59)
9. Singa (03:06)
10. Kitoko (04:42)
11. Tokoliana (03:47)

Exact Audio Copy V1.6 from 23. October 2020

EAC extraction logfile from 24. April 2021, 7:35

KOKOKO! / Fongola

Used drive : ASUS SDRW-08U7M-U Adapter: 1 ID: 0

Read mode : Secure
Utilize accurate stream : Yes
Defeat audio cache : Yes
Make use of C2 pointers : No

Read offset correction : 6
Overread into Lead-In and Lead-Out : No
Fill up missing offset samples with silence : Yes
Delete leading and trailing silent blocks : No
Null samples used in CRC calculations : Yes
Used interface : Native Win32 interface for Win NT & 2000
Gap handling : Appended to previous track

Used output format : User Defined Encoder
Selected bitrate : 1024 kBit/s
Quality : High
Add ID3 tag : No
Command line compressor : C:\Program Files (x86)\Exact Audio Copy\Flac\flac.exe
Additional command line options : -8 -V -T "ARTIST=%artist%" -T "TITLE=%title%" -T "ALBUM=%albumtitle%" -T "DATE=%year%" -T "TRACKNUMBER=%tracknr%" -T "GENRE=%genre%" -T "PERFORMER=%albuminterpret%" -T "COMPOSER=%composer%" -T "ALBUMARTIST=%albumartist%" -T "DISCNUMBER=%cdnumber%" -T "TOTALDISCS=%totalcds%" -T "TOTALTRACKS=%numtracks%" -T "COMMENT=%comment%" %source% -o %dest%


TOC of the extracted CD

Track | Start | Length | Start sector | End sector
––––––––––––––––––––––––––––-
1 | 0:00.00 | 4:01.13 | 0 | 18087
2 | 4:01.13 | 3:58.09 | 18088 | 35946
3 | 7:59.22 | 4:21.05 | 35947 | 55526
4 | 12:20.27 | 4:10.36 | 55527 | 74312
5 | 16:30.63 | 3:55.61 | 74313 | 91998
6 | 20:26.49 | 2:56.57 | 91999 | 105255
7 | 23:23.31 | 3:48.72 | 105256 | 122427
8 | 27:12.28 | 4:59.06 | 122428 | 144858
9 | 32:11.34 | 3:06.02 | 144859 | 158810
10 | 35:17.36 | 4:42.01 | 158811 | 179961
11 | 39:59.37 | 3:46.70 | 179962 | 196981


Track 1

Filename C:\EAC\KOKOKO! - Fongola - 2019 - FLAC - CD\01. Likolo.wav

Pre-gap length 0:00:02.00

Peak level 96.6 %
Extraction speed 2.6 X
Track quality 100.0 %
Test CRC 1D1E2A61
Copy CRC 1D1E2A61
Accurately ripped (confidence 6) [63DAD244] (AR v2)
Copy OK

Track 2

Filename C:\EAC\KOKOKO! - Fongola - 2019 - FLAC - CD\02. Azo Toke.wav

Peak level 96.4 %
Extraction speed 2.9 X
Track quality 100.0 %
Test CRC 12A3E1E0
Copy CRC 12A3E1E0
Accurately ripped (confidence 6) [21FB32BF] (AR v2)
Copy OK

Track 3

Filename C:\EAC\KOKOKO! - Fongola - 2019 - FLAC - CD\03. Buka Dansa.wav

Peak level 96.6 %
Extraction speed 3.1 X
Track quality 100.0 %
Test CRC 09B4B4E7
Copy CRC 09B4B4E7
Accurately ripped (confidence 6) [1CB51156] (AR v2)
Copy OK

Track 4

Filename C:\EAC\KOKOKO! - Fongola - 2019 - FLAC - CD\04. Identité.wav

Peak level 96.6 %
Extraction speed 3.3 X
Track quality 100.0 %
Test CRC 60EC0AAA
Copy CRC 60EC0AAA
Accurately ripped (confidence 6) [EF90D1C8] (AR v2)
Copy OK

Track 5

Filename C:\EAC\KOKOKO! - Fongola - 2019 - FLAC - CD\05. Malembe.wav

Peak level 96.6 %
Extraction speed 3.5 X
Track quality 100.0 %
Test CRC 8803E104
Copy CRC 8803E104
Accurately ripped (confidence 6) [54F2D91F] (AR v2)
Copy OK

Track 6

Filename C:\EAC\KOKOKO! - Fongola - 2019 - FLAC - CD\06. L.O.V.E..wav

Peak level 98.8 %
Extraction speed 3.5 X
Track quality 100.0 %
Test CRC D3A1D19B
Copy CRC D3A1D19B
Accurately ripped (confidence 6) [5E4F7766] (AR v2)
Copy OK

Track 7

Filename C:\EAC\KOKOKO! - Fongola - 2019 - FLAC - CD\07. Tongos’a.wav

Peak level 96.6 %
Extraction speed 3.8 X
Track quality 100.0 %
Test CRC 27D7CFFA
Copy CRC 27D7CFFA
Accurately ripped (confidence 6) [9E526BA8] (AR v2)
Copy OK

Track 8

Filename C:\EAC\KOKOKO! - Fongola - 2019 - FLAC - CD\08. Zala Mayele.wav

Peak level 96.6 %
Extraction speed 4.1 X
Track quality 100.0 %
Test CRC FB8B8459
Copy CRC FB8B8459
Accurately ripped (confidence 6) [236262C8] (AR v2)
Copy OK

Track 9

Filename C:\EAC\KOKOKO! - Fongola - 2019 - FLAC - CD\09. Singa.wav

Peak level 96.6 %
Extraction speed 4.1 X
Track quality 100.0 %
Test CRC 6BBFCFB9
Copy CRC 6BBFCFB9
Accurately ripped (confidence 6) [954AA1CF] (AR v2)
Copy OK

Track 10

Filename C:\EAC\KOKOKO! - Fongola - 2019 - FLAC - CD\10. Kitoko.wav

Peak level 96.6 %
Extraction speed 4.4 X
Track quality 100.0 %
Test CRC BB06A30E
Copy CRC BB06A30E
Accurately ripped (confidence 6) [3525926F] (AR v2)
Copy OK

Track 11

Filename C:\EAC\KOKOKO! - Fongola - 2019 - FLAC - CD\11. Tokoliana.wav

Peak level 96.6 %
Extraction speed 4.4 X
Track quality 100.0 %
Test CRC FD9795DC
Copy CRC FD9795DC
Accurately ripped (confidence 6) [15790E1B] (AR v2)
Copy OK


All tracks accurately ripped

No errors occurred

End of status report

–– CUETools DB Plugin V2.1.6

[CTDB TOCID: DjToadm5egN.RtPyQN4jFkrRT1A-] found
Submit result: DjToadm5egN.RtPyQN4jFkrRT1A- has been confirmed
Track | CTDB Status
1 | (34/34) Accurately ripped
2 | (34/34) Accurately ripped
3 | (34/34) Accurately ripped
4 | (34/34) Accurately ripped
5 | (34/34) Accurately ripped
6 | (34/34) Accurately ripped
7 | (34/34) Accurately ripped
8 | (34/34) Accurately ripped
9 | (34/34) Accurately ripped
10 | (34/34) Accurately ripped
11 | (34/34) Accurately ripped


==== Log checksum 208002EB3873F7E412721D7D35503916FD178E3D9A7752C75C2B7E568C527BEF ====

Thanks to the Original ripper !