Subcategories

Kurt Weill - Ensemble Modern - Berlin im Licht (1990, Largo Records # LARGO 5114)

Posted By: luckburz
Kurt Weill - Ensemble Modern - Berlin im Licht (1990, Largo Records # LARGO 5114)

Kurt Weill - Ensemble Modern - Berlin im Licht
EAC+LOG+CUE | FLAC: 244 MB | Full Artwork: 14 MB | 5% Recovery Info
Label/Cat#: Largo Records # LARGO 5114 | Country/Year: Germany 1990
Genre: Classical | Style: Vocal, Lieder, Early 20th Century

MD5 [X] CUE [X] LOG [X] INFO TEXT [X] ARTWORK [X]

my rip [X] not my rip [ ]

Kurt Weill - Ensemble Modern - Berlin im Licht (1990, Largo Records # LARGO 5114)


Exact Audio Copy V1.0 beta 3 from 29. August 2011

EAC extraction logfile from 30. September 2013, 14:13

Ensemble Modern, Rosemary Hardy, H.K. Gruber / Weill: Berlin im Licht

Used drive : PIONEER BD-RW BDR-206 Adapter: 0 ID: 2

Read mode : Secure
Utilize accurate stream : Yes
Defeat audio cache : Yes
Make use of C2 pointers : No

Read offset correction : 667
Overread into Lead-In and Lead-Out : No
Fill up missing offset samples with silence : Yes
Delete leading and trailing silent blocks : No
Null samples used in CRC calculations : Yes
Used interface : Native Win32 interface for Win NT & 2000

Used output format : User Defined Encoder
Selected bitrate : 1024 kBit/s
Quality : High
Add ID3 tag : Yes
Command line compressor : C:\Program Files\FLAC\flac.exe
Additional command line options : -5 -T "Artist=%artist%" -T "Title=%title%" -T "Album=%albumtitle%" -T "Date=%year%" -T "Tracknumber=%tracknr%" -T "Genre=%genre%" %source% -o %dest%


TOC of the extracted CD

Track | Start | Length | Start sector | End sector
––––––––––––––––––––––––––––-
1 | 0:00.32 | 3:21.18 | 32 | 15124
2 | 3:21.50 | 3:50.00 | 15125 | 32374
3 | 7:11.50 | 0:53.50 | 32375 | 36399
4 | 8:05.25 | 0:36.52 | 36400 | 39151
5 | 8:42.02 | 11:05.03 | 39152 | 89029
6 | 19:47.05 | 12:51.65 | 89030 | 146919
7 | 32:38.70 | 6:04.50 | 146920 | 174269
8 | 38:43.45 | 11:08.40 | 174270 | 224409
9 | 49:52.10 | 2:03.02 | 224410 | 233636
10 | 51:55.12 | 1:49.70 | 233637 | 241881
11 | 53:45.07 | 3:29.28 | 241882 | 257584


Range status and errors

Selected range

Filename F:\=== VINYL RIPS ===\=== EAC===\X FRESH RIP\Weill- Ensemble Modern - Berlin im Licht.wav

Peak level 98.4 %
Extraction speed 1.7 X
Range quality 100.0 %
Copy CRC ECBBB01E
Copy OK

No errors occurred


AccurateRip summary

Track 1 accurately ripped (confidence 2) [A0FB40C6] (AR v2)
Track 2 accurately ripped (confidence 2) [0140537C] (AR v2)
Track 3 accurately ripped (confidence 2) [4E901BE9] (AR v2)
Track 4 accurately ripped (confidence 2) [4483B66C] (AR v2)
Track 5 accurately ripped (confidence 2) [54EE0E80] (AR v2)
Track 6 accurately ripped (confidence 2) [E05E930F] (AR v1)
Track 7 accurately ripped (confidence 2) [31A7D00A] (AR v1)
Track 8 accurately ripped (confidence 2) [7180AC22] (AR v1)
Track 9 accurately ripped (confidence 2) [1E2E5478] (AR v1)
Track 10 accurately ripped (confidence 2) [0B315F7F] (AR v2)
Track 11 accurately ripped (confidence 2) [E59D0573] (AR v2)

All tracks accurately ripped

End of status report

–– CUETools DB Plugin V2.1.3

[CTDB TOCID: _XJ0IlTo5pijhGd84r0m0wlcNBI-] disk not present in database, Submit result: discs with pregaps not supported in this protocol version


==== Log checksum D5F612A5D274B94C21AB5D5220F614105ED9D975AEA6617B2F18229B017C62E0 ====

foobar2000 1.1.14a / Dynamic Range Meter 1.1.1
log date: 2013-10-02 09:27:50

––––––––––––––––––––––––––––––––––––––––
Analyzed: Ensemble Modern, Rosemary Hardy, H.K. Gruber / Weill: Berlin im Licht
––––––––––––––––––––––––––––––––––––––––

DR Peak RMS Duration Track
––––––––––––––––––––––––––––––––––––––––
DR14 -0.23 dB -16.79 dB 3:21 01-Berlin im Licht
DR13 -2.96 dB -24.23 dB 3:50 02-Slow Fox and Algi-Song
DR16 -1.20 dB -25.01 dB 0:54 03-Klopslied
DR12 -2.91 dB -22.10 dB 0:37 04-Ach, wär mein Lieb ein Brünnlein kalt
DR17 -1.10 dB -23.73 dB 11:05 05-Frauentanz op. 10
DR16 -0.14 dB -22.53 dB 12:52 06-Bastille Musik
DR15 -0.84 dB -20.40 dB 6:05 07-Öl-Musik
DR15 -0.40 dB -19.16 dB 11:09 08-Suite Panaméenne
DR13 -5.07 dB -23.57 dB 2:03 09-Cowboy Song
DR12 -6.50 dB -23.75 dB 1:50 10-Captain Valentine's-Song
DR14 -0.33 dB -21.59 dB 3:29 11-Die stille Stadt
––––––––––––––––––––––––––––––––––––––––

Number of tracks: 11
Official DR value: DR14

Samplerate: 44100 Hz
Channels: 2
Bits per sample: 16
Bitrate: 597 kbps
Codec: FLAC
================================================================================



CD Info:

Kurt Weill - Ensemble Modern - Berlin im Licht

Label: Largo Records
Co-Prod.: Hessischer Rundfunk
Catalog#: LARGO 5114
Format: CD, Album
Country: Germany
Released: 1990
Genre: Classical
Style: Vocal, Lieder, Early 20th Century

Tracklist:

1 Berlin im Licht 3:21
2 Slow Fox and Algi-Song 3:50
3 Klopslied 0:54
4 Ach, wär mein Lieb ein Brünnlein kalt 0:37
5 Frauentanz op. 10 11:05
6 Bastille Musik 12:52
7 Öl-Musik 6:05
8 Suite Panaméenne 11:09
9 Cowboy Song 2:03
10 Captain Valentine's-Song 1:50
11 Die stille Stadt 3:29

Recorded at the Großer Sendesaal of the Hessischer Rundfunk Frankfurt. December 1989 and February 1990 with SONY-Digital Recording System.

The founding of the Ensemble Modern (EM) in 1980 as an initiative of students of the Junge Deutsche Philharmonie pursued the goal of supporting New Music and giving it appropriate performances. Since 1985 the EM, which is democratically organised, has been resident in Frankfurt am Main. It is among the world’s leading ensembles for Contemporary Music.

Since 1987 the EM has been incorporated as a GbR under German law, with the musicians as partners. Currently, the EM is comprised of 22 soloists of different nationalities: Argentina, Bulgaria, Germany, Great Britain, India, Japan, Poland, and Switzerland form the cultural background of the ensemble.

The EM is known for its unique organisation and working method: there is no artistic director; projects, guest musicians, co-productions and financial matters are decided and implemented jointly. The current managing director is chosen from the member musicians and is the interface for all projects and questions between the artistic level of the musicians and the organisational level of the staff. Every partner brings his personal experience and preferences to the planning, which results in a unique and distinctive programming range. It includes musical theatre, dance and video projects, chamber music, ensemble and orchestral concerts. Its programme has led to extraordinary and often long-term cooperative ventures with renowned artists, such as John Adams, George Benjamin, Peter Eötvös, Heiner Goebbels, Hans Werner Henze, Mauricio Kagel, Helmut Lachenmann, György Kurtág, György Ligeti, Benedict Mason, Karlheinz Stockhausen, Steve Reich or Frank Zappa.
The Ensemble Modern has gone on tour to Africa, Australia, China, India, Japan, Korea, South America, Taiwan, Russia and the United States. It regularly performs at renowned festivals and outstanding venues, such as the Salzburg Festival, Klangspuren Schwaz, Festwochen Wien, Musikfest Berlin, MusikTriennale Cologne, Lincoln Center Festival in New York, settembre musica in Turin, Festival d’Automne à Paris, the Festival Ars Musica in Brussels, the Holland Festival in Amsterdam and the Lucerne Festival.

Kurt Weill - Ensemble Modern - Berlin im Licht (1990, Largo Records # LARGO 5114)


all of my uploads in my blog
________________

NITROFLARE

Music Pt. 1 | | Music Pt. 2

Artwork

________________