Subcategories

Insect Trust - s/t (1968) {2000 Ascension/EMI Australia}

Posted By: TestTickles
Insect Trust - s/t (1968) {2000 Ascension/EMI Australia}

Insect Trust - s/t (1968) {2000 Ascension/EMI Australia}
EAC Rip | FLAC with CUE and log | scans | 259 mb
MP3 CBR 320kbps | RAR | 98 mb
Genre: folk rock, psychedelic rock

Insect Trust is the self-titled 1968 debut album by Insect Trust. Originally a Capitol Records item, this was remastered and reissued by Ascension/EMI Australia in 2000.
Insect Trust were a New York band that comprised vocalist Nancy Jeffries (the vocalist for Peter Stampfel's Swamp Lillies before the madman formed the Holy Modal Rounders), guitarist Luke Faust, Trevor Koehler and Robert Palmer on saxophone and clarinet (the latter would become a famous music critic). Insect Trust (Capitol, 1968) attempted a super-fusion of jazz, blues, country and acid-rock somewhere between Blues Project's sophisticated ballads and Captain Beefheart-ian blues jams (The Skin Game, Special Rider Blues). Their second album, Hoboken Saturday Night (ATCO, 1970), featuring jazz drummers Elvin Jones and jazz guitarist Hugh McCracken, displayed the influence of Blood Sweat & Tears and Chicago, but still within a looser format (The Eyes of a New York Woman, with lyrics of novelist Thomas Pynchon, and the instrumental jam Ducks).

1. The Skin Game
2. Miss Fun City
3. World War I Song
4. Special Rider Blues
5. Foggy River Bridge Fly
6. Been Here And Gone So Soon
7. Declaration Of Independence
8. Walking On Nails
9. Brighter Than Day
10. Mountain Song
11. Going Home

Bill Barth-electric and acoustic guitars, percussion
Luke Faust-banjo, percussion, vocals
Nancy Jeffries-vocals, percussion
Trevor Koehler-baritone saxophone, bass, thumb piano
Bob Palmer-alto saxophone, clarinet, percussion, recorders

EAC extraction logfile from 22. May 2006, 18:23 for CD
Insect Trust / The Insect Trust

Used drive : HL-DT-STDVDRAM GSA-4081B Adapter: 1 ID: 0
Read mode : Secure with NO C2, accurate stream, disable cache
Read offset correction : 667
Overread into Lead-In and Lead-Out : No

Used output format : C:\Archivos de programa\FLAC\flac.exe (User Defined Encoder)
128 kBit/s
Additional command line options : -5 -V -T "ARTIST=%a" -T "TITLE=%t" -T "ALBUM=%g" -T "DATE=%y" -T "TRACKNUMBER=%n" -T "GENRE=%m" -T "COMMENT=EAC Flac 1.1.2 -5" %s

Other options :
Fill up missing offset samples with silence : Yes
Delete leading and trailing silent blocks : No
Installed external ASPI interface


Track 1
Filename C:\FLAC\Insect Trust - s-t (1968) [FLAC] {2000 Ascension, EMI Australia}\01 - The Skin Game.wav

Pre-gap length 0:00:02.00

Peak level 100.0 %
Track quality 99.9 %
Test CRC 61001E33
Copy CRC 61001E33
Copy OK

Track 2
Filename C:\FLAC\Insect Trust - s-t (1968) [FLAC] {2000 Ascension, EMI Australia}\02 - Miss Fun City.wav

Peak level 100.0 %
Track quality 100.0 %
Test CRC E739EA86
Copy CRC E739EA86
Copy OK

Track 3
Filename C:\FLAC\Insect Trust - s-t (1968) [FLAC] {2000 Ascension, EMI Australia}\03 - World War I Song.wav

Peak level 78.6 %
Track quality 100.0 %
Test CRC 97A4598E
Copy CRC 97A4598E
Copy OK

Track 4
Filename C:\FLAC\Insect Trust - s-t (1968) [FLAC] {2000 Ascension, EMI Australia}\04 - Special Rider Blues.wav

Peak level 100.0 %
Track quality 100.0 %
Test CRC EF43E095
Copy CRC EF43E095
Copy OK

Track 5
Filename C:\FLAC\Insect Trust - s-t (1968) [FLAC] {2000 Ascension, EMI Australia}\05 - Foggy River Bridge Fly.wav

Peak level 100.0 %
Track quality 100.0 %
Test CRC AF20194E
Copy CRC AF20194E
Copy OK

Track 6
Filename C:\FLAC\Insect Trust - s-t (1968) [FLAC] {2000 Ascension, EMI Australia}\06 - Been Here And Gone So Soon.wav

Peak level 100.0 %
Track quality 99.9 %
Test CRC 1F399DA9
Copy CRC 1F399DA9
Copy OK

Track 7
Filename C:\FLAC\Insect Trust - s-t (1968) [FLAC] {2000 Ascension, EMI Australia}\07 - Declaration Of Independence.wav

Peak level 100.0 %
Track quality 100.0 %
Test CRC B50A64A1
Copy CRC B50A64A1
Copy OK

Track 8
Filename C:\FLAC\Insect Trust - s-t (1968) [FLAC] {2000 Ascension, EMI Australia}\08 - Walking On Nails.wav

Peak level 100.0 %
Track quality 100.0 %
Test CRC 8CBFDD5F
Copy CRC 8CBFDD5F
Copy OK

Track 9
Filename C:\FLAC\Insect Trust - s-t (1968) [FLAC] {2000 Ascension, EMI Australia}\09 - Brighter Than Day.wav

Peak level 100.0 %
Track quality 100.0 %
Test CRC 352B72EA
Copy CRC 352B72EA
Copy OK

Track 10
Filename C:\FLAC\Insect Trust - s-t (1968) [FLAC] {2000 Ascension, EMI Australia}\10 - Mountain Song.wav

Peak level 100.0 %
Track quality 99.9 %
Test CRC 3E301049
Copy CRC 3E301049
Copy OK

Track 11
Filename C:\FLAC\Insect Trust - s-t (1968) [FLAC] {2000 Ascension, EMI Australia}\11 - Going Home.wav

Peak level 100.0 %
Track quality 100.0 %
Test CRC 9B7711D7
Copy CRC 9B7711D7
Copy OK

No errors occured


End of status report


Insect Trust - s/t (1968) {2000 Ascension/EMI Australia}


Thank you to the original uploader