Subcategories

10cc - Live In Japan (2001) {Brilliant}

Posted By: TestTickles
10cc - Live In Japan (2001) {Brilliant}

10cc - Live In Japan (2001) {Brilliant}
EAC Rip | FLAC with CUE and log | scans | 481 mb
MP3 CBR 320kbps | RAR | 175 mb
Genre: pop rock, classic rock

Live In Japan is a 2001 live CD by British pop rock band 10cc. It is taken from what was called a reunion show of the group in 1993 with Eric Steart and Graham Gouldman but without Kevin Godley or Lol Creme, despite the cover photo. This was originally released in 1993 under the title Alive but this was released by German label Brilliant and removes three songs from the original discs.

10cc - Live In Japan (2001) {Brilliant}

1. The Wall Street Shuffle (3:58)
2. I'm Mandy, Fly Me (4:45)
3. Good Morning Judge (2:54)
4. Welcome To Paradise (5:10)
5. The Things We Do For Love (3:21)
6. Across The Universe (3:36)
7. The Stars Didn't Show (4:31)
8. Art For Art's Sake (7:42)
9. Feel The Benefit (13:58)
10. Dreadlock Holiday (4:49)
11. I'm Not In Love (6:09)
12. The Bullets Medley: Rubber Bullets/Silly Love/Life Is A Minestrone (7:32)

EAC extraction logfile from 18. January 2008, 17:03 for CD
10cc / live In Japan

Used drive : SONY DVD RW DRU-820A Adapter: 2 ID: 0
Read mode : Secure with NO C2, accurate stream, disable cache
Read offset correction : 102
Overread into Lead-In and Lead-Out : No

Used output format : Internal WAV Routines
44.100 Hz; 16 Bit; Stereo

Other options :
Fill up missing offset samples with silence : Yes
Delete leading and trailing silent blocks : No
Installed external ASPI interface


Track 1
Filename C:\FLAC\10cc - Live In Japan (2001) [FLAC] {Brilliant}\01 - The Wall Street Shuffle.wav

Pre-gap length 0:00:02.00

Peak level 99.8 %
Track quality 100.0 %
Test CRC 31543501
Copy CRC 31543501
Copy OK

Track 2
Filename C:\FLAC\10cc - Live In Japan (2001) [FLAC] {Brilliant}\02 - I'm Mandy, Fly Me.wav

Pre-gap length 0:00:00.04

Peak level 99.8 %
Track quality 100.0 %
Test CRC D5B02E72
Copy CRC D5B02E72
Copy OK

Track 3
Filename C:\FLAC\10cc - Live In Japan (2001) [FLAC] {Brilliant}\03 - God Morning Judge.wav

Peak level 99.8 %
Track quality 100.0 %
Test CRC 09C9456C
Copy CRC 09C9456C
Copy OK

Track 4
Filename C:\FLAC\10cc - Live In Japan (2001) [FLAC] {Brilliant}\04 - Welcome To Paradise.wav

Pre-gap length 0:00:00.02

Peak level 99.8 %
Track quality 99.9 %
Test CRC E1106A3D
Copy CRC E1106A3D
Copy OK

Track 5
Filename C:\FLAC\10cc - Live In Japan (2001) [FLAC] {Brilliant}\05 - The Things We Do For Love.wav

Peak level 99.8 %
Track quality 100.0 %
Test CRC 3BC803F6
Copy CRC 3BC803F6
Copy OK

Track 6
Filename C:\FLAC\10cc - Live In Japan (2001) [FLAC] {Brilliant}\06 - Across The Universe.wav

Pre-gap length 0:00:00.02

Peak level 99.8 %
Track quality 100.0 %
Test CRC 5A8EF796
Copy CRC 5A8EF796
Copy OK

Track 7
Filename C:\FLAC\10cc - Live In Japan (2001) [FLAC] {Brilliant}\07 - Stars Didn't Show.wav

Peak level 99.8 %
Track quality 100.0 %
Test CRC 56295B4F
Copy CRC 56295B4F
Copy OK

Track 8
Filename C:\FLAC\10cc - Live In Japan (2001) [FLAC] {Brilliant}\08 - Art For Art's Sake.wav

Peak level 99.8 %
Track quality 99.9 %
Test CRC 3C7613E9
Copy CRC 3C7613E9
Copy OK

Track 9
Filename C:\FLAC\10cc - Live In Japan (2001) [FLAC] {Brilliant}\09 - Feel The Benefits.wav

Peak level 99.8 %
Track quality 100.0 %
Test CRC 4B5C99FB
Copy CRC 4B5C99FB
Copy OK

Track 10
Filename C:\FLAC\10cc - Live In Japan (2001) [FLAC] {Brilliant}\10 - Dreadlock Holiday.wav

Pre-gap length 0:00:00.01

Peak level 99.8 %
Track quality 99.9 %
Test CRC 90F604E3
Copy CRC 90F604E3
Copy OK

Track 11
Filename C:\FLAC\10cc - Live In Japan (2001) [FLAC] {Brilliant}\11 - I'm Not In Love.wav

Peak level 99.8 %
Track quality 100.0 %
Test CRC 9FC0E0A0
Copy CRC 9FC0E0A0
Copy OK

Track 12
Filename C:\FLAC\10cc - Live In Japan (2001) [FLAC] {Brilliant}\12 - Rubber Medley.wav

Peak level 99.8 %
Track quality 100.0 %
Test CRC 03BF628B
Copy CRC 03BF628B
Copy OK

No errors occured


End of status report


10cc - Live In Japan (2001) {Brilliant}


Thank you to the original uploader.