Subcategories

Lady Linn and Her Magnificent Bigband - Black Swan (2018)

Posted By: Domestos
Lady Linn and Her Magnificent Bigband - Black Swan (2018)

Lady Linn and Her Magnificent Bigband - Black Swan (2018)
EAC Rip | FLAC (tracks+.cue, log) ~ 253.85 Mb | 42:49 | Scans included
Vocal Jazz, Jazz-Pop | Label: Caroline Benelux - 0602567772484

The Belgian Lady Linn is a jazz / pop singer, since 2004 accompanied by her musicians 'her Magnificent Seven'. In 2008 Lady Linn and her Magnificent Seven released her first album 'Here We Go Again'. With this album and accompanying singles she finally broke through in Flanders and scored several hits such as 'A Love Affair' and 'That's Alright', which made this album reach Platinum status.

In 2009 Lady Linn won an MIA for best female artist. A year later, Lady Linn and Her Magnificent Seven won the MIA for best pop artist and that of best female solo artist. With her latest album 'Keep It A Secret' from 2016, Lady Linn became more than ever a fixture in the Belgian music scene. In 2017, Lady Linn participated in the third season of the Belgian music program 'Love for Music'. The new Lady Linn album will be called 'Black Swan' and this time is accompanied by a big band.



Track List:
01. Nobody But You (4:32)
02. Miss the Boat (3:15)
03. Laundry Day (3:09)
04. You + Me (2:41)
05. Black Swan (4:27)
06. Direction (2:39)
07. Sneaking Around (4:12)
08. Afraid to Lose You (2:39)
09. Everlasting (4:01)
10. Walking in the Rain (3:13)
11. You + Me (Reprise) (4:54)
12. Loneliness (3:07)

Lady Linn and Her Magnificent Bigband - Black Swan (2018)

Exact Audio Copy V1.3 from 2. September 2016

EAC extraction logfile from 13. December 2018, 10:13

Lady Linn and her Magnificent Bigband / Black Swan

Used drive : PLEXTOR PX-891SAF Adapter: 1 ID: 0

Read mode : Secure
Utilize accurate stream : Yes
Defeat audio cache : Yes
Make use of C2 pointers : No

Read offset correction : 6
Overread into Lead-In and Lead-Out : No
Fill up missing offset samples with silence : Yes
Delete leading and trailing silent blocks : No
Null samples used in CRC calculations : Yes
Used interface : Native Win32 interface for Win NT & 2000
Gap handling : Appended to previous track

Used output format : User Defined Encoder
Selected bitrate : 1024 kBit/s
Quality : High
Add ID3 tag : No
Command line compressor : C:\Program Files (x86)\Exact Audio Copy\Flac\flac.exe
Additional command line options : -8 -V -T "ARTIST=%artist%" -T "TITLE=%title%" -T "ALBUM=%albumtitle%" -T "DATE=%year%" -T "TRACKNUMBER=%tracknr%" -T "GENRE=%genre%" -T "PERFORMER=%albuminterpret%" -T "COMPOSER=%composer%" %haslyrics%–tag-from-file=LYRICS="%lyricsfile%"%haslyrics% -T "ALBUMARTIST=%albumartist%" -T "DISCNUMBER=%cdnumber%" -T "TOTALDISCS=%totalcds%" -T "TOTALTRACKS=%numtracks%" -T "COMMENT=%comment%" %source% -o %dest%


TOC of the extracted CD

Track | Start | Length | Start sector | End sector
––––––––––––––––––––––––––––-
1 | 0:00.00 | 4:32.18 | 0 | 20417
2 | 4:32.18 | 3:15.36 | 20418 | 35078
3 | 7:47.54 | 3:08.72 | 35079 | 49250
4 | 10:56.51 | 2:40.71 | 49251 | 61321
5 | 13:37.47 | 4:27.36 | 61322 | 81382
6 | 18:05.08 | 2:38.70 | 81383 | 93302
7 | 20:44.03 | 4:12.01 | 93303 | 112203
8 | 24:56.04 | 2:38.59 | 112204 | 124112
9 | 27:34.63 | 4:00.40 | 124113 | 142152
10 | 31:35.28 | 3:12.64 | 142153 | 156616
11 | 34:48.17 | 4:54.08 | 156617 | 178674
12 | 39:42.25 | 3:06.49 | 178675 | 192673


Track 1

Filename D:\#New wavs + flac\Lady Linn - Black Swann\01. Lady Linn and her Magnificent Bigband - Nobody but you.wav

Pre-gap length 0:00:02.00

Peak level 94.4 %
Extraction speed 4.3 X
Track quality 99.9 %
Test CRC 1B6E3191
Copy CRC 1B6E3191
Track not present in AccurateRip database
Copy OK

Track 2

Filename D:\#New wavs + flac\Lady Linn - Black Swann\02. Lady Linn and her Magnificent Bigband - Miss the boat.wav

Peak level 94.4 %
Extraction speed 5.4 X
Track quality 100.0 %
Test CRC A750AF18
Copy CRC A750AF18
Track not present in AccurateRip database
Copy OK

Track 3

Filename D:\#New wavs + flac\Lady Linn - Black Swann\03. Lady Linn and her Magnificent Bigband - Laundry day.wav

Pre-gap length 0:00:01.88

Peak level 94.4 %
Extraction speed 5.7 X
Track quality 100.0 %
Test CRC 1858CC8B
Copy CRC 1858CC8B
Track not present in AccurateRip database
Copy OK

Track 4

Filename D:\#New wavs + flac\Lady Linn - Black Swann\04. Lady Linn and her Magnificent Bigband - You+Me.wav

Pre-gap length 0:00:01.26

Peak level 94.4 %
Extraction speed 5.8 X
Track quality 100.0 %
Test CRC 78182A1C
Copy CRC 78182A1C
Track not present in AccurateRip database
Copy OK

Track 5

Filename D:\#New wavs + flac\Lady Linn - Black Swann\05. Lady Linn and her Magnificent Bigband - Black Swan.wav

Peak level 94.4 %
Extraction speed 6.7 X
Track quality 100.0 %
Test CRC 22304524
Copy CRC 22304524
Track not present in AccurateRip database
Copy OK

Track 6

Filename D:\#New wavs + flac\Lady Linn - Black Swann\06. Lady Linn and her Magnificent Bigband - Direction.wav

Peak level 93.3 %
Extraction speed 6.5 X
Track quality 100.0 %
Test CRC 65DE8FF7
Copy CRC 65DE8FF7
Track not present in AccurateRip database
Copy OK

Track 7

Filename D:\#New wavs + flac\Lady Linn - Black Swann\07. Lady Linn and her Magnificent Bigband - Sneaking Around.wav

Peak level 94.4 %
Extraction speed 6.0 X
Track quality 99.9 %
Test CRC 26B2630B
Copy CRC 26B2630B
Track not present in AccurateRip database
Copy OK

Track 8

Filename D:\#New wavs + flac\Lady Linn - Black Swann\08. Lady Linn and her Magnificent Bigband - Afraid to Lose You.wav

Pre-gap length 0:00:01.14

Peak level 94.2 %
Extraction speed 7.1 X
Track quality 100.0 %
Test CRC 4E966F15
Copy CRC 4E966F15
Track not present in AccurateRip database
Copy OK

Track 9

Filename D:\#New wavs + flac\Lady Linn - Black Swann\09. Lady Linn and her Magnificent Bigband - Everlasting.wav

Pre-gap length 0:00:00.85

Peak level 94.4 %
Extraction speed 7.7 X
Track quality 100.0 %
Test CRC 25CCD972
Copy CRC 25CCD972
Track not present in AccurateRip database
Copy OK

Track 10

Filename D:\#New wavs + flac\Lady Linn - Black Swann\10. Lady Linn and her Magnificent Bigband - Walking in the Rain.wav

Pre-gap length 0:00:01.86

Peak level 94.4 %
Extraction speed 7.9 X
Track quality 100.0 %
Test CRC D175636E
Copy CRC D175636E
Track not present in AccurateRip database
Copy OK

Track 11

Filename D:\#New wavs + flac\Lady Linn - Black Swann\11. Lady Linn and her Magnificent Bigband - You+Me (Reprise).wav

Peak level 94.4 %
Extraction speed 7.3 X
Track quality 99.9 %
Test CRC AC1D3986
Copy CRC AC1D3986
Track not present in AccurateRip database
Copy OK

Track 12

Filename D:\#New wavs + flac\Lady Linn - Black Swann\12. Lady Linn and her Magnificent Bigband - Loneliness.wav

Pre-gap length 0:00:01.04

Peak level 94.4 %
Extraction speed 8.4 X
Track quality 100.0 %
Test CRC 43EE1618
Copy CRC 43EE1618
Track not present in AccurateRip database
Copy OK


None of the tracks are present in the AccurateRip database

No errors occurred

End of status report

–– CUETools DB Plugin V2.1.6

[CTDB TOCID: 5DV.9swd53DyIN_sqIRecz4zIIM-] found
Submit result: 5DV.9swd53DyIN_sqIRecz4zIIM- has been confirmed
Track | CTDB Status
1 | (1/1) Accurately ripped
2 | (1/1) Accurately ripped
3 | (1/1) Accurately ripped
4 | (1/1) Accurately ripped
5 | (1/1) Accurately ripped
6 | (1/1) Accurately ripped
7 | (1/1) Accurately ripped
8 | (1/1) Accurately ripped
9 | (1/1) Accurately ripped
10 | (1/1) Accurately ripped
11 | (1/1) Accurately ripped
12 | (1/1) Accurately ripped


==== Log checksum E71B89A4598E46885386CF3162F34B5CD8140B4E4FFA2BFF2EFD53C7550A2B26 ====

All thanks go to the redacted

More Music in My Blog
Follow My RSS Channel