Subcategories

Lalo Schifrin - Lalo Schifrin & Friends (2007) {Aleph Records 039}

Posted By: ruskaval
Lalo Schifrin - Lalo Schifrin & Friends (2007) {Aleph Records 039}

Lalo Schifrin - Lalo Schifrin & Friends (2007) {Aleph Records 039}
EAC rip (secure mode) | FLAC (tracks)+CUE+LOG -> 365 Mb | MP3 @320 -> 150 Mb
Full Artwork @ 300 dpi (jpg) -> 32 Mb | 5% repair rar
© 2007 Aleph Records | 039
Jazz / Contemporary Jazz / Third Stream / Piano / Modern Post Bebop

Lalo Schifrin turned 75 on June 21, 2007. In anticipation of that milestone, he convened the recording session for this album a little less than three months earlier, on March 30, 2007, intending to return to his first love of acoustic jazz. The sextet making up the pianist/composer's friends here includes saxophonist James Moody, James Morrison on trumpet and trombone, guitarist Dennis Budimir, bass player Brian Bromberg, and Alex Acuña on drums and percussion. It's an accomplished lineup, and Schifrin wrote and arranged material to showcase the players, beginning with the standard "Besame Mucho," on which Morrison's trumpet takes the lion's share of space.

Moody's tenor is given greatest attention on "Fast Forward," the first of six Schifrin originals, and Budimir is the star of "Old Friends." The lengthy "Free Parking" begins with Morrison's trombone leading, followed by an extensive bass solo from Bromberg, before Morrison returns on trumpet. "Night Walk" is given over to Moody and Acuña. Of course, the leader himself does not go unheard up to this point, but he begins to assert himself more late in the set, duetting with Bromberg on the head section of "A Tribute to Bud" (that's Bud Powell, of course), and really taking over on the melancholy ballad "Winter Landscapes," which finds the horns laying out. An extended take of "Tin Tin Daeo," which evokes Schifrin's mentor, Dizzy Gillespie, is also performed sans horns, but Moody makes a comeback on Oscar Peterson's "Hymn to Freedom." It's easy to imagine this 63-minute collection forming the basis for a hot set at a small jazz club, and that may be the intention. Schifrin has ranged far and wide since his days of playing piano with Gillespie, but, as he says in Richard Palmer's liner notes, "Once a jazz musician, always a jazz musician."
Lalo Schifrin - Lalo Schifrin & Friends (2007) {Aleph Records 039}


Personnel:
Arrangements, Piano Lalo Schifrin
Trombone, Trumpet James Morrison
Saxophone James Moody
Guitar Dennis Budimir
Drums, Percussion Alex Acuсa
Bass Brian Bromberg

tracklist:
01 Besame Mucho 08:33
02 Fast Forward 04:25
03 Old Friends 08:40
04 Free Parking 08:03
05 Night Walk 09:04
06 A Tribute To Bud 03:56
07 Winter Landscapes 05:48
08 Tin Tin Daeo 10:39
09 Hymn To Freedom 04:07

Exact Audio Copy V1.0 beta 1 from 15. November 2010

EAC extraction logfile from 3. June 2011, 22:06

Lalo Schifrin / And Friends

Used drive : TSSTcorpCDDVDW SH-S203N Adapter: 0 ID: 2

Read mode : Secure
Utilize accurate stream : Yes
Defeat audio cache : Yes
Make use of C2 pointers : No

Read offset correction : 6
Overread into Lead-In and Lead-Out : No
Fill up missing offset samples with silence : Yes
Delete leading and trailing silent blocks : No
Null samples used in CRC calculations : Yes
Used interface : Installed external ASPI interface
Gap handling : Appended to previous track

Used output format : User Defined Encoder
Selected bitrate : 768 kBit/s
Quality : High
Add ID3 tag : No
Command line compressor : C:\Program Files\Exact Audio Copy-NEW\Flac\flac.exe
Additional command line options : -8 -V -T "ARTIST=%a" -T "TITLE=%t" -T "ALBUM=%g" -T "DATE=%y" -T "TRACKNUMBER=%n" -T "TOTALTRACKS=%x" -T "GENRE=%m" -T "ALBUMARTIST=%v" -T "ALBUM ARTIST=%v" -T "COMMENT=EAC V1.01b1, Secure Mode, Test & Copy, AccurateRip, FL


TOC of the extracted CD

Track | Start | Length | Start sector | End sector
––––––––––––––––––––––––––––-
1 | 0:00.00 | 8:33.39 | 0 | 38513
2 | 8:33.39 | 4:25.27 | 38514 | 58415
3 | 12:58.66 | 8:40.73 | 58416 | 97488
4 | 21:39.64 | 8:03.15 | 97489 | 133728
5 | 29:43.04 | 9:04.43 | 133729 | 174571
6 | 38:47.47 | 3:56.53 | 174572 | 192324
7 | 42:44.25 | 5:48.10 | 192325 | 218434
8 | 48:32.35 | 10:39.13 | 218435 | 266372
9 | 59:11.48 | 4:07.41 | 266373 | 284938


Track 1

Filename J:\New Rips\Lalo Schifrin - And Friends (2007) [FLAC]\01 - Besame Mucho.wav

Pre-gap length 0:00:02.00

Peak level 100.0 %
Extraction speed 5.0 X
Track quality 100.0 %
Test CRC 03E8A950
Copy CRC 03E8A950
Cannot be verified as accurate (confidence 2) [5C68A1D8], AccurateRip returned [8003E925]
Copy OK

Track 2

Filename J:\New Rips\Lalo Schifrin - And Friends (2007) [FLAC]\02 - Fast Forward.wav

Pre-gap length 0:00:00.37

Peak level 99.3 %
Extraction speed 5.4 X
Track quality 100.0 %
Test CRC DD262698
Copy CRC DD262698
Cannot be verified as accurate (confidence 2) [7A15D8C9], AccurateRip returned [DCC48F1C]
Copy OK

Track 3

Filename J:\New Rips\Lalo Schifrin - And Friends (2007) [FLAC]\03 - Old Friends.wav

Peak level 92.6 %
Extraction speed 6.4 X
Track quality 100.0 %
Test CRC D94F9D1F
Copy CRC D94F9D1F
Cannot be verified as accurate (confidence 2) [B61D687F], AccurateRip returned [B984629D]
Copy OK

Track 4

Filename J:\New Rips\Lalo Schifrin - And Friends (2007) [FLAC]\04 - Free Parking.wav

Peak level 100.0 %
Extraction speed 6.0 X
Track quality 99.9 %
Test CRC 52FEAF76
Copy CRC 52FEAF76
Cannot be verified as accurate (confidence 2) [263346CA], AccurateRip returned [49610AC7]
Copy OK

Track 5

Filename J:\New Rips\Lalo Schifrin - And Friends (2007) [FLAC]\05 - Night Walk.wav

Peak level 100.0 %
Extraction speed 5.1 X
Track quality 99.9 %
Test CRC 632A975F
Copy CRC 632A975F
Cannot be verified as accurate (confidence 2) [F5FADE44], AccurateRip returned [B4F6E108]
Copy OK

Track 6

Filename J:\New Rips\Lalo Schifrin - And Friends (2007) [FLAC]\06 - A Tribute To Bud.wav

Peak level 98.8 %
Extraction speed 3.7 X
Track quality 99.8 %
Test CRC 826BAD1F
Copy CRC 826BAD1F
Cannot be verified as accurate (confidence 2) [8775E78D], AccurateRip returned [64FCCC23]
Copy OK

Track 7

Filename J:\New Rips\Lalo Schifrin - And Friends (2007) [FLAC]\07 - Winter Landscapes.wav

Pre-gap length 0:00:03.01

Peak level 98.8 %
Extraction speed 5.0 X
Track quality 99.9 %
Test CRC 100F91A8
Copy CRC 100F91A8
Cannot be verified as accurate (confidence 2) [FBB30ACA], AccurateRip returned [390E785A]
Copy OK

Track 8

Filename J:\New Rips\Lalo Schifrin - And Friends (2007) [FLAC]\08 - Tin Tin Daeo.wav

Pre-gap length 0:00:00.50

Peak level 100.0 %
Extraction speed 4.3 X
Track quality 99.8 %
Test CRC B429EBA9
Copy CRC B429EBA9
Track not present in AccurateRip database
Copy OK

Track 9

Filename J:\New Rips\Lalo Schifrin - And Friends (2007) [FLAC]\09 - Hymn To Freedom.wav

Pre-gap length 0:00:01.43

Peak level 100.0 %
Extraction speed 7.0 X
Track quality 100.0 %
Test CRC 15D6B03A
Copy CRC 15D6B03A
Track not present in AccurateRip database
Copy OK


7 track(s) could not be verified as accurate
2 track(s) not present in the AccurateRip database

No tracks could be verified as accurate
You may have a different pressing from the one(s) in the database

No errors occurred

End of status report

==== Log checksum 1956E4D09D270EC060A32C3EE66F274FC4FF8BC31359520A295159A9D84D0B0D ====


Lalo Schifrin - Lalo Schifrin & Friends (2007) {Aleph Records 039}

Lalo Schifrin - Lalo Schifrin & Friends (2007) {Aleph Records 039}


see also:
Lalo Schifrin - The Bossa Nova & Latin Albums (2015) {2CDs Malanga Music MM828}
Lalo Schifrin - My Life in Music (2012) {4CD Boxset Aleph Records 047}
Lalo Schifrin - Jazz Meets the Symphony (1999) {4CD set with 1 Bonus CD Aleph Records Aleph 012}
Lalo Schifrin - There's A Whole Lalo Schifrin Goin' On (1968) {Dot Records-Universal 534 293 8 rel 2013}


===