Subcategories

Lalo Schifrin - Jazz Meets the Symphony Collection (1999) {4CD Set with Bonus CD Aleph Records Aleph 012 rec 1992-1998}

Posted By: ruskaval
Lalo Schifrin - Jazz Meets the Symphony Collection (1999) {4CD Set with Bonus CD Aleph Records Aleph 012 rec 1992-1998}

Lalo Schifrin - Jazz Meets the Symphony Collection (1999) {4CD Set with Bonus CD Aleph Records Aleph 012 rec 1992-1998}
EAC rip (secure mode) | FLAC (tracks)+CUE+LOG -> 1.76 Gb | MP3 @320 -> 751 Mb
Full Artwork @ 600 dpi (jpg) -> 366 Mb | 5% repair rar
© 1992-98, 1999 Aleph Records | Aleph 012 / 51702 63342
Jazz / Classical / Third Stream / Neo-Classical / Bop / Modern Post Bebop / Modern Arrangement

Here's yet another composer-performer who abhors the idea of building walls and fences between musical cultures. He's been carrying on parallel activities in the jazz and classical worlds ever since he was a youth in his native Argentina. Schifrin has composed a series of suites putting such jazz greats as Ray Brown and Grady Tate together with the London Philharmonic in a mix of originals, arrangements of standards, and several 13-14 minute tributes to the giants of jazz.
Lalo Schifrin - Jazz Meets the Symphony Collection (1999) {4CD Set with Bonus CD Aleph Records Aleph 012 rec 1992-1998}

For example, in the original Jazz Meets the Symphony, on CD No. 1, we get Echoes of Duke Ellington and Dizzy Gillespie Fireworks as the latter forms. Schifrin also arranges a few Bonfa and Jobim classics into a Brazilian Impressions medley, and gives some Bach themes a ride in his Bach to the Blues. On the More Jazz Meets the Symphony live concert the tributes are Sketches of Miles and Portrait of Louis Armstrong. Schifrin's version of John Lewis' Django is one of the most engaging I've heard, and I think I have most of them. The Firebird session mixes multiple Charlie Parker themes with Stravinsky for the closing tribute, but also includes a Vignette of Fats Waller, a medley of Schifrin's theme for Mission Impossible together with Desmond's Take Five, and a delightful An American in Paris main theme.

Lalo Schifrin - Jazz Meets the Symphony Collection (1999) {4CD Set with Bonus CD Aleph Records Aleph 012 rec 1992-1998}


The fourth and last Jazz Meets the Symphony opens with a Gil Evans tune, includes variations on themes from Puccini's Tosca, and has two musical tribute suites: Miraculous Monk and Rhapsody for Bix. The last, bonus, CD consists of a radio interview plus some of the players just sitting around shooting the breeze. They include Ray Brown, Paquito D'Rivera, Jon Faddis, James Morrison and Schifrin himself. Some great stories ensue and the comraderie of the participants is strongly evident. This is a well-done and fascinating boxed set that should interest any listener who is open minded about crossing the boundaries of classical and jazz.
Lalo Schifrin - Jazz Meets the Symphony Collection (1999) {4CD Set with Bonus CD Aleph Records Aleph 012 rec 1992-1998}


Personnel (among others):
Lalo Schifrin, Ray Brown, Francisco Aguabeila, Paquito DiRivera, Jon Faddis, Jeff Hamilton, James Morrison, Grady Tate, Markus Wienstroer

The London Symphony Orchestra
The London Philharmonic Orchestra


All tracks arranged and conducted by Lalo Schifrin

Recorded between 1992 and 1998

Lalo Schifrin - Jazz Meets the Symphony Collection (1999) {4CD Set with Bonus CD Aleph Records Aleph 012 rec 1992-1998}


tracklist:
CD 1: Jazz Meets The Symphony

1-1 Battle Hymn Of The Republic
1-2 Echoes Of Duke Ellington
1-3 Bach To The Blues
1-4 Brush Strokes
1-5 I Can't Get Started
1-6 Brazilian Impressions
1-7 Blues In The Bassment
1-8 The Fox
1-9 As Time Goes By
1-10 Dizzy Gillespie Fireworks

Lalo Schifrin - Jazz Meets the Symphony Collection (1999) {4CD Set with Bonus CD Aleph Records Aleph 012 rec 1992-1998}


CD 2: More Jazz Meets The Symphony
2-1 Sketches Of Miles: All Blues / So What / Miles / Aranjuez / Green Dolphin Street / Oleo / Four / Move
2-2 Down Here On The Ground
2-3 Chano
2-4 Begin The Beguine
2-5 Django
2-6 Old Friends
2-7 Madrigal
2-8 Portrait Of Louis Armstrong: Nobody Knows The Trouble I've Seen / When It's Sleepytime Down South…

Lalo Schifrin - Jazz Meets the Symphony Collection (1999) {4CD Set with Bonus CD Aleph Records Aleph 012 rec 1992-1998}


CD 3: Firebird
3-1 Birdland
3-2 Vignettes Of Fats Waller: Willow Tree / The Jitterbug Waltz / Lounging At The Waldorf / I've Got A…
3-3 Around The Day In Eighty Worlds
3-4 Mission: Impossible / Take Five
3-5 Eine Kleine Jazz Musik
3-6 An American In Paris / Parisian Thoroughfare
3-7 It's You Or No One
3-8 El Dorado
3-9 Charlie Parker: The Firebird: Firebird Suite / Parker's Mood / Fallen Feathers / Firebird Suite…

Lalo Schifrin - Jazz Meets the Symphony Collection (1999) {4CD Set with Bonus CD Aleph Records Aleph 012 rec 1992-1998}


CD 4: Metamorphosis
4-1 La Nevada
4-2 Sanctuary
4-3 Tosca Variations
4-4 Miraculous Monk: Evidence / Epistrophy / Four In One / Criss Cross / Straight, No Chaser / Well…
4-5 Invisible City
4-6 Rhapsody For Bix: Davenport Blues / Royal Garden Blues / Singing The Blues / In A Mist…

Lalo Schifrin - Jazz Meets the Symphony Collection (1999) {4CD Set with Bonus CD Aleph Records Aleph 012 rec 1992-1998}


CD 5: Concersations With Jazz Stars (1999)
5-1 Concersations With Jazz Stars - 1
5-2 Concersations With Jazz Stars - 2

Lalo Schifrin - Jazz Meets the Symphony Collection (1999) {4CD Set with Bonus CD Aleph Records Aleph 012 rec 1992-1998}


Exact Audio Copy V1.0 beta 3 from 29. August 2011

EAC extraction logfile from 22. February 2016, 22:53

Lalo Schifrin / Jazz Meets The Symphony

Used drive : PLEXTOR BD-R PX-B950SA Adapter: 3 ID: 0

Read mode : Secure
Utilize accurate stream : Yes
Defeat audio cache : Yes
Make use of C2 pointers : No

Read offset correction : 6
Overread into Lead-In and Lead-Out : No
Fill up missing offset samples with silence : Yes
Delete leading and trailing silent blocks : No
Null samples used in CRC calculations : Yes
Used interface : Native Win32 interface for Win NT & 2000
Gap handling : Appended to previous track

Used output format : User Defined Encoder
Selected bitrate : 1024 kBit/s
Quality : High
Add ID3 tag : No
Command line compressor : C:\Program Files (x86)\Exact Audio Copy\Flac\flac.exe
Additional command line options : -8 -V -T "ARTIST=%artist%" -T "TITLE=%title%" -T "ALBUM=%albumtitle%" -T "DATE=%year%" -T "TRACKNUMBER=%tracknr%" -T "TOTALTRACKS=%numtracks%" -T "GENRE=%genre%" -T "ALBUMARTIST=%albumartist%" -T "ALBUM ARTIST=%albumartist%" -T "COMMENT=EAC Secure Mode, Test & Copy, AccurateRip, FLAC -8" %source%


TOC of the extracted CD

Track | Start | Length | Start sector | End sector
––––––––––––––––––––––––––––-
1 | 0:00.01 | 6:28.56 | 1 | 29156
2 | 6:28.57 | 12:48.37 | 29157 | 86793
3 | 19:17.19 | 5:25.45 | 86794 | 111213
4 | 24:42.64 | 3:03.03 | 111214 | 124941
5 | 27:45.67 | 3:31.00 | 124942 | 140766
6 | 31:16.67 | 5:35.55 | 140767 | 165946
7 | 36:52.47 | 4:16.50 | 165947 | 185196
8 | 41:09.22 | 4:50.69 | 185197 | 207015
9 | 46:00.16 | 5:22.13 | 207016 | 231178
10 | 51:22.29 | 13:43.17 | 231179 | 292920


Track 1

Filename Z:\#Torrents\Eigene\Lalo Schifrin - Jazz Meets the Symphony (1999) [FLAC] {4CD set with 1 Bonus CD}\CD1of5\01 - Battle Hymn of the Republic.wav

Pre-gap length 0:00:02.01

Peak level 99.8 %
Extraction speed 1.9 X
Track quality 99.9 %
Test CRC 65014E75
Copy CRC 65014E75
Accurately ripped (confidence 4) [47916309] (AR v2)
Copy OK

Track 2

Filename Z:\#Torrents\Eigene\Lalo Schifrin - Jazz Meets the Symphony (1999) [FLAC] {4CD set with 1 Bonus CD}\CD1of5\02 - Echoes of Duke Ellington.wav

Peak level 99.8 %
Extraction speed 3.0 X
Track quality 100.0 %
Test CRC 28B732C5
Copy CRC 28B732C5
Accurately ripped (confidence 4) [B3C89CF0] (AR v2)
Copy OK

Track 3

Filename Z:\#Torrents\Eigene\Lalo Schifrin - Jazz Meets the Symphony (1999) [FLAC] {4CD set with 1 Bonus CD}\CD1of5\03 - Bach to the blues.wav

Peak level 99.8 %
Extraction speed 3.2 X
Track quality 100.0 %
Test CRC A706569F
Copy CRC A706569F
Accurately ripped (confidence 4) [2A3057EC] (AR v2)
Copy OK

Track 4

Filename Z:\#Torrents\Eigene\Lalo Schifrin - Jazz Meets the Symphony (1999) [FLAC] {4CD set with 1 Bonus CD}\CD1of5\04 - Brush Strokes.wav

Peak level 99.8 %
Extraction speed 3.1 X
Track quality 100.0 %
Test CRC 902272D5
Copy CRC 902272D5
Accurately ripped (confidence 4) [3E5CFB37] (AR v2)
Copy OK

Track 5

Filename Z:\#Torrents\Eigene\Lalo Schifrin - Jazz Meets the Symphony (1999) [FLAC] {4CD set with 1 Bonus CD}\CD1of5\05 - I Can't Get Started.wav

Peak level 99.8 %
Extraction speed 3.3 X
Track quality 100.0 %
Test CRC 22495B06
Copy CRC 22495B06
Accurately ripped (confidence 4) [0EA91AB0] (AR v2)
Copy OK

Track 6

Filename Z:\#Torrents\Eigene\Lalo Schifrin - Jazz Meets the Symphony (1999) [FLAC] {4CD set with 1 Bonus CD}\CD1of5\06 - Brazillian Impressions.wav

Peak level 99.8 %
Extraction speed 3.7 X
Track quality 100.0 %
Test CRC 5F889273
Copy CRC 5F889273
Accurately ripped (confidence 4) [23F50DE1] (AR v2)
Copy OK

Track 7

Filename Z:\#Torrents\Eigene\Lalo Schifrin - Jazz Meets the Symphony (1999) [FLAC] {4CD set with 1 Bonus CD}\CD1of5\07 - Blues in the Bassment.wav

Peak level 99.8 %
Extraction speed 3.7 X
Track quality 100.0 %
Test CRC 87284CF1
Copy CRC 87284CF1
Accurately ripped (confidence 4) [FC58EF76] (AR v2)
Copy OK

Track 8

Filename Z:\#Torrents\Eigene\Lalo Schifrin - Jazz Meets the Symphony (1999) [FLAC] {4CD set with 1 Bonus CD}\CD1of5\08 - The Fox.wav

Peak level 99.8 %
Extraction speed 4.0 X
Track quality 100.0 %
Test CRC 9CB7ED14
Copy CRC 9CB7ED14
Accurately ripped (confidence 4) [6E30E47D] (AR v2)
Copy OK

Track 9

Filename Z:\#Torrents\Eigene\Lalo Schifrin - Jazz Meets the Symphony (1999) [FLAC] {4CD set with 1 Bonus CD}\CD1of5\09 - As Time Goes By.wav

Peak level 99.8 %
Extraction speed 4.2 X
Track quality 100.0 %
Test CRC BEC3C580
Copy CRC BEC3C580
Accurately ripped (confidence 4) [624B2FF9] (AR v2)
Copy OK

Track 10

Filename Z:\#Torrents\Eigene\Lalo Schifrin - Jazz Meets the Symphony (1999) [FLAC] {4CD set with 1 Bonus CD}\CD1of5\10 - Dizzy Gillespie Fireworks.wav

Peak level 99.8 %
Extraction speed 4.8 X
Track quality 100.0 %
Test CRC 33BC1746
Copy CRC 33BC1746
Accurately ripped (confidence 4) [3B6B7A8E] (AR v2)
Copy OK


All tracks accurately ripped

No errors occurred

End of status report

==== Log checksum 371F71F712F277B2DC6C0FB5FECD7622DAE2FDE27655F7FCFD8CB134113222E8 ====

Exact Audio Copy V1.0 beta 3 from 29. August 2011

EAC extraction logfile from 22. February 2016, 23:37

Lalo Schifrin / More Jazz Meets The Symphony

Used drive : PLEXTOR BD-R PX-B950SA Adapter: 3 ID: 0

Read mode : Secure
Utilize accurate stream : Yes
Defeat audio cache : Yes
Make use of C2 pointers : No

Read offset correction : 6
Overread into Lead-In and Lead-Out : No
Fill up missing offset samples with silence : Yes
Delete leading and trailing silent blocks : No
Null samples used in CRC calculations : Yes
Used interface : Native Win32 interface for Win NT & 2000
Gap handling : Appended to previous track

Used output format : User Defined Encoder
Selected bitrate : 1024 kBit/s
Quality : High
Add ID3 tag : No
Command line compressor : C:\Program Files (x86)\Exact Audio Copy\Flac\flac.exe
Additional command line options : -8 -V -T "ARTIST=%artist%" -T "TITLE=%title%" -T "ALBUM=%albumtitle%" -T "DATE=%year%" -T "TRACKNUMBER=%tracknr%" -T "TOTALTRACKS=%numtracks%" -T "GENRE=%genre%" -T "ALBUMARTIST=%albumartist%" -T "ALBUM ARTIST=%albumartist%" -T "COMMENT=EAC Secure Mode, Test & Copy, AccurateRip, FLAC -8" %source%


TOC of the extracted CD

Track | Start | Length | Start sector | End sector
––––––––––––––––––––––––––––-
1 | 0:00.00 | 12:27.64 | 0 | 56088
2 | 12:27.64 | 6:02.58 | 56089 | 83296
3 | 18:30.47 | 7:44.35 | 83297 | 118131
4 | 26:15.07 | 7:09.53 | 118132 | 150359
5 | 33:24.60 | 5:55.52 | 150360 | 177036
6 | 39:20.37 | 4:51.03 | 177037 | 198864
7 | 44:11.40 | 4:07.12 | 198865 | 217401
8 | 48:18.52 | 13:30.38 | 217402 | 278189


Track 1

Filename Z:\#Torrents\Eigene\Lalo Schifrin - Jazz Meets the Symphony (1999) [FLAC] {4CD set with 1 Bonus CD}\CD2 - More Jazz Meets The Symphony\01 - Sketches Of Miles.wav

Pre-gap length 0:00:02.00

Peak level 99.8 %
Extraction speed 2.6 X
Track quality 100.0 %
Test CRC F9D4A06D
Copy CRC F9D4A06D
Accurately ripped (confidence 2) [463E4C5D] (AR v2)
Copy OK

Track 2

Filename Z:\#Torrents\Eigene\Lalo Schifrin - Jazz Meets the Symphony (1999) [FLAC] {4CD set with 1 Bonus CD}\CD2 - More Jazz Meets The Symphony\02 - Down Here On The Ground.wav

Peak level 99.8 %
Extraction speed 3.0 X
Track quality 100.0 %
Test CRC 0FDD6801
Copy CRC 0FDD6801
Accurately ripped (confidence 2) [8818C390] (AR v2)
Copy OK

Track 3

Filename Z:\#Torrents\Eigene\Lalo Schifrin - Jazz Meets the Symphony (1999) [FLAC] {4CD set with 1 Bonus CD}\CD2 - More Jazz Meets The Symphony\03 - Chano.wav

Peak level 99.8 %
Extraction speed 2.8 X
Track quality 99.9 %
Test CRC FF992379
Copy CRC FF992379
Accurately ripped (confidence 2) [F392A898] (AR v2)
Copy OK

Track 4

Filename Z:\#Torrents\Eigene\Lalo Schifrin - Jazz Meets the Symphony (1999) [FLAC] {4CD set with 1 Bonus CD}\CD2 - More Jazz Meets The Symphony\04 - Begin the Beguine.wav

Peak level 99.8 %
Extraction speed 3.6 X
Track quality 100.0 %
Test CRC E8C4129A
Copy CRC E8C4129A
Accurately ripped (confidence 2) [C8D787FD] (AR v2)
Copy OK

Track 5

Filename Z:\#Torrents\Eigene\Lalo Schifrin - Jazz Meets the Symphony (1999) [FLAC] {4CD set with 1 Bonus CD}\CD2 - More Jazz Meets The Symphony\05 - Django.wav

Peak level 99.8 %
Extraction speed 3.8 X
Track quality 100.0 %
Test CRC D3CBF5D5
Copy CRC D3CBF5D5
Accurately ripped (confidence 2) [6F72236E] (AR v2)
Copy OK

Track 6

Filename Z:\#Torrents\Eigene\Lalo Schifrin - Jazz Meets the Symphony (1999) [FLAC] {4CD set with 1 Bonus CD}\CD2 - More Jazz Meets The Symphony\06 - Old Friends.wav

Peak level 99.8 %
Extraction speed 3.9 X
Track quality 100.0 %
Test CRC 7E907558
Copy CRC 7E907558
Accurately ripped (confidence 2) [3BB15B69] (AR v2)
Copy OK

Track 7

Filename Z:\#Torrents\Eigene\Lalo Schifrin - Jazz Meets the Symphony (1999) [FLAC] {4CD set with 1 Bonus CD}\CD2 - More Jazz Meets The Symphony\07 - Madrigal.wav

Peak level 99.8 %
Extraction speed 3.9 X
Track quality 100.0 %
Test CRC FE9AB0D5
Copy CRC FE9AB0D5
Accurately ripped (confidence 2) [C8F31800] (AR v2)
Copy OK

Track 8

Filename Z:\#Torrents\Eigene\Lalo Schifrin - Jazz Meets the Symphony (1999) [FLAC] {4CD set with 1 Bonus CD}\CD2 - More Jazz Meets The Symphony\08 - Portrait of Louis Armstrong.wav

Peak level 99.8 %
Extraction speed 4.6 X
Track quality 100.0 %
Test CRC 8D16138D
Copy CRC 8D16138D
Accurately ripped (confidence 2) [B9B48EB4] (AR v2)
Copy OK


All tracks accurately ripped

No errors occurred

End of status report

–– CUETools DB Plugin V2.1.3

[CTDB TOCID: zkIw0rnPCr3DNElfF1ZGPj5eD1Y-] found, Submit result: zkIw0rnPCr3DNElfF1ZGPj5eD1Y- has been confirmed
[6906deeb] (3/3) Accurately ripped


==== Log checksum 86C81D9A8345C2CCFC81ABF79C76FA1D3DE8FF67D32ED0C7FD2C9DDFE0A7CE13 ====

Exact Audio Copy V1.0 beta 3 from 29. August 2011

EAC extraction logfile from 23. February 2016, 7:10

Lalo Schifrin / Firebird

Used drive : PLEXTOR BD-R PX-B950SA Adapter: 3 ID: 0

Read mode : Secure
Utilize accurate stream : Yes
Defeat audio cache : Yes
Make use of C2 pointers : No

Read offset correction : 6
Overread into Lead-In and Lead-Out : No
Fill up missing offset samples with silence : Yes
Delete leading and trailing silent blocks : No
Null samples used in CRC calculations : Yes
Used interface : Native Win32 interface for Win NT & 2000
Gap handling : Appended to previous track

Used output format : User Defined Encoder
Selected bitrate : 1024 kBit/s
Quality : High
Add ID3 tag : No
Command line compressor : C:\Program Files (x86)\Exact Audio Copy\Flac\flac.exe
Additional command line options : -8 -V -T "ARTIST=%artist%" -T "TITLE=%title%" -T "ALBUM=%albumtitle%" -T "DATE=%year%" -T "TRACKNUMBER=%tracknr%" -T "TOTALTRACKS=%numtracks%" -T "GENRE=%genre%" -T "ALBUMARTIST=%albumartist%" -T "ALBUM ARTIST=%albumartist%" -T "COMMENT=EAC Secure Mode, Test & Copy, AccurateRip, FLAC -8" %source%


TOC of the extracted CD

Track | Start | Length | Start sector | End sector
––––––––––––––––––––––––––––-
1 | 0:00.00 | 5:58.67 | 0 | 26916
2 | 5:58.67 | 13:12.08 | 26917 | 86324
3 | 19:11.00 | 5:49.50 | 86325 | 112549
4 | 25:00.50 | 3:14.30 | 112550 | 127129
5 | 28:15.05 | 3:22.12 | 127130 | 142291
6 | 31:37.17 | 6:53.15 | 142292 | 173281
7 | 38:30.32 | 4:46.30 | 173282 | 194761
8 | 43:16.62 | 7:00.03 | 194762 | 226264
9 | 50:16.65 | 14:17.67 | 226265 | 290606


Track 1

Filename Z:\#Torrents\Eigene\Lalo Schifrin - Jazz Meets the Symphony (1999) [FLAC] {4CD set with 1 Bonus CD}\CD3 - Firebird\01 - Birdland.wav

Pre-gap length 0:00:02.00

Peak level 99.8 %
Extraction speed 2.0 X
Track quality 99.9 %
Test CRC 4310BE23
Copy CRC 4310BE23
Accurately ripped (confidence 2) [88FC8738] (AR v2)
Copy OK

Track 2

Filename Z:\#Torrents\Eigene\Lalo Schifrin - Jazz Meets the Symphony (1999) [FLAC] {4CD set with 1 Bonus CD}\CD3 - Firebird\02 - Vignettes of Fats Waller.wav

Peak level 99.8 %
Extraction speed 2.8 X
Track quality 99.9 %
Test CRC 7025F3DE
Copy CRC 7025F3DE
Accurately ripped (confidence 2) [8C76CF73] (AR v2)
Copy OK

Track 3

Filename Z:\#Torrents\Eigene\Lalo Schifrin - Jazz Meets the Symphony (1999) [FLAC] {4CD set with 1 Bonus CD}\CD3 - Firebird\03 - Around the Day in Eighty Worlds.wav

Peak level 99.8 %
Extraction speed 3.4 X
Track quality 100.0 %
Test CRC 981DFE48
Copy CRC 981DFE48
Accurately ripped (confidence 2) [C30796F1] (AR v2)
Copy OK

Track 4

Filename Z:\#Torrents\Eigene\Lalo Schifrin - Jazz Meets the Symphony (1999) [FLAC] {4CD set with 1 Bonus CD}\CD3 - Firebird\04 - Mission Impossible - Take Five.wav

Peak level 99.8 %
Extraction speed 3.3 X
Track quality 100.0 %
Test CRC D2A1C52F
Copy CRC D2A1C52F
Accurately ripped (confidence 2) [3BCE41B3] (AR v2)
Copy OK

Track 5

Filename Z:\#Torrents\Eigene\Lalo Schifrin - Jazz Meets the Symphony (1999) [FLAC] {4CD set with 1 Bonus CD}\CD3 - Firebird\05 - Eine Kleine Jazz Musik (A Little Jazz Music).wav

Peak level 99.8 %
Extraction speed 2.4 X
Track quality 99.9 %
Test CRC C26D3583
Copy CRC C26D3583
Accurately ripped (confidence 2) [3E44EE63] (AR v2)
Copy OK

Track 6

Filename Z:\#Torrents\Eigene\Lalo Schifrin - Jazz Meets the Symphony (1999) [FLAC] {4CD set with 1 Bonus CD}\CD3 - Firebird\06 - An American In Paris - Parisian Thoroughfare.wav

Peak level 99.8 %
Extraction speed 3.9 X
Track quality 100.0 %
Test CRC 3E583CB1
Copy CRC 3E583CB1
Accurately ripped (confidence 2) [194BD2EB] (AR v2)
Copy OK

Track 7

Filename Z:\#Torrents\Eigene\Lalo Schifrin - Jazz Meets the Symphony (1999) [FLAC] {4CD set with 1 Bonus CD}\CD3 - Firebird\07 - It's You or No One.wav

Peak level 99.8 %
Extraction speed 4.0 X
Track quality 100.0 %
Test CRC 6E8D9BF9
Copy CRC 6E8D9BF9
Accurately ripped (confidence 2) [9C6F0155] (AR v2)
Copy OK

Track 8

Filename Z:\#Torrents\Eigene\Lalo Schifrin - Jazz Meets the Symphony (1999) [FLAC] {4CD set with 1 Bonus CD}\CD3 - Firebird\08 - El Dorado.wav

Peak level 99.8 %
Extraction speed 4.3 X
Track quality 100.0 %
Test CRC 7385A363
Copy CRC 7385A363
Accurately ripped (confidence 2) [6BE2BD2B] (AR v2)
Copy OK

Track 9

Filename Z:\#Torrents\Eigene\Lalo Schifrin - Jazz Meets the Symphony (1999) [FLAC] {4CD set with 1 Bonus CD}\CD3 - Firebird\09 - Charlie Parker - The Firebird.wav

Peak level 99.8 %
Extraction speed 4.4 X
Track quality 99.9 %
Test CRC 12E2D42F
Copy CRC 12E2D42F
Accurately ripped (confidence 2) [4532291F] (AR v2)
Copy OK


All tracks accurately ripped

No errors occurred

End of status report

–– CUETools DB Plugin V2.1.3

[CTDB TOCID: SnT_65iOVRJn3yLZlzWI3EY_zOU-] found, Submit result: SnT_65iOVRJn3yLZlzWI3EY_zOU- has been confirmed
[c244354f] (3/3) Accurately ripped


==== Log checksum 000053648E763EFE5B980803471922469FB4717C4B5D2C8B3712E305E69CC884 ====

Exact Audio Copy V1.0 beta 3 from 29. August 2011

EAC extraction logfile from 23. February 2016, 7:49

Lalo Schifrin / Metamorphosis

Used drive : PLEXTOR BD-R PX-B950SA Adapter: 3 ID: 0

Read mode : Secure
Utilize accurate stream : Yes
Defeat audio cache : Yes
Make use of C2 pointers : No

Read offset correction : 6
Overread into Lead-In and Lead-Out : No
Fill up missing offset samples with silence : Yes
Delete leading and trailing silent blocks : No
Null samples used in CRC calculations : Yes
Used interface : Native Win32 interface for Win NT & 2000
Gap handling : Appended to previous track

Used output format : User Defined Encoder
Selected bitrate : 1024 kBit/s
Quality : High
Add ID3 tag : No
Command line compressor : C:\Program Files (x86)\Exact Audio Copy\Flac\flac.exe
Additional command line options : -8 -V -T "ARTIST=%artist%" -T "TITLE=%title%" -T "ALBUM=%albumtitle%" -T "DATE=%year%" -T "TRACKNUMBER=%tracknr%" -T "TOTALTRACKS=%numtracks%" -T "GENRE=%genre%" -T "ALBUMARTIST=%albumartist%" -T "ALBUM ARTIST=%albumartist%" -T "COMMENT=EAC Secure Mode, Test & Copy, AccurateRip, FLAC -8" %source%


TOC of the extracted CD

Track | Start | Length | Start sector | End sector
––––––––––––––––––––––––––––-
1 | 0:00.00 | 6:26.17 | 0 | 28966
2 | 6:26.17 | 6:22.38 | 28967 | 57654
3 | 12:48.55 | 3:57.60 | 57655 | 75489
4 | 16:46.40 | 13:50.45 | 75490 | 137784
5 | 30:37.10 | 5:55.35 | 137785 | 164444
6 | 36:32.45 | 23:47.37 | 164445 | 271506


Track 1

Filename Z:\#Torrents\Eigene\Lalo Schifrin - Jazz Meets the Symphony (1999) [FLAC] {4CD set with 1 Bonus CD}\CD4 - Metamorphosis\01 - La Nevada.wav

Pre-gap length 0:00:02.00

Peak level 99.9 %
Extraction speed 2.3 X
Track quality 100.0 %
Test CRC 3090A1F4
Copy CRC 3090A1F4
Accurately ripped (confidence 2) [F5BA3228] (AR v2)
Copy OK

Track 2

Filename Z:\#Torrents\Eigene\Lalo Schifrin - Jazz Meets the Symphony (1999) [FLAC] {4CD set with 1 Bonus CD}\CD4 - Metamorphosis\02 - Sanctuary.wav

Pre-gap length 0:00:05.17

Peak level 99.9 %
Extraction speed 2.7 X
Track quality 100.0 %
Test CRC 24D60DDF
Copy CRC 24D60DDF
Accurately ripped (confidence 2) [FB0DAC52] (AR v2)
Copy OK

Track 3

Filename Z:\#Torrents\Eigene\Lalo Schifrin - Jazz Meets the Symphony (1999) [FLAC] {4CD set with 1 Bonus CD}\CD4 - Metamorphosis\03 - Tosca Variations.wav

Pre-gap length 0:00:04.18

Peak level 99.9 %
Extraction speed 2.8 X
Track quality 100.0 %
Test CRC 0D00366C
Copy CRC 0D00366C
Accurately ripped (confidence 2) [30FE3EE8] (AR v2)
Copy OK

Track 4

Filename Z:\#Torrents\Eigene\Lalo Schifrin - Jazz Meets the Symphony (1999) [FLAC] {4CD set with 1 Bonus CD}\CD4 - Metamorphosis\04 - Miraculous Monk.wav

Pre-gap length 0:00:02.60

Peak level 99.9 %
Extraction speed 3.5 X
Track quality 100.0 %
Test CRC 45591369
Copy CRC 45591369
Accurately ripped (confidence 2) [FF51884A] (AR v2)
Copy OK

Track 5

Filename Z:\#Torrents\Eigene\Lalo Schifrin - Jazz Meets the Symphony (1999) [FLAC] {4CD set with 1 Bonus CD}\CD4 - Metamorphosis\05 - Invisible City.wav

Pre-gap length 0:00:01.68

Peak level 99.9 %
Extraction speed 3.7 X
Track quality 100.0 %
Test CRC 4B59B3F0
Copy CRC 4B59B3F0
Accurately ripped (confidence 2) [0C5643C4] (AR v2)
Copy OK

Track 6

Filename Z:\#Torrents\Eigene\Lalo Schifrin - Jazz Meets the Symphony (1999) [FLAC] {4CD set with 1 Bonus CD}\CD4 - Metamorphosis\06 - Rhapsody for Bix.wav

Pre-gap length 0:00:03.05

Peak level 99.9 %
Extraction speed 4.5 X
Track quality 100.0 %
Test CRC 0B8D4CFF
Copy CRC 0B8D4CFF
Accurately ripped (confidence 2) [B4D14F61] (AR v2)
Copy OK


All tracks accurately ripped

No errors occurred

End of status report

–– CUETools DB Plugin V2.1.3

[CTDB TOCID: zfXIIY_vVVLHQCmSieakAY0e55U-] found, Submit result: zfXIIY_vVVLHQCmSieakAY0e55U- has been confirmed
[4e41a60a] (3/3) Accurately ripped


==== Log checksum E12099EC82956D73E7390373F398CAA726622AC3E2F61ACE9A3E4E4F904CC231 ====

Exact Audio Copy V1.0 beta 3 from 29. August 2011

EAC extraction logfile from 23. February 2016, 18:15

Lalo Schifrin / Conversations with Jazz Stars

Used drive : PLEXTOR BD-R PX-B950SA Adapter: 3 ID: 0

Read mode : Secure
Utilize accurate stream : Yes
Defeat audio cache : Yes
Make use of C2 pointers : No

Read offset correction : 6
Overread into Lead-In and Lead-Out : No
Fill up missing offset samples with silence : Yes
Delete leading and trailing silent blocks : No
Null samples used in CRC calculations : Yes
Used interface : Native Win32 interface for Win NT & 2000
Gap handling : Appended to previous track

Used output format : User Defined Encoder
Selected bitrate : 1024 kBit/s
Quality : High
Add ID3 tag : No
Command line compressor : C:\Program Files (x86)\Exact Audio Copy\Flac\flac.exe
Additional command line options : -8 -V -T "ARTIST=%artist%" -T "TITLE=%title%" -T "ALBUM=%albumtitle%" -T "DATE=%year%" -T "TRACKNUMBER=%tracknr%" -T "TOTALTRACKS=%numtracks%" -T "GENRE=%genre%" -T "ALBUMARTIST=%albumartist%" -T "ALBUM ARTIST=%albumartist%" -T "COMMENT=EAC Secure Mode, Test & Copy, AccurateRip, FLAC -8" %source%


TOC of the extracted CD

Track | Start | Length | Start sector | End sector
––––––––––––––––––––––––––––-
1 | 0:00.00 | 37:36.70 | 0 | 169269
2 | 37:36.70 | 34:44.25 | 169270 | 325594


Track 1

Filename Z:\#Torrents\Eigene\Lalo Schifrin - Jazz Meets the Symphony (1999) [FLAC] {4CD set with 1 Bonus CD}\CD5 - Conversations with Jazz Stars\01 - Chuck Niles.wav

Pre-gap length 0:00:02.00

Peak level 100.0 %
Extraction speed 3.3 X
Track quality 99.9 %
Test CRC DBCA0029
Copy CRC DBCA0029
Accurately ripped (confidence 2) [CD064AA7] (AR v2)
Copy OK

Track 2

Filename Z:\#Torrents\Eigene\Lalo Schifrin - Jazz Meets the Symphony (1999) [FLAC] {4CD set with 1 Bonus CD}\CD5 - Conversations with Jazz Stars\02 - Gary Walker.wav

Pre-gap length 0:00:03.70

Peak level 99.6 %
Extraction speed 4.7 X
Track quality 99.9 %
Test CRC D9A9DC91
Copy CRC D9A9DC91
Accurately ripped (confidence 2) [01EA12EA] (AR v2)
Copy OK


All tracks accurately ripped

No errors occurred

End of status report

–– CUETools DB Plugin V2.1.3

[CTDB TOCID: SfSUHDODRMJOmTxlhzZuQQuMKn8-] found, Submit result: SfSUHDODRMJOmTxlhzZuQQuMKn8- has been confirmed
[c3c8bdf6] (2/2) Accurately ripped


==== Log checksum 4FF7EDCD1601976BA145E17C8AF4D833EE74399C9A285793413B3E7E90B83440 ====


Lalo Schifrin - Jazz Meets the Symphony Collection (1999) {4CD Set with Bonus CD Aleph Records Aleph 012 rec 1992-1998}

Lalo Schifrin - Jazz Meets the Symphony Collection (1999) {4CD Set with Bonus CD Aleph Records Aleph 012 rec 1992-1998}

Lalo Schifrin - Jazz Meets the Symphony Collection (1999) {4CD Set with Bonus CD Aleph Records Aleph 012 rec 1992-1998}


see more Lalo Schifrin…


===