Subcategories

Lalo Schifrin - Rendez-vous Dansant a Copacabana (1955) {Vogue-Sony Music Mini LP Replica 88725443772-19 rel 2013}

Posted By: ruskaval
Lalo Schifrin - Rendez-vous Dansant a Copacabana (1955) {Vogue-Sony Music Mini LP Replica 88725443772-19 rel 2013}

Lalo Schifrin - Rendez-vous Dansant à Copacabana (1955) {Vogue-Sony Music Mini LP Replica 88725443772-19 rel 2013}
EAC rip (secure mode) | FLAC (tracks)+CUE+LOG -> 110 Mb | MP3 @320 -> 58 Mb
Full Artwork @ 300 dpi (jpg) -> 10 Mb | 5% repair rar
© 1955, 2013 Vogue / Sony Music | Mini LP Replica | 88725443772-19
Jazz / Bebop / Third Stream / Piano

Best known for his "Mission: Impossible" theme song, Lalo Schifrin is an Argentinean-born composer, arranger, pianist, and conductor, whose jazz and classical training earned him tremendous success as a soundtrack composer. Born Boris Claudio Schifrin in Buenos Aires on June 21, 1932, his father was a symphonic violinist, and he began playing piano at age six. He enrolled in the Paris Conservatoire in 1952, hitting the jazz scene by night. After returning to Buenos Aires, Schifrin formed a 16-piece jazz orchestra, which helped him meet Dizzy Gillespie in 1956.

Schifrin offered to write Gillespie an extended suite, completing the five-movement Gillespiana in 1958; the same year, he became an arranger for Xavier Cugat. In 1960, he moved to New York City and joined Gillespie's quintet, which recorded "Gillespiana" to much general acclaim. Schifrin became Gillespie's musical director until 1962, contributing another suite in "The New Continent"; he subsequently departed to concentrate on his writing. He also recorded as a leader, most often in Latin jazz and bossa nova settings, and accepted his first film-scoring assignment in 1963 (for Rhino!). Schifrin moved to Hollywood late that year, scoring major successes with his indelible themes to Mission: Impossible and Mannix. Over the next decade, Schifrin would score films like The Cincinnati Kid, Bullitt, Cool Hand Luke, Dirty Harry, and Enter the Dragon. As a jazzer, he wrote the well-received "Jazz Mass" suite in 1965, and delved into stylish jazz-funk with 1975's CTI album Black Widow. Schifrin continued his film work all the way through the '90s; during that decade, he recorded a series of orchestral jazz albums called Jazz Meets the Symphony, and became the principal arranger for the Three Tenors, which complemented his now-dominant interest in composing classical music.
Lalo Schifrin - Rendez-vous Dansant a Copacabana (1955) {Vogue-Sony Music Mini LP Replica 88725443772-19 rel 2013}


Musicians:
Lalo Schiffrin - piano
Pierre Michelot - bass
Jean-Louis Viale - drums
Jack del Rio - percussion

Recorded: 1955 Paris

tracklist:
01 - Moulin Rouge
02 - Led Oignons
03 - Fascination
04 - Cabello Rojo
05 - Mon Homme
06 - Mambop
07 - Pigalle
08 - Serenade Mediterraneenne

Exact Audio Copy V1.0 beta 3 from 29. August 2011

EAC extraction logfile from 13. February 2014, 9:12

Lalo Schifrin / Rendez-vous dansant a Copacabana

Used drive : ATAPI DVD A DH16ABSH Adapter: 2 ID: 1

Read mode : Secure
Utilize accurate stream : Yes
Defeat audio cache : Yes
Make use of C2 pointers : No

Read offset correction : 6
Overread into Lead-In and Lead-Out : No
Fill up missing offset samples with silence : Yes
Delete leading and trailing silent blocks : No
Null samples used in CRC calculations : Yes
Used interface : Native Win32 interface for Win NT & 2000
Gap handling : Appended to previous track

Used output format : User Defined Encoder
Selected bitrate : 128 kBit/s
Quality : High
Add ID3 tag : No
Command line compressor : C:\Program Files (x86)\Exact Audio Copy\FLAC\FLAC.EXE
Additional command line options : -8 -V -T "ARTIST=%artist%" -T "TITLE=%title%" -T "ALBUM=%albumtitle%" -T "DATE=%year%" -T "TRACKNUMBER=%tracknr%" -T "TOTALTRACKS=%numtracks%" -T "GENRE=%genre%" -T "ALBUMARTIST=%albumartist%" -T "ALBUM ARTIST=%albumartist%" -T "COMMENT=EAC Secure Mode, Test & Copy, AccurateRip, FLAC -8" %source%


TOC of the extracted CD

Track | Start | Length | Start sector | End sector
––––––––––––––––––––––––––––-
1 | 0:00.00 | 3:27.10 | 0 | 15534
2 | 3:27.10 | 2:42.14 | 15535 | 27698
3 | 6:09.24 | 3:42.50 | 27699 | 44398
4 | 9:51.74 | 3:00.55 | 44399 | 57953
5 | 12:52.54 | 3:34.11 | 57954 | 74014
6 | 16:26.65 | 2:58.28 | 74015 | 87392
7 | 19:25.18 | 3:04.16 | 87393 | 101208
8 | 22:29.34 | 2:47.33 | 101209 | 113766


Track 1

Filename G:\Lalo Schifrin - Rendez-Vous Dansant a Copacabana (1955) [FLAC]\01 - Moulin Rouge.wav

Pre-gap length 0:00:02.00

Peak level 98.8 %
Extraction speed 2.5 X
Track quality 99.9 %
Test CRC 83FBACD9
Copy CRC 83FBACD9
Accurately ripped (confidence 1) [4B3792CC] (AR v2)
Copy OK

Track 2

Filename G:\Lalo Schifrin - Rendez-Vous Dansant a Copacabana (1955) [FLAC]\02 - Led Oignons.wav

Pre-gap length 0:00:03.22

Peak level 98.8 %
Extraction speed 3.4 X
Track quality 100.0 %
Test CRC 1DD7B67D
Copy CRC 1DD7B67D
Accurately ripped (confidence 1) [10B9FDD7] (AR v2)
Copy OK

Track 3

Filename G:\Lalo Schifrin - Rendez-Vous Dansant a Copacabana (1955) [FLAC]\03 - Fascination.wav

Pre-gap length 0:00:02.49

Peak level 98.8 %
Extraction speed 3.9 X
Track quality 100.0 %
Test CRC FA32DB2D
Copy CRC FA32DB2D
Accurately ripped (confidence 1) [7FA86878] (AR v2)
Copy OK

Track 4

Filename G:\Lalo Schifrin - Rendez-Vous Dansant a Copacabana (1955) [FLAC]\04 - Cabello Rojo.wav

Pre-gap length 0:00:02.51

Peak level 98.8 %
Extraction speed 4.0 X
Track quality 100.0 %
Test CRC 44B2B9B0
Copy CRC 44B2B9B0
Accurately ripped (confidence 1) [5EDD14FF] (AR v2)
Copy OK

Track 5

Filename G:\Lalo Schifrin - Rendez-Vous Dansant a Copacabana (1955) [FLAC]\05 - Mon Homme.wav

Pre-gap length 0:00:02.34

Peak level 98.8 %
Extraction speed 3.4 X
Track quality 99.9 %
Test CRC 630FEE87
Copy CRC 630FEE87
Accurately ripped (confidence 1) [03B3971C] (AR v2)
Copy OK

Track 6

Filename G:\Lalo Schifrin - Rendez-Vous Dansant a Copacabana (1955) [FLAC]\06 - Mambop.wav

Pre-gap length 0:00:02.27

Peak level 98.8 %
Extraction speed 4.4 X
Track quality 100.0 %
Test CRC 4B804EF8
Copy CRC 4B804EF8
Accurately ripped (confidence 1) [83999E93] (AR v2)
Copy OK

Track 7

Filename G:\Lalo Schifrin - Rendez-Vous Dansant a Copacabana (1955) [FLAC]\07 - Pigalle.wav

Pre-gap length 0:00:03.45

Peak level 98.8 %
Extraction speed 4.6 X
Track quality 100.0 %
Test CRC 06B90399
Copy CRC 06B90399
Accurately ripped (confidence 1) [E9255086] (AR v2)
Copy OK

Track 8

Filename G:\Lalo Schifrin - Rendez-Vous Dansant a Copacabana (1955) [FLAC]\08 - Serenade Mediterraneenne.wav

Pre-gap length 0:00:04.29

Peak level 98.8 %
Extraction speed 4.7 X
Track quality 100.0 %
Test CRC 9AFC79E7
Copy CRC 9AFC79E7
Accurately ripped (confidence 1) [5FE08F1D] (AR v2)
Copy OK


All tracks accurately ripped

No errors occurred

End of status report

==== Log checksum C007521BBD76DDEE7D7603BC31D443FB562ED4E910A5EBE9D86FF74906139AE1 ====


Lalo Schifrin - Rendez-vous Dansant a Copacabana (1955) {Vogue-Sony Music Mini LP Replica 88725443772-19 rel 2013}

Lalo Schifrin - Rendez-vous Dansant a Copacabana (1955) {Vogue-Sony Music Mini LP Replica 88725443772-19 rel 2013}


see more Lalo Schifrin…


===