Subcategories

Lascelles Perkins - Sings Studio One And More (1970) {Kingston Sounds Records KSCD059 - 2016 Reissue}

Posted By: ruskaval
Lascelles Perkins - Sings Studio One And More (1970) {Kingston Sounds Records KSCD059 - 2016 Reissue}

Lascelles Perkins - Sings Studio One And More (1970) {Kingston Sounds Records KSCD059 - 2016 Reissue}
EAC rip (secure mode) | FLAC (tracks)+CUE+LOG -> 423 Mb | MP3 @320 -> 156 Mb
Full Artwork @ 300 dpi (jpg) -> 39 Mb | 5% repair rar
© 1970, 2016 Kingston Sounds Records | KSCD059
Reggae / Rocksteady

Lascelles Perkins was one of the first stars of the Jamaican music scene. Studio One's leading balladeer and one of the most underrated singers from that time. Lascelles Perkins sang sentimental ballads and he scored massive local hits for Coxsone Dodd's Studio One label. Songs like 'Lonely Moments' and 'Together Forever' other big hits followed 'The Mighty Organ' song as a duet with Hortense Ellis, Alton Ellis' sister, 'Destiny' and a whole catalogue of standards or foreign songs as they were called. Lascelles could sing any song, make it seem effortless and at the same time address it in his own unique style.

Lascelles Perkins was present at the birth of Studio One, at the initial sessions carried out in 1959 alongside the other big singers of the day, Alton Ellis and Basil Gabbidone. The session took place at Federal Studios and as was the method of recording at the time, the studio would have one mic hanging down in the middle of the room. The singer would be nearest to the mic and the musicians, depending on how loud their instrument was, would place themselves accordingly in the room. Everything was one take or you would have to record the whole song again. The singers and the musicians would have to be at the top of their game and would be paid for each side they cut. Doing things over would mean less songs finished, time and money was tight but this discipline made the great records we know today.

We have captured Mr Perkins on some lost tapes from producer Bunny Lee's archive that capture Lascelles singing some of the big Studio One hits of the day.

'Rain from the Skies', 'Stick By Me', 2Love me Forever' and 'No Man is an Island'. Alongside other great tunes from the time like 'Dancing Mood', 'Pledging My Love', 'Take My Hand', 'Never Never' and 'Dinner For One'. Let's hope this set gets Lascelles Perkins back on the musical map and listened to by a whole new audience. Top tunes performed in a style that seems effortless yet is only possible if one has the taken tot pull it off and Mr Perkins has it in bundles. Hope you enjoy the set…….

tracklist:
01 - Dancing Mood
02 - Rain From The Skies
03 - Stick By Me
04 - Pledging My Love
05 - Love Me Forever
06 - The Mighty Organ (Feat. Hortense)
07 - Walk Away
08 - Never Never
09 - No Man Is An Island
10 - Take My Hand
11 - Dinner For One
12 - My Heart Is Gone
13 - Wide Awake In A Dream
14 - I'll Never Fall In Love Again
15 - Again
16 - Prisoner Of Love
17 - Come Closely My Darling
18 - Anymore

Exact Audio Copy V1.0 beta 3 from 29. August 2011

EAC extraction logfile from 7. June 2016, 10:15

Lascelles Perkins / Sings Studio One And More

Used drive : TSSTcorpCDDVDW SN-208DN Adapter: 0 ID: 0

Read mode : Secure
Utilize accurate stream : Yes
Defeat audio cache : Yes
Make use of C2 pointers : No

Read offset correction : 6
Overread into Lead-In and Lead-Out : No
Fill up missing offset samples with silence : Yes
Delete leading and trailing silent blocks : No
Null samples used in CRC calculations : Yes
Used interface : Native Win32 interface for Win NT & 2000
Gap handling : Appended to previous track

Used output format : User Defined Encoder
Selected bitrate : 128 kBit/s
Quality : High
Add ID3 tag : No
Command line compressor : C:\Program Files (x86)\Exact Audio Copy\Flac\flac.exe
Additional command line options : -8 -V -T "ARTIST=%artist%" -T "TITLE=%title%" -T "ALBUM=%albumtitle%" -T "DATE=%year%" -T "TRACKNUMBER=%tracknr%" -T "TOTALTRACKS=%numtracks%" -T "GENRE=%genre%" -T "ALBUMARTIST=%albumartist%" -T "ALBUM ARTIST=%albumartist%" -T "COMMENT=EAC Secure Mode, Test & Copy, AccurateRip, FLAC -8" %source%


TOC of the extracted CD

Track | Start | Length | Start sector | End sector
––––––––––––––––––––––––––––-
1 | 0:00.00 | 3:49.22 | 0 | 17196
2 | 3:49.22 | 2:48.59 | 17197 | 29855
3 | 6:38.06 | 3:16.01 | 29856 | 44556
4 | 9:54.07 | 2:44.09 | 44557 | 56865
5 | 12:38.16 | 3:53.61 | 56866 | 74401
6 | 16:32.02 | 2:51.48 | 74402 | 87274
7 | 19:23.50 | 3:23.25 | 87275 | 102524
8 | 22:47.00 | 4:07.29 | 102525 | 121078
9 | 26:54.29 | 3:41.40 | 121079 | 137693
10 | 30:35.69 | 3:39.09 | 137694 | 154127
11 | 34:15.03 | 4:30.74 | 154128 | 174451
12 | 38:46.02 | 4:06.53 | 174452 | 192954
13 | 42:52.55 | 4:17.44 | 192955 | 212273
14 | 47:10.24 | 3:58.70 | 212274 | 230193
15 | 51:09.19 | 3:56.43 | 230194 | 247936
16 | 55:05.62 | 4:21.50 | 247937 | 267561
17 | 59:27.37 | 3:54.30 | 267562 | 285141
18 | 63:21.67 | 2:55.67 | 285142 | 298333


Track 1

Filename C:\AddisistheGodFlac\01 - Dancing Mood.wav

Pre-gap length 0:00:02.00

Peak level 97.7 %
Extraction speed 2.2 X
Track quality 100.0 %
Test CRC 7F0A1227
Copy CRC 7F0A1227
Track not present in AccurateRip database
Copy OK

Track 2

Filename C:\AddisistheGodFlac\02 - Rain From The Skies.wav

Pre-gap length 0:00:02.00

Peak level 97.7 %
Extraction speed 2.3 X
Track quality 100.0 %
Test CRC 68470EDA
Copy CRC 68470EDA
Track not present in AccurateRip database
Copy OK

Track 3

Filename C:\AddisistheGodFlac\03 - Stick By Me.wav

Pre-gap length 0:00:02.00

Peak level 97.7 %
Extraction speed 2.5 X
Track quality 100.0 %
Test CRC 6068442A
Copy CRC 6068442A
Track not present in AccurateRip database
Copy OK

Track 4

Filename C:\AddisistheGodFlac\04 - Pledging My Love.wav

Pre-gap length 0:00:02.00

Peak level 97.7 %
Extraction speed 2.6 X
Track quality 100.0 %
Test CRC F2554CF6
Copy CRC F2554CF6
Track not present in AccurateRip database
Copy OK

Track 5

Filename C:\AddisistheGodFlac\05 - Love Me Forever.wav

Pre-gap length 0:00:02.00

Peak level 97.7 %
Extraction speed 2.9 X
Track quality 100.0 %
Test CRC 08F2E1C1
Copy CRC 08F2E1C1
Track not present in AccurateRip database
Copy OK

Track 6

Filename C:\AddisistheGodFlac\06 - The Mighty Organ (Feat. Hortense).wav

Pre-gap length 0:00:02.00

Peak level 90.6 %
Extraction speed 2.2 X
Track quality 99.9 %
Test CRC A1EF1192
Copy CRC A1EF1192
Track not present in AccurateRip database
Copy OK

Track 7

Filename C:\AddisistheGodFlac\07 - Walk Away.wav

Pre-gap length 0:00:02.00

Peak level 97.7 %
Extraction speed 3.2 X
Track quality 100.0 %
Test CRC D80477EE
Copy CRC D80477EE
Track not present in AccurateRip database
Copy OK

Track 8

Filename C:\AddisistheGodFlac\08 - Never Never.wav

Pre-gap length 0:00:02.00

Peak level 99.2 %
Extraction speed 3.4 X
Track quality 100.0 %
Test CRC 2538D041
Copy CRC 2538D041
Track not present in AccurateRip database
Copy OK

Track 9

Filename C:\AddisistheGodFlac\09 - No Man Is An Island.wav

Pre-gap length 0:00:02.00

Peak level 97.7 %
Extraction speed 3.5 X
Track quality 100.0 %
Test CRC FB29DD29
Copy CRC FB29DD29
Track not present in AccurateRip database
Copy OK

Track 10

Filename C:\AddisistheGodFlac\10 - Take My Hand.wav

Pre-gap length 0:00:02.00

Peak level 97.7 %
Extraction speed 2.7 X
Track quality 99.9 %
Test CRC 20569DCB
Copy CRC 20569DCB
Track not present in AccurateRip database
Copy OK

Track 11

Filename C:\AddisistheGodFlac\11 - Dinner For One.wav

Pre-gap length 0:00:02.00

Peak level 97.7 %
Extraction speed 3.8 X
Track quality 100.0 %
Test CRC ADDCF4CA
Copy CRC ADDCF4CA
Track not present in AccurateRip database
Copy OK

Track 12

Filename C:\AddisistheGodFlac\12 - My Heart Is Gone.wav

Pre-gap length 0:00:02.00

Peak level 97.7 %
Extraction speed 3.6 X
Track quality 100.0 %
Test CRC A19148D8
Copy CRC A19148D8
Track not present in AccurateRip database
Copy OK

Track 13

Filename C:\AddisistheGodFlac\13 - Wide Awake In A Dream.wav

Pre-gap length 0:00:02.00

Peak level 97.7 %
Extraction speed 3.4 X
Track quality 100.0 %
Test CRC 3FABEC63
Copy CRC 3FABEC63
Track not present in AccurateRip database
Copy OK

Track 14

Filename C:\AddisistheGodFlac\14 - I'll Never Fall In Love Again.wav

Pre-gap length 0:00:01.74

Peak level 97.7 %
Extraction speed 2.9 X
Track quality 100.0 %
Test CRC F22550CA
Copy CRC F22550CA
Track not present in AccurateRip database
Copy OK

Track 15

Filename C:\AddisistheGodFlac\15 - Again.wav

Pre-gap length 0:00:02.00

Peak level 97.7 %
Extraction speed 2.9 X
Track quality 100.0 %
Test CRC 420D4952
Copy CRC 420D4952
Track not present in AccurateRip database
Copy OK

Track 16

Filename C:\AddisistheGodFlac\16 - Prisoner Of Love.wav

Pre-gap length 0:00:02.00

Peak level 97.7 %
Extraction speed 3.2 X
Track quality 100.0 %
Test CRC A4A80F61
Copy CRC A4A80F61
Track not present in AccurateRip database
Copy OK

Track 17

Filename C:\AddisistheGodFlac\17 - Come Closely My Darling.wav

Pre-gap length 0:00:02.00

Peak level 97.7 %
Extraction speed 2.0 X
Track quality 99.9 %
Test CRC 38AF2395
Copy CRC 38AF2395
Track not present in AccurateRip database
Copy OK

Track 18

Filename C:\AddisistheGodFlac\18 - Anymore.wav

Pre-gap length 0:00:02.00

Peak level 99.8 %
Extraction speed 3.1 X
Track quality 100.0 %
Test CRC 06831EB4
Copy CRC 06831EB4
Track not present in AccurateRip database
Copy OK


None of the tracks are present in the AccurateRip database

No errors occurred

End of status report

==== Log checksum 9BB7030EC4AB042205A0B918AE637AA115CEDB5A6EB0242B90F6A80BE8CC044C ====


Lascelles Perkins - Sings Studio One And More (1970) {Kingston Sounds Records KSCD059 - 2016 Reissue}

Lascelles Perkins - Sings Studio One And More (1970) {Kingston Sounds Records KSCD059 - 2016 Reissue}


thanks to addis…

see more reggae…

NEXT -> more reggae on the way…


===