Subcategories

Lawson Rollins - 3 Minutes To Midnight (2017)

Posted By: delpotro
Lawson Rollins - 3 Minutes To Midnight (2017)

Lawson Rollins - 3 Minutes To Midnight (2017)
EAC Rip | FLAC (tracks+log+.cue) | 00:41:14 | 269 Mb
Guitar Jazz, Latin, Easy Listening | Label: Infinita Records

The new album from award-winning, Billboard Top 10 World Music Guitarist Laswson Rollins. The album inludes 12 new original songs that capture the urgency of the moment, the exhilaration of the speed of sound, and the poignancy of the remains of the day.

Guitar Player Magazine: "The classically trained maestro, renowned for seamlessly blending various Latin styles…incorporates new plucking techniques to play aptly timed flourishes at supersonic speeds that will make your head spin.

Featuring multi-platinum producer Dominic Camardella (Ottmar Liebert, Flora Purim, Airto, 3rd Force), Grammy winning violinist Charlie Bisharat (Shadowfax), bassist Randy Tico (Flora & Airto, Jeff Bridges, Strunz & Farah, Benise), and percussionist Dave Bryant (Ottmar Liebert).
Tracklist:
1. 3 Minutes to Midnight
2. Light the Way
3. Island Time
4. Sway
5. Driving Force
6. Southbound
7. Stringdance
8. Time Shift
9. Reveal
10. Split Second
11. Eternal
12. Mary's Rock

Exact Audio Copy V1.2 from 12. August 2016

EAC extraction logfile from 10. April 2017, 19:05

Lawson Rollins / 3 Minutes To Midnight

Used drive : HL-DT-STBD-RE WH14NS40 Adapter: 1 ID: 0

Read mode : Secure
Utilize accurate stream : Yes
Defeat audio cache : Yes
Make use of C2 pointers : No

Read offset correction : 6
Overread into Lead-In and Lead-Out : No
Fill up missing offset samples with silence : Yes
Delete leading and trailing silent blocks : No
Null samples used in CRC calculations : Yes
Used interface : Native Win32 interface for Win NT & 2000
Gap handling : Left out

Used output format : Internal WAV Routines
Sample format : 44.100 Hz; 16 Bit; Stereo


TOC of the extracted CD

Track | Start | Length | Start sector | End sector
––––––––––––––––––––––––––––-
1 | 0:00.00 | 3:29.23 | 0 | 15697
2 | 3:29.23 | 3:15.65 | 15698 | 30387
3 | 6:45.13 | 3:27.41 | 30388 | 45953
4 | 10:12.54 | 3:09.47 | 45954 | 60175
5 | 13:22.26 | 3:46.37 | 60176 | 77162
6 | 17:08.63 | 3:00.45 | 77163 | 90707
7 | 20:09.33 | 3:47.52 | 90708 | 107784
8 | 23:57.10 | 3:09.44 | 107785 | 122003
9 | 27:06.54 | 3:18.19 | 122004 | 136872
10 | 30:24.73 | 3:49.47 | 136873 | 154094
11 | 34:14.45 | 3:38.15 | 154095 | 170459
12 | 37:52.60 | 3:21.51 | 170460 | 185585


Track 1

Filename E:\Ripped Albums\Lawson Rollins-3 Minutes To Midnight-2017\01-3 Minutes To Midnight.wav

Pre-gap length 0:00:02.00

Peak level 100.0 %
Extraction speed 2.6 X
Track quality 100.0 %
Test CRC 7F374BAB
Copy CRC 7F374BAB
Accurately ripped (confidence 1) [43CA8696] (AR v2)
Copy OK

Track 2

Filename E:\Ripped Albums\Lawson Rollins-3 Minutes To Midnight-2017\02-Light The Way.wav

Peak level 100.0 %
Extraction speed 0.9 X
Track quality 99.9 %
Test CRC 1C414DF1
Copy CRC 1C414DF1
Accurately ripped (confidence 1) [7D6F2A39] (AR v2)
Copy OK

Track 3

Filename E:\Ripped Albums\Lawson Rollins-3 Minutes To Midnight-2017\03-Island Time.wav

Peak level 100.0 %
Extraction speed 1.2 X
Track quality 100.0 %
Test CRC 582AC55E
Copy CRC 582AC55E
Accurately ripped (confidence 1) [92ED6848] (AR v2)
Copy OK

Track 4

Filename E:\Ripped Albums\Lawson Rollins-3 Minutes To Midnight-2017\04-Sway.wav

Peak level 100.0 %
Extraction speed 1.2 X
Track quality 100.0 %
Test CRC A890C52A
Copy CRC A890C52A
Accurately ripped (confidence 1) [03A6A3E4] (AR v2)
Copy OK

Track 5

Filename E:\Ripped Albums\Lawson Rollins-3 Minutes To Midnight-2017\05-Driving Force.wav

Peak level 100.0 %
Extraction speed 1.4 X
Track quality 100.0 %
Test CRC 0DB012E4
Copy CRC 0DB012E4
Accurately ripped (confidence 1) [D9BFF15C] (AR v2)
Copy OK

Track 6

Filename E:\Ripped Albums\Lawson Rollins-3 Minutes To Midnight-2017\06-Southbound.wav

Peak level 100.0 %
Extraction speed 1.2 X
Track quality 99.9 %
Test CRC 0880B312
Copy CRC 0880B312
Accurately ripped (confidence 1) [1E60E99A] (AR v2)
Copy OK

Track 7

Filename E:\Ripped Albums\Lawson Rollins-3 Minutes To Midnight-2017\07-Stringdance.wav

Peak level 100.0 %
Extraction speed 1.5 X
Track quality 100.0 %
Test CRC AABBF67E
Copy CRC AABBF67E
Accurately ripped (confidence 1) [F8F484D7] (AR v2)
Copy OK

Track 8

Filename E:\Ripped Albums\Lawson Rollins-3 Minutes To Midnight-2017\08-Time Shift.wav

Peak level 100.0 %
Extraction speed 1.3 X
Track quality 99.9 %
Test CRC 65FEA861
Copy CRC 65FEA861
Accurately ripped (confidence 1) [5928753D] (AR v2)
Copy OK

Track 9

Filename E:\Ripped Albums\Lawson Rollins-3 Minutes To Midnight-2017\09-Reveal.wav

Peak level 100.0 %
Extraction speed 1.6 X
Track quality 100.0 %
Test CRC 87305640
Copy CRC 87305640
Accurately ripped (confidence 1) [280685A8] (AR v2)
Copy OK

Track 10

Filename E:\Ripped Albums\Lawson Rollins-3 Minutes To Midnight-2017\10-Split Second.wav

Peak level 100.0 %
Extraction speed 1.7 X
Track quality 100.0 %
Test CRC AAB1AD80
Copy CRC AAB1AD80
Accurately ripped (confidence 1) [20F26BDA] (AR v2)
Copy OK

Track 11

Filename E:\Ripped Albums\Lawson Rollins-3 Minutes To Midnight-2017\11-Eternal.wav

Peak level 97.0 %
Extraction speed 1.8 X
Track quality 100.0 %
Test CRC 7A9E4189
Copy CRC 7A9E4189
Accurately ripped (confidence 1) [5617725E] (AR v2)
Copy OK

Track 12

Filename E:\Ripped Albums\Lawson Rollins-3 Minutes To Midnight-2017\12-Mary's Rock.wav

Peak level 97.5 %
Extraction speed 1.8 X
Track quality 100.0 %
Test CRC 41BA24E8
Copy CRC 41BA24E8
Accurately ripped (confidence 1) [DC7455E8] (AR v2)
Copy OK


All tracks accurately ripped

No errors occurred

End of status report

–– CUETools DB Plugin V2.1.6

[CTDB TOCID: ERMsdPeSgp0YLdZwDE.kW8lrs4g-] found
Submit result: ERMsdPeSgp0YLdZwDE.kW8lrs4g- has been confirmed
Track | CTDB Status
1 | (2/2) Accurately ripped
2 | (2/2) Accurately ripped
3 | (2/2) Accurately ripped
4 | (2/2) Accurately ripped
5 | (2/2) Accurately ripped
6 | (2/2) Accurately ripped
7 | (2/2) Accurately ripped
8 | (2/2) Accurately ripped
9 | (2/2) Accurately ripped
10 | (2/2) Accurately ripped
11 | (2/2) Accurately ripped
12 | (2/2) Accurately ripped


==== Log checksum 48FD5D138A35CA9D987794E04D209C3DA8604BD82F94A2A2FE2C794A437FB696 ====

Thanks to the Original ripper mongoose !