Subcategories

Lee Morgan - Delightfulee (1966) {Blue Note Japan SHM-CD UCCQ-5073 rel 2014} (24-192 remaster)

Posted By: ruskaval
Lee Morgan - Delightfulee (1966) {Blue Note Japan SHM-CD UCCQ-5073 rel 2014} (24-192 remaster)

Lee Morgan - Delightfulee (1966) {Blue Note Japan SHM-CD UCCQ-5073 rel 2014} (24-192 remaster)
EAC rip (secure mode) | FLAC (tracks)+CUE+LOG -> 469 Mb | MP3 @320 -> 161 Mb
Full Artwork @ 600 dpi (png) -> 228 Mb | 5% repair rar | 24-bit 192 kHz remaster
© 1966, 2014 Universal Japan / Blue Note | BN 75th The Masterworks | UCCQ-5073
Jazz / Hard Bop / Soul Jazz / Trumpet

Features SHM-CD format and the latest 24bit 192kHz remastering. As Lee Morgan's career moved from hard and post-bop to soul-jazz, Delightfulee serves as a further bridge in a half-and-half fashion. Four of the seven cuts feature his potent quintet with a young and emerging tenor saxophonist, Joe Henderson, as his front line mate, McCoy Tyner ever brilliant on piano, and Billy Higgins firing up the rhythm as only the drummer could. The remainder of the date consists of tracks orchestrated by Oliver Nelson featuring an 11-piece ensemble. There are two selections that feature versions of compositions with both configurations.
Lee Morgan - Delightfulee (1966) {Blue Note Japan SHM-CD UCCQ-5073 rel 2014} (24-192 remaster)

"Zambia" is a post-bop classic in Morgan's repertoire, sporting a memorable, concise, no-nonsense melody line punctuated by Tyner's piano chords, but in big-band style, it is full and rich, maybe too much so. The easy, deep waltz "Delightful Deggie," may benefit from the orchestration. Wayne Shorter is the featured tenor on the larger group tracks, while saxophonists Danny Bank and Phil Woods (both doubling on flute, a rarity for Woods),trombonist Tom McIntosh, tuba player Don Butterfield,and French Horn icon James Buffington supply the depth. The drummer for the big-and cuts is Philly Joe Jones, and again, is quite a contrast to the smoother Higgins. Of the small ensemble cuts, the fun calypso boogaloo "Ca-Lee-So" is a postscript for Morgan's big hit "The Sidewinder," recorded three years prior. Tyner strokes out kinetic forms during "Nite Flite," and dips into deep blues for "Deggie." Morgan and Henderson's solos are always spot on. The best big-band track, "Sunrise, Sunset" from Fiddler on the Roof, is extremely hip and features a relaxed Shorter, while the worst, a somber samba take on the Beatles' "Yesterday," seems a throwaway. For some this will always be an oddball release of Morgan's, but it does suggest moving on into what would be a fruitful and successful final five years.
Lee Morgan - Delightfulee (1966) {Blue Note Japan SHM-CD UCCQ-5073 rel 2014} (24-192 remaster)


Personnel:
[1, 2, 5, 6]
Lee Morgan - trumpet)
Joe Henderson - tenor sax
McCoy Tyner - piano
Bob Cranshaw - bass
Billy Higgins - drums

[3, 4, 7~10]
Lee Morgan - trumpet
Ernie Royal - trumpet
Tom McIntosh - trombone
Jim Buffington - french horn
Don Butterfield - tuba
Phil Woods - alto sax, flute
Wayne Shorter - tenor sax
Danny Bank - baritone sax , bass clarinet, flute
McCoy Tyner - piano
Bob Cranshaw - bass
Philly Joe Jones - drums
Oliver Nelson - arranger, conductor

tracklist:
01 - Ca-Lee-So
02 - Zambia
03 - Yesterday
04 - Sunrise Sunset
05 - Nite Flite
06 - The Delightful Deggie
07 - Need I (bonus track)
08 - Filet Of Soul (Hoppin' John) (bonus track)
09 - Zambia (Big Band Version) (bonus track)
10 - The Delightful Deggie (Big Band Version) (bonus track)

Exact Audio Copy V1.0 beta 4 from 7. December 2014

EAC extraction logfile from 28. February 2015, 14:32

Lee Morgan / Delightfulee

Used drive : TSSTcorpCDDVDW SE-208DB Adapter: 1 ID: 1

Read mode : Secure
Utilize accurate stream : Yes
Defeat audio cache : Yes
Make use of C2 pointers : No

Read offset correction : 6
Overread into Lead-In and Lead-Out : No
Fill up missing offset samples with silence : Yes
Delete leading and trailing silent blocks : No
Null samples used in CRC calculations : Yes
Used interface : Native Win32 interface for Win NT & 2000
Gap handling : Appended to previous track

Used output format : User Defined Encoder
Selected bitrate : 1024 kBit/s
Quality : High
Add ID3 tag : No
Command line compressor : C:\Program Files (x86)\FLAC Frontend\tools\flac.exe
Additional command line options : -8 -V -T "ARTIST=%artist%" -T "TITLE=%title%" -T "ALBUM=%albumtitle%" -T "DATE=%year%" -T "TRACKNUMBER=%tracknr%" -T "TOTALTRACKS=%numtracks%" -T "GENRE=%genre%" -T "ALBUMARTIST=%albumartist%" -T "ALBUM ARTIST=%albumartist%" -T "COMMENT=EAC Secure Mode, Test & Copy, AccurateRip, FLAC -8" %source%


TOC of the extracted CD

Track | Start | Length | Start sector | End sector
––––––––––––––––––––––––––––-
1 | 0:00.00 | 5:35.57 | 0 | 25181
2 | 5:35.57 | 6:34.08 | 25182 | 54739
3 | 12:09.65 | 5:50.18 | 54740 | 81007
4 | 18:00.08 | 6:18.58 | 81008 | 109415
5 | 24:18.66 | 7:39.23 | 109416 | 143863
6 | 31:58.14 | 6:38.27 | 143864 | 173740
7 | 38:36.41 | 7:11.50 | 173741 | 206115
8 | 45:48.16 | 8:30.00 | 206116 | 244365
9 | 54:18.16 | 8:03.33 | 244366 | 280623
10 | 62:21.49 | 5:48.13 | 280624 | 306736


Track 1

Filename D:\_EAC\Lee Morgan - Delightfulee (1966) {2014 Japan SHM-CD Blue Note 24-192 Remaster}\01 - Ca-Lee-So.wav

Pre-gap length 0:00:02.00

Peak level 98.3 %
Extraction speed 1.1 X
Track quality 100.0 %
Test CRC 9715319E
Copy CRC 9715319E
Track not present in AccurateRip database
Copy OK

Track 2

Filename D:\_EAC\Lee Morgan - Delightfulee (1966) {2014 Japan SHM-CD Blue Note 24-192 Remaster}\02 - Zambia.wav

Pre-gap length 0:00:02.28

Peak level 98.9 %
Extraction speed 1.3 X
Track quality 100.0 %
Test CRC DBF97F11
Copy CRC DBF97F11
Track not present in AccurateRip database
Copy OK

Track 3

Filename D:\_EAC\Lee Morgan - Delightfulee (1966) {2014 Japan SHM-CD Blue Note 24-192 Remaster}\03 - Yesterday.wav

Pre-gap length 0:00:02.28

Peak level 98.1 %
Extraction speed 1.3 X
Track quality 99.9 %
Test CRC 15921730
Copy CRC 15921730
Track not present in AccurateRip database
Copy OK

Track 4

Filename D:\_EAC\Lee Morgan - Delightfulee (1966) {2014 Japan SHM-CD Blue Note 24-192 Remaster}\04 - Sunrise Sunset.wav

Pre-gap length 0:00:02.43

Peak level 97.8 %
Extraction speed 1.5 X
Track quality 100.0 %
Test CRC 0958063A
Copy CRC 0958063A
Track not present in AccurateRip database
Copy OK

Track 5

Filename D:\_EAC\Lee Morgan - Delightfulee (1966) {2014 Japan SHM-CD Blue Note 24-192 Remaster}\05 - Nite Flite.wav

Pre-gap length 0:00:02.28

Peak level 97.8 %
Extraction speed 1.7 X
Track quality 100.0 %
Test CRC BE95FD31
Copy CRC BE95FD31
Track not present in AccurateRip database
Copy OK

Track 6

Filename D:\_EAC\Lee Morgan - Delightfulee (1966) {2014 Japan SHM-CD Blue Note 24-192 Remaster}\06 - The Delightful Deggie.wav

Pre-gap length 0:00:02.28

Peak level 97.2 %
Extraction speed 1.7 X
Track quality 100.0 %
Test CRC FB70F9D7
Copy CRC FB70F9D7
Track not present in AccurateRip database
Copy OK

Track 7

Filename D:\_EAC\Lee Morgan - Delightfulee (1966) {2014 Japan SHM-CD Blue Note 24-192 Remaster}\07 - Need I (bonus track).wav

Pre-gap length 0:00:02.73

Peak level 95.7 %
Extraction speed 1.9 X
Track quality 100.0 %
Test CRC 7CE32B0F
Copy CRC 7CE32B0F
Track not present in AccurateRip database
Copy OK

Track 8

Filename D:\_EAC\Lee Morgan - Delightfulee (1966) {2014 Japan SHM-CD Blue Note 24-192 Remaster}\08 - Filet Of Soul (Hoppin' John) (bonus track).wav

Pre-gap length 0:00:02.43

Peak level 94.2 %
Extraction speed 2.0 X
Track quality 100.0 %
Test CRC 588F543B
Copy CRC 588F543B
Track not present in AccurateRip database
Copy OK

Track 9

Filename D:\_EAC\Lee Morgan - Delightfulee (1966) {2014 Japan SHM-CD Blue Note 24-192 Remaster}\09 - Zambia (Big Band Version) (bonus track).wav

Pre-gap length 0:00:02.43

Peak level 93.5 %
Extraction speed 2.1 X
Track quality 100.0 %
Test CRC 2C2429C0
Copy CRC 2C2429C0
Track not present in AccurateRip database
Copy OK

Track 10

Filename D:\_EAC\Lee Morgan - Delightfulee (1966) {2014 Japan SHM-CD Blue Note 24-192 Remaster}\10 - The Delightful Deggie (Big Band Version) (bonus track).wav

Pre-gap length 0:00:02.43

Peak level 96.0 %
Extraction speed 2.0 X
Track quality 100.0 %
Test CRC 3E1B279D
Copy CRC 3E1B279D
Track not present in AccurateRip database
Copy OK


None of the tracks are present in the AccurateRip database

No errors occurred

End of status report

==== Log checksum EB002BC90CDB7A94CE010A658A4F287178F6ACCB8C3CE18771377609ABCB18D1 ====


Lee Morgan - Delightfulee (1966) {Blue Note Japan SHM-CD UCCQ-5073 rel 2014} (24-192 remaster)

Lee Morgan - Delightfulee (1966) {Blue Note Japan SHM-CD UCCQ-5073 rel 2014} (24-192 remaster)


see more Blue Note Japan 75th Anniversary The Masterworks…


===