Subcategories

Lee Morgan - Search For The New Land (1964) {Blue Note Japan SHM-CD UCCQ-5106 rel 2015} (24-192 remaster)

Posted By: ruskaval
Lee Morgan - Search For The New Land (1964) {Blue Note Japan SHM-CD UCCQ-5106 rel 2015} (24-192 remaster)

Lee Morgan - Search For The New Land (1964) {Blue Note Japan SHM-CD UCCQ-5106 rel 2015} (24-192 remaster)
EAC rip (secure mode) | FLAC (tracks)+CUE+LOG -> 281 Mb | MP3 @320 -> 100 Mb
Full Artwork @ 600 dpi (png) -> 168 Mb | 5% repair rar | 24-bit 192 kHz remaster
© 1964, 2015 Universal Japan / Blue Note | BN 75th The Masterworks | UCCQ-5106
Jazz / Hard Bop / Trumpet

Features the high-fidelity SHM-CD format (compatible with standard CD player) and the latest 24bit 192kHz remastering. A brilliant album that proves that even at the height of his success, Lee Morgan was one of the freest thinkers on Blue Note – always coming up with fresh ideas that continued to grow his talents! The first cut on the album is keep roof of that fact – the title track "Search For The New Land" – a beautiful 16 minute exploration of modal jazz themes, with an unusual stop/start device as a means of ushering solos by different bandmates – including Wayne Shorter on tenor, Grant Green on guitar, and Herbie Hancock on piano!
Lee Morgan - Search For The New Land (1964) {Blue Note Japan SHM-CD UCCQ-5106 rel 2015} (24-192 remaster)

The approach is unlike anything that Morgan ever did before – and unlike most of other Blue Note as well – and it also benefits from great rhythmic help from Reggie Workman on bass and Billy Higgins on drums. Other tunes are a bit more conventional, but still pretty special – like some of Morgan's inventive work on the Rajah albums – with titles that include "The Joker", "Melancholee", "Mr. Kenyatta" and "Morgan The Pirate".
Lee Morgan - Search For The New Land (1964) {Blue Note Japan SHM-CD UCCQ-5106 rel 2015} (24-192 remaster)


Personnel:
Lee Morgan – trumpet
Wayne Shorter – tenor sax
Herbie Hancock – piano
Grant Green – guitar
Reginald Workman – bass
Billy Higgins – drums

tracklist:
01 - Search For The New Land
02 - The Joker
03 - Mr. Kenyatta
04 - Melancholee
05 - Morgan The Pirate

Exact Audio Copy V1.0 beta 4 from 7. December 2014

EAC extraction logfile from 21. April 2015, 18:58

Lee Morgan / Search For The New Land

Used drive : TSSTcorpCDDVDW SE-208DB Adapter: 1 ID: 1

Read mode : Secure
Utilize accurate stream : Yes
Defeat audio cache : Yes
Make use of C2 pointers : No

Read offset correction : 6
Overread into Lead-In and Lead-Out : No
Fill up missing offset samples with silence : Yes
Delete leading and trailing silent blocks : No
Null samples used in CRC calculations : Yes
Used interface : Native Win32 interface for Win NT & 2000
Gap handling : Appended to previous track

Used output format : User Defined Encoder
Selected bitrate : 1024 kBit/s
Quality : High
Add ID3 tag : No
Command line compressor : C:\Program Files (x86)\FLAC Frontend\tools\flac.exe
Additional command line options : -8 -V -T "ARTIST=%artist%" -T "TITLE=%title%" -T "ALBUM=%albumtitle%" -T "DATE=%year%" -T "TRACKNUMBER=%tracknr%" -T "TOTALTRACKS=%numtracks%" -T "GENRE=%genre%" -T "ALBUMARTIST=%albumartist%" -T "ALBUM ARTIST=%albumartist%" -T "COMMENT=EAC Secure Mode, Test & Copy, AccurateRip, FLAC -8" %source%


TOC of the extracted CD

Track | Start | Length | Start sector | End sector
––––––––––––––––––––––––––––-
1 | 0:00.00 | 15:49.05 | 0 | 71179
2 | 15:49.05 | 5:06.73 | 71180 | 94202
3 | 20:56.03 | 8:46.43 | 94203 | 133695
4 | 29:42.46 | 6:17.33 | 133696 | 162003
5 | 36:00.04 | 6:28.31 | 162004 | 191134


Track 1

Filename D:\_EAC\Lee Morgan - Search For The New Land (1964) [FLAC] {2015 Japan SHM-CD Blue Note 24-192 Remaster}\01 - Search For The New Land.wav

Pre-gap length 0:00:02.00

Peak level 97.8 %
Extraction speed 1.5 X
Track quality 100.0 %
Test CRC 51A869AA
Copy CRC 51A869AA
Track not present in AccurateRip database
Copy OK

Track 2

Filename D:\_EAC\Lee Morgan - Search For The New Land (1964) [FLAC] {2015 Japan SHM-CD Blue Note 24-192 Remaster}\02 - The Joker.wav

Pre-gap length 0:00:02.28

Peak level 97.8 %
Extraction speed 1.7 X
Track quality 100.0 %
Test CRC 5117A74F
Copy CRC 5117A74F
Track not present in AccurateRip database
Copy OK

Track 3

Filename D:\_EAC\Lee Morgan - Search For The New Land (1964) [FLAC] {2015 Japan SHM-CD Blue Note 24-192 Remaster}\03 - Mr. Kenyatta.wav

Pre-gap length 0:00:02.43

Peak level 97.9 %
Extraction speed 1.9 X
Track quality 100.0 %
Test CRC B30FC40A
Copy CRC B30FC40A
Track not present in AccurateRip database
Copy OK

Track 4

Filename D:\_EAC\Lee Morgan - Search For The New Land (1964) [FLAC] {2015 Japan SHM-CD Blue Note 24-192 Remaster}\04 - Melancholee.wav

Pre-gap length 0:00:02.28

Peak level 97.3 %
Extraction speed 2.0 X
Track quality 100.0 %
Test CRC 21FF529D
Copy CRC 21FF529D
Track not present in AccurateRip database
Copy OK

Track 5

Filename D:\_EAC\Lee Morgan - Search For The New Land (1964) [FLAC] {2015 Japan SHM-CD Blue Note 24-192 Remaster}\05 - Morgan The Pirate.wav

Pre-gap length 0:00:02.28

Peak level 97.4 %
Extraction speed 2.0 X
Track quality 99.9 %
Test CRC 1E5C0C2A
Copy CRC 1E5C0C2A
Track not present in AccurateRip database
Copy OK


None of the tracks are present in the AccurateRip database

No errors occurred

End of status report

==== Log checksum A8FDD045B5911B8BEF9E34EB2AB30DBA7977F5920DEE7B8E11B8E03DFC5B8A3A ====


Lee Morgan - Search For The New Land (1964) {Blue Note Japan SHM-CD UCCQ-5106 rel 2015} (24-192 remaster)

Lee Morgan - Search For The New Land (1964) {Blue Note Japan SHM-CD UCCQ-5106 rel 2015} (24-192 remaster)


see more Blue Note Japan 75th Anniversary The Masterworks…


===