Subcategories

Lenny McBrowne And The 4 Souls - Complete Recordings (1960) {2CD Set, Fresh Sound FSR-CD614 rel 2010}

Posted By: ruskaval
Lenny McBrowne And The 4 Souls - Complete Recordings (1960) {2CD Set, Fresh Sound FSR-CD614 rel 2010}

Lenny McBrowne And The 4 Souls - Complete Recordings (1960) {2CD Set, Fresh Sound FSR-CD614 rel 2010}
EAC rip (secure mode) | FLAC (tracks)+CUE+LOG -> 530 Mb | MP3 @320 -> 215 Mb
Full Artwork @ 300 dpi (jpg) -> 10 Mb | 5% repair rar
© 1960, 2010 Fresh Sound Records / Pacific Jazz / Riverside | FSR-CD 614
Jazz / Hard Bop / Bop / Drums

When Lenny McBrowne and the 4 Souls began gigging in Sacramento and San Francisco clubs they were critically hailed as the greatest promise for the future of West Coast jazz. The leader had gained much of his experience working with Harold Land and playing engagements with Sonny Rollins, Benny Golson and Curtis Fuller. His renowned finesse as a drummer was acquired while mastering the subtleties of his mentor, Max Roach. In these sessions for Pacific Jazz and Riverside, he showed he had become one of the top drummers on the jazz scene, and his young musicians—average age 25—swing hard as a unit. Terry Trotter, Don Sleet and Daniel Jackson are here on top of the demands he placed on them.
Lenny McBrowne And The 4 Souls - Complete Recordings (1960) {2CD Set, Fresh Sound FSR-CD614 rel 2010}

They also gave singer Gloria Smyth strong support in the session she recorded with them, lending distinctive backing to launch the career of this fine young talent. But what stands out here above all is the rare gift of cohesion, thoroughly mastered by Lenny McBrowne and the 4 Souls.
Lenny McBrowne And The 4 Souls - Complete Recordings (1960) {2CD Set, Fresh Sound FSR-CD614 rel 2010}


Tracklist & Personnel:

CD 1

01. Soul Sisters
02. Invitation
03. Dearly Beloved
04. Lazinka’s Tune
05. Cerise
06. I Married an Angel
07. McBrowne’s Galaxy
08. It Don’t Mean a Thing
09. Sometimes I’m Happy
10. Running Wild
11. Sometimes I Feel Like a Motherless Child

CD 2
01. Saudi
02. No Consideration
03. I Don’t Know the Melody
04. Like Someone in Love
05. Eastern Lights
06. Even Dozen
07. Tryin’ and Cryin’
08. Chicago Preferred

Sources:
CD 1:

Tracks #1-7 originally issued in LP as
"Lenny McBrowne and the Four Souls" (Pacific Jazz ST-1)

Tracks #8-11 taken from the Gloria Smyth
album "Like Soul!" (World Pacific Stereo-1293).

CD 2:
Tracks #1-8 originally issued in LP as
"Eastern Lights" (Riverside RS 346).

Lenny McBrowne (d), Donald Sleet (tp), Daniel Jackson (ts), Terry Trotter (p), Herbie Lewis (b on CD-1), Jimmy Bond (b on CD-2). Gloria Smyth (vcl on CD-1 #8-11).

CD 1, Track #11 features only Gloria Smyth accompanied by Terry Trotter and Herbie Lewis.

CD 1, Recorded at Rex Productions Studio, Los Angeles, January 2, and March 21 (#8-11), 1960.
CD 2, Recorded at United Recording Studios, Hollywood, on October 13, 1960.
Sessions supervised by Dick Bock (CD 1) and Orrin Keepnews (CD 2)
This compilation produced for CD reissue by Jordi Pujol.
24-Bit Digitally Remastered


Exact Audio Copy V1.0 beta 3 from 29. August 2011

EAC extraction logfile from 3. March 2015, 20:54

Lenny McBrowne / Complete Recordings

Used drive : SONY DVD RW DRU-810A Adapter: 1 ID: 0

Read mode : Secure
Utilize accurate stream : Yes
Defeat audio cache : Yes
Make use of C2 pointers : No

Read offset correction : 618
Overread into Lead-In and Lead-Out : No
Fill up missing offset samples with silence : Yes
Delete leading and trailing silent blocks : No
Null samples used in CRC calculations : Yes
Used interface : Native Win32 interface for Win NT & 2000
Gap handling : Appended to previous track

Used output format : User Defined Encoder
Selected bitrate : 128 kBit/s
Quality : High
Add ID3 tag : No
Command line compressor : C:\Program Files (x86)\Exact Audio Copy\Flac\flac.exe
Additional command line options : -8 -V -T "ARTIST=%artist%" -T "TITLE=%title%" -T "ALBUM=%albumtitle%" -T "DATE=%year%" -T "TRACKNUMBER=%tracknr%" -T "TOTALTRACKS=%numtracks%" -T "GENRE=%genre%" -T "ALBUMARTIST=%albumartist%" -T "ALBUM ARTIST=%albumartist%" -T "COMMENT=EAC Secure Mode, Test & Copy, AccurateRip, FLAC -8" %source%


TOC of the extracted CD

Track | Start | Length | Start sector | End sector
––––––––––––––––––––––––––––-
1 | 0:00.00 | 6:27.24 | 0 | 29048
2 | 6:27.24 | 6:30.26 | 29049 | 58324
3 | 12:57.50 | 4:51.00 | 58325 | 80149
4 | 17:48.50 | 6:27.63 | 80150 | 109237
5 | 24:16.38 | 5:44.25 | 109238 | 135062
6 | 30:00.63 | 2:49.04 | 135063 | 147741
7 | 32:49.67 | 4:04.00 | 147742 | 166041
8 | 36:53.67 | 2:32.28 | 166042 | 177469
9 | 39:26.20 | 3:29.60 | 177470 | 193204
10 | 42:56.05 | 2:14.07 | 193205 | 203261
11 | 45:10.12 | 2:02.37 | 203262 | 212448


Track 1

Filename F:\New Rips\Lenny McBrowne - Complete Recordings (2010) [FLAC]\disc 1of2\01 - Soul Sisters.wav

Pre-gap length 0:00:02.00

Peak level 76.0 %
Extraction speed 1.5 X
Track quality 100.0 %
Test CRC 718DAE53
Copy CRC 718DAE53
Track not present in AccurateRip database
Copy OK

Track 2

Filename F:\New Rips\Lenny McBrowne - Complete Recordings (2010) [FLAC]\disc 1of2\02 - Invitation.wav

Pre-gap length 0:00:02.00

Peak level 71.8 %
Extraction speed 1.8 X
Track quality 100.0 %
Test CRC B3EBC02F
Copy CRC B3EBC02F
Track not present in AccurateRip database
Copy OK

Track 3

Filename F:\New Rips\Lenny McBrowne - Complete Recordings (2010) [FLAC]\disc 1of2\03 - Dearly Belovd.wav

Pre-gap length 0:00:02.00

Peak level 65.5 %
Extraction speed 1.9 X
Track quality 100.0 %
Test CRC 98F1B7CE
Copy CRC 98F1B7CE
Track not present in AccurateRip database
Copy OK

Track 4

Filename F:\New Rips\Lenny McBrowne - Complete Recordings (2010) [FLAC]\disc 1of2\04 - Lazinka's Tune.wav

Pre-gap length 0:00:02.00

Peak level 69.3 %
Extraction speed 2.1 X
Track quality 100.0 %
Test CRC EC729AB7
Copy CRC EC729AB7
Track not present in AccurateRip database
Copy OK

Track 5

Filename F:\New Rips\Lenny McBrowne - Complete Recordings (2010) [FLAC]\disc 1of2\05 - Cerise.wav

Pre-gap length 0:00:02.00

Peak level 66.8 %
Extraction speed 2.2 X
Track quality 100.0 %
Test CRC 1E8C8E98
Copy CRC 1E8C8E98
Track not present in AccurateRip database
Copy OK

Track 6

Filename F:\New Rips\Lenny McBrowne - Complete Recordings (2010) [FLAC]\disc 1of2\06 - I Married An Angel.wav

Pre-gap length 0:00:02.00

Peak level 61.6 %
Extraction speed 2.1 X
Track quality 100.0 %
Test CRC 2840A53C
Copy CRC 2840A53C
Track not present in AccurateRip database
Copy OK

Track 7

Filename F:\New Rips\Lenny McBrowne - Complete Recordings (2010) [FLAC]\disc 1of2\07 - McBrowne's Galaxy.wav

Pre-gap length 0:00:02.00

Peak level 64.4 %
Extraction speed 2.1 X
Track quality 99.9 %
Test CRC 261D509F
Copy CRC 261D509F
Track not present in AccurateRip database
Copy OK

Track 8

Filename F:\New Rips\Lenny McBrowne - Complete Recordings (2010) [FLAC]\disc 1of2\08 - It Don't Mean A Thing.wav

Pre-gap length 0:00:02.00

Peak level 87.3 %
Extraction speed 1.9 X
Track quality 99.9 %
Test CRC 78011501
Copy CRC 78011501
Track not present in AccurateRip database
Copy OK

Track 9

Filename F:\New Rips\Lenny McBrowne - Complete Recordings (2010) [FLAC]\disc 1of2\09 - Sometimes I'm Happy.wav

Pre-gap length 0:00:02.00

Peak level 77.8 %
Extraction speed 2.1 X
Track quality 99.9 %
Test CRC 8EC5ED9A
Copy CRC 8EC5ED9A
Track not present in AccurateRip database
Copy OK

Track 10

Filename F:\New Rips\Lenny McBrowne - Complete Recordings (2010) [FLAC]\disc 1of2\10 - Running Wild.wav

Pre-gap length 0:00:02.00

Peak level 93.9 %
Extraction speed 1.9 X
Track quality 99.9 %
Test CRC ED23AFBD
Copy CRC ED23AFBD
Track not present in AccurateRip database
Copy OK

Track 11

Filename F:\New Rips\Lenny McBrowne - Complete Recordings (2010) [FLAC]\disc 1of2\11 - Sometimes I Feel Like A Motherless Child.wav

Pre-gap length 0:00:02.00

Peak level 70.4 %
Extraction speed 1.8 X
Track quality 99.9 %
Test CRC CD58D59B
Copy CRC CD58D59B
Track not present in AccurateRip database
Copy OK


None of the tracks are present in the AccurateRip database

No errors occurred

End of status report

–– CUETools DB Plugin V2.1.3

[CTDB TOCID: vYwrKyMyiDmE659B3L0AVMHXxxg-] disk not present in database, Submit result: vYwrKyMyiDmE659B3L0AVMHXxxg- has been uploaded


==== Log checksum C5B78CEC72BCBD825A118C396C7525142BDDE4DE43E1B2F76CB97DB975AC6106 ====

Exact Audio Copy V1.0 beta 3 from 29. August 2011

EAC extraction logfile from 4. March 2015, 8:46

Lenny McBrowne / Complete Recordings

Used drive : SONY DVD RW DRU-810A Adapter: 1 ID: 0

Read mode : Secure
Utilize accurate stream : Yes
Defeat audio cache : Yes
Make use of C2 pointers : No

Read offset correction : 618
Overread into Lead-In and Lead-Out : No
Fill up missing offset samples with silence : Yes
Delete leading and trailing silent blocks : No
Null samples used in CRC calculations : Yes
Used interface : Native Win32 interface for Win NT & 2000
Gap handling : Appended to previous track

Used output format : User Defined Encoder
Selected bitrate : 128 kBit/s
Quality : High
Add ID3 tag : No
Command line compressor : C:\Program Files (x86)\Exact Audio Copy\Flac\flac.exe
Additional command line options : -8 -V -T "ARTIST=%artist%" -T "TITLE=%title%" -T "ALBUM=%albumtitle%" -T "DATE=%year%" -T "TRACKNUMBER=%tracknr%" -T "TOTALTRACKS=%numtracks%" -T "GENRE=%genre%" -T "ALBUMARTIST=%albumartist%" -T "ALBUM ARTIST=%albumartist%" -T "COMMENT=EAC Secure Mode, Test & Copy, AccurateRip, FLAC -8" %source%


TOC of the extracted CD

Track | Start | Length | Start sector | End sector
––––––––––––––––––––––––––––-
1 | 0:00.00 | 4:32.14 | 0 | 20413
2 | 4:32.14 | 5:45.16 | 20414 | 46304
3 | 10:17.30 | 6:15.16 | 46305 | 74445
4 | 16:32.46 | 5:27.33 | 74446 | 99003
5 | 22:00.04 | 7:41.50 | 99004 | 133628
6 | 29:41.54 | 4:16.58 | 133629 | 152886
7 | 33:58.37 | 5:02.67 | 152887 | 175603
8 | 39:01.29 | 4:39.44 | 175604 | 196572


Track 1

Filename F:\New Rips\Lenny McBrowne - Complete Recordings (2010) [FLAC]\disc 2of2\01 - Saudi.wav

Pre-gap length 0:00:02.00

Peak level 97.9 %
Extraction speed 4.9 X
Track quality 100.0 %
Test CRC 6FC66762
Copy CRC 6FC66762
Track not present in AccurateRip database
Copy OK

Track 2

Filename F:\New Rips\Lenny McBrowne - Complete Recordings (2010) [FLAC]\disc 2of2\02 - No Consideration.wav

Pre-gap length 0:00:02.00

Peak level 89.0 %
Extraction speed 5.6 X
Track quality 100.0 %
Test CRC E5581B37
Copy CRC E5581B37
Track not present in AccurateRip database
Copy OK

Track 3

Filename F:\New Rips\Lenny McBrowne - Complete Recordings (2010) [FLAC]\disc 2of2\03 - I Don't Know The Melody.wav

Pre-gap length 0:00:02.00

Peak level 100.0 %
Extraction speed 6.2 X
Track quality 100.0 %
Test CRC 2E54BABD
Copy CRC 2E54BABD
Track not present in AccurateRip database
Copy OK

Track 4

Filename F:\New Rips\Lenny McBrowne - Complete Recordings (2010) [FLAC]\disc 2of2\04 - Like Someone In Love.wav

Pre-gap length 0:00:02.00

Peak level 78.7 %
Extraction speed 6.6 X
Track quality 100.0 %
Test CRC 8787912A
Copy CRC 8787912A
Track not present in AccurateRip database
Copy OK

Track 5

Filename F:\New Rips\Lenny McBrowne - Complete Recordings (2010) [FLAC]\disc 2of2\05 - Eastern Lights.wav

Pre-gap length 0:00:02.00

Peak level 98.6 %
Extraction speed 7.4 X
Track quality 100.0 %
Test CRC 48A73C29
Copy CRC 48A73C29
Track not present in AccurateRip database
Copy OK

Track 6

Filename F:\New Rips\Lenny McBrowne - Complete Recordings (2010) [FLAC]\disc 2of2\06 - Even Dozen.wav

Pre-gap length 0:00:02.00

Peak level 100.0 %
Extraction speed 7.3 X
Track quality 100.0 %
Test CRC 2FD8F262
Copy CRC 2FD8F262
Track not present in AccurateRip database
Copy OK

Track 7

Filename F:\New Rips\Lenny McBrowne - Complete Recordings (2010) [FLAC]\disc 2of2\07 - Tryin' And Cryin'.wav

Pre-gap length 0:00:02.00

Peak level 67.0 %
Extraction speed 7.8 X
Track quality 100.0 %
Test CRC E8BA49D8
Copy CRC E8BA49D8
Track not present in AccurateRip database
Copy OK

Track 8

Filename F:\New Rips\Lenny McBrowne - Complete Recordings (2010) [FLAC]\disc 2of2\08 - Chicago Preferred.wav

Pre-gap length 0:00:02.00

Peak level 99.9 %
Extraction speed 7.9 X
Track quality 100.0 %
Test CRC A32DBB97
Copy CRC A32DBB97
Track not present in AccurateRip database
Copy OK


None of the tracks are present in the AccurateRip database

No errors occurred

End of status report

–– CUETools DB Plugin V2.1.3

[CTDB TOCID: S7cG4YiDoSUR9a0J6Wjfzx_cKyQ-] disk not present in database, Submit result: S7cG4YiDoSUR9a0J6Wjfzx_cKyQ- has been uploaded


==== Log checksum F952A627C81AB2007E11036AA637EB83B4BE5D1DDCD9263BF4196A506CE36700 ====


Lenny McBrowne And The 4 Souls - Complete Recordings (1960) {2CD Set, Fresh Sound FSR-CD614 rel 2010}

Lenny McBrowne And The 4 Souls - Complete Recordings (1960) {2CD Set, Fresh Sound FSR-CD614 rel 2010}

Lenny McBrowne And The 4 Souls - Complete Recordings (1960) {2CD Set, Fresh Sound FSR-CD614 rel 2010}



===