Subcategories

Leonard Bernstein, Wiener Philharmoniker - Anton Bruckner: Symphony No. 9 in D Minor (2017)

Posted By: Domestos
Leonard Bernstein, Wiener Philharmoniker - Anton Bruckner: Symphony No. 9 in D Minor (2017)

Leonard Bernstein, Wiener Philharmoniker - Anton Bruckner: Symphony No. 9 in D Minor (2017)
EAC Rip | FLAC (image+.cue, log) ~ 292.82 Mb | 01:06:08 | Scans included
Classical | Label: Deutsche Grammophon - 00289 482 8162

When Leonard Bernstein died in 1990 at the age of 72, music lovers the world over mourned the loss of one of the 20th century's artistic giants. In addition to his role as conductor, composer, educator and performing artist, Bernstein was one of the early pioneers in bringing the arts to television. As such, he became one of the most internationally recognized musical personalities in the world. He was a man who not only needed music in order to live, but who saw in artistic communication the means to touch the mind, the heart and the spirit all at once. His need to generate this communication dictated his life from the day he discovered music to the day he died. Recorded in March 1990, this performance is Leonard Bernstein's last concert with the Vienna Philharmonic, an orchestra he deeply loved.

Track List:
Symphony No. 9 in D Minor
01. I. Feierlich, Misterioso (26:59)
02. II. Scherzo. Bewegt, lebhaft - Trio. Schnell (12:14)
03. III. Adagio. Langsam, feierlich (26:57)

Leonard Bernstein, Wiener Philharmoniker - Anton Bruckner: Symphony No. 9 in D Minor (2017)

Exact Audio Copy V1.0 beta 3 from 29. August 2011

Отчёт EAC об извлечении, выполненном 6. декабря 2017, 17:32

Wiener Philharmoniker, Leonard Bernstein / Bruckner Symphony No. 9 in D Minor

Дисковод: Optiarc DVD RW AD-7280S Adapter: 5 ID: 0

Режим чтения : Достоверность
Использование точного потока : Да
Отключение кэша аудио : Да
Использование указателей C2 : Нет

Коррекция смещения при чтении : 48
Способность читать области Lead-in и Lead-out : Нет
Заполнение пропущенных сэмплов тишиной : Да
Удаление блоков с тишиной в начале и конце : Нет
При вычислениях CRC использовались нулевые сэмплы : Да
Интерфейс : Встроенный Win32-интерфейс для Win NT/2000

Выходной формат : Пользовательский кодировщик
Выбранный битрейт : 128 kBit/s
Качество : Высокий
Добавление ID3-тега : Нет
Утилита сжатия : C:\Program Files\Exact Audio Copy\Flac\flac.exe
Дополнительные параметры : -V -8 -T "Date=%year%" -T "Genre=%genre%" %source%

TOC извлечённого CD

Трек | Старт | Длительность | Начальный сектор | Конечный сектор
––––––––––––––––––––––––––––––––––-
1 | 0:00.00 | 26:58.47 | 0 | 121396
2 | 26:58.47 | 12:13.50 | 121397 | 176421
3 | 39:12.22 | 26:56.38 | 176422 | 297659

Характеристики диапазона извлечения и сообщения об ошибках

Выбранный диапазон

Имя файла C:\Documents and Settings\biotox\Рабочий стол\Новая папка\Wiener Philharmoniker, Leonard Bernstein - Bruckner Symphony No. 9 in D Minor.wav

Пиковый уровень 97.1 %
Скорость извлечения 4.3 X
Качество диапазона 100.0 %
CRC теста 2537BFAE
CRC копии 2537BFAE
Копирование… OK

Ошибок не произошло

AccurateRip: сводка

Трек 1 отсутствует в базе данных
Трек 2 отсутствует в базе данных
Трек 3 отсутствует в базе данных

Ни одного трека нет в базе AccurateRip

Конец отчёта

==== Контрольная сумма отчёта AD8B77F52C1BBF5976936B34821FE62BA26DE7D46C8139519930E5A09905551B ====

All thanks go to the biotox18

More Music in My Blog
Follow My RSS Channel