Lisa Ekdahl - Lisa Ekdahl At The Olympia, Paris (2011) [FLAC]

Posted By: Juma
Lisa Ekdahl - Lisa Ekdahl At The Olympia, Paris (2011) [FLAC]

Lisa Ekdahl - Lisa Ekdahl At The Olympia, Paris
EAC > FLAC | separate tracks | Log + CUE | complete cover + booklet scans | ~353 MB (recovery record = 3%)
Jazz, vocal jazz, smooth jazz, jazz-pop | Label: Sony Music | Year: 2011

In the winter of 1994 Lisa Ekdahl was brought into superstardom over night in scandinavia. Lisa’s debut album sold quadruple platinum and gave her three grammy awards. Her laid back style, matched with her fragility and sensitivity has dazzled fans and critics alike.

Several European countries and especially France has fallen for her understated way of performing jazz standards, bossanova and original songs. Still few people know much about Lisa’s life and few know that she creates and records her music in a tucked away house across a courtyard in central Stockholm. She has never let a journalist or a TV-team cross her doorstep.

Until now. And in her own way.

In the DVD documentary “Lisa Ekdahl at the Olympia, Paris” Lisa opens the door to her universe. The film is maybe one of the most beautiful and artistically genuine Swedish music documentary ever made. This DVD contains songs from the Olympia mixed with Lisa meeting with friends, getting into conversation and playing songs in her home in Stockholm. In Paris Lisa plays a sold out show at the legendary L’Olympia. The CD is a recording of this show.

The Olympia concert (CD and DVD) was the grand finale of Lisa Ekdahl’s critically acclaimed European tour 2009-2010 that followed the release of the album “Give me that slow knowing smile”. (Source: http://lisaekdahl.com)

Tracklist:
01. April In Paris [V. Duke, E. Y. Harburg] (02:02)
02. Nature Boy [E. Ahbez] (07:37)
03. I Get A Kick Out Of You [C. Porter] (02:55)
04. Now Or Never [B. Holiday, C. R. Lewis] (03:28)
05. Beatifull Boy [L. Ekdahl] (06:37)
06. Laziest Girl In Town [C. Porter] (06:12)
07. Give Me That Slow Knowing Smile [L. Ekdahl] (05:47)
08. Don’t Stop [L. Ekdahl] (03:57)
09. I’ll Be Around [L. Ekdahl] (05:07)
10. Love For Sale [C. Porter] (04:33)
11. Tea For Two [V. Youmans, I. Caesar] (10:01)

Personel:
Lisa Ekdahl - voice & guitar
Mathias Blomdahl - guitars, piano, Hi hat, drum, bass, zither & vocals
Josef Zackrisson - bass, drum & vocals
Thomas Hallonsten - grand piano, hammond organ, trumpet & melodica

The Olympia show was recorded in Paris on April 5th 2010

Many thanks to the original ripper and uploader.


<span style="color:#ffffff">FileSonic &#8230;.</span>
| Part 1 | Part 2 | Part 3 | Part 4 |


<span style="color:#ffffff">Hotfile &#8230;&#8230;.</span>
| Part 1 | Part 2 | Part 3 | Part 4 |


<span style="color:#ffffff">Megaupload</span>
| Part 1 | Part 2 | Part 3 | Part 4 |


<span style="color:#ffffff">Fileserve &#8230;.</span>
| Part 1 | Part 2 | Part 3 | Part 4 |


All files are interchangeable.


Exact Audio Copy V1.0 beta 1 from 15. November 2010

EAC extraction logfile from 15. August 2011, 18:54

Lisa Ekdahl / Lisa Ekdahl At The Olympia, Paris

Used drive : HL-DT-STDVDRAM GSA-H10N Adapter: 1 ID: 0

Read mode : Secure
Utilize accurate stream : Yes
Defeat audio cache : Yes
Make use of C2 pointers : No

Read offset correction : 667
Overread into Lead-In and Lead-Out : No
Fill up missing offset samples with silence : Yes
Delete leading and trailing silent blocks : No
Null samples used in CRC calculations : Yes
Used interface : Native Win32 interface for Win NT & 2000
Gap handling : Appended to previous track

Used output format : User Defined Encoder
Selected bitrate : 128 kBit/s
Quality : High
Add ID3 tag : No
Command line compressor : C:\Program\Exact Audio Copy\Flac\flac.exe
Additional command line options : -V -8 -T "artist=%a" -T "title=%t" -T "album=%g" -T "date=%y" -T "tracknumber=%n" -T "genre=%m" %s


TOC of the extracted CD

Track | Start | Length | Start sector | End sector
––––––––––––––––––––––––––––-
1 | 0:00.00 | 2:00.74 | 0 | 9073
2 | 2:00.74 | 7:34.43 | 9074 | 43166
3 | 9:35.42 | 2:52.70 | 43167 | 56136
4 | 12:28.37 | 3:25.54 | 56137 | 71565
5 | 15:54.16 | 6:34.58 | 71566 | 101173
6 | 22:28.74 | 6:10.00 | 101174 | 128923
7 | 28:38.74 | 5:45.10 | 128924 | 154808
8 | 34:24.09 | 3:54.73 | 154809 | 172431
9 | 38:19.07 | 5:04.47 | 172432 | 195278
10 | 43:23.54 | 4:31.36 | 195279 | 215639
11 | 47:55.15 | 10:01.16 | 215640 | 260730


Track 1

Filename D:\Seed\Lisa Ekdahl - Lisa Ekdahl At The Olympia, Paris\01 - Lisa Ekdahl - April In Paris.wav

Pre-gap length 0:00:02.00

Peak level 98.8 %
Extraction speed 2.3 X
Track quality 100.0 %
Test CRC 44AEA04D
Copy CRC 44AEA04D
Accurately ripped (confidence 2) [54F98DC5]
Copy OK

Track 2

Filename D:\Seed\Lisa Ekdahl - Lisa Ekdahl At The Olympia, Paris\02 - Lisa Ekdahl - Nature Boy.wav

Peak level 98.8 %
Extraction speed 3.0 X
Track quality 99.9 %
Test CRC 30C2D2D9
Copy CRC 30C2D2D9
Accurately ripped (confidence 2) [1628CC5D]
Copy OK

Track 3

Filename D:\Seed\Lisa Ekdahl - Lisa Ekdahl At The Olympia, Paris\03 - Lisa Ekdahl - I'll Get A Kick Out Of You.wav

Peak level 98.8 %
Extraction speed 3.1 X
Track quality 100.0 %
Test CRC 69F9494A
Copy CRC 69F9494A
Accurately ripped (confidence 2) [5B71D803]
Copy OK

Track 4

Filename D:\Seed\Lisa Ekdahl - Lisa Ekdahl At The Olympia, Paris\04 - Lisa Ekdahl - Now Or Never.wav

Peak level 98.8 %
Extraction speed 3.4 X
Track quality 100.0 %
Test CRC 3AC89E46
Copy CRC 3AC89E46
Accurately ripped (confidence 2) [EC2463B4]
Copy OK

Track 5

Filename D:\Seed\Lisa Ekdahl - Lisa Ekdahl At The Olympia, Paris\05 - Lisa Ekdahl - Beautiful Boy.wav

Peak level 98.8 %
Extraction speed 4.1 X
Track quality 100.0 %
Test CRC 97AF8889
Copy CRC 97AF8889
Accurately ripped (confidence 2) [ABA5339B]
Copy OK

Track 6

Filename D:\Seed\Lisa Ekdahl - Lisa Ekdahl At The Olympia, Paris\06 - Lisa Ekdahl - Laziest Girl In Town.wav

Peak level 98.8 %
Extraction speed 4.4 X
Track quality 100.0 %
Test CRC B7A4B1DB
Copy CRC B7A4B1DB
Accurately ripped (confidence 2) [6C25437A]
Copy OK

Track 7

Filename D:\Seed\Lisa Ekdahl - Lisa Ekdahl At The Olympia, Paris\07 - Lisa Ekdahl - Give Me That Slow Knowing Smile.wav

Peak level 98.8 %
Extraction speed 4.7 X
Track quality 100.0 %
Test CRC 80B34CC4
Copy CRC 80B34CC4
Accurately ripped (confidence 2) [923DD12D]
Copy OK

Track 8

Filename D:\Seed\Lisa Ekdahl - Lisa Ekdahl At The Olympia, Paris\08 - Lisa Ekdahl - Don't Stop.wav

Peak level 98.8 %
Extraction speed 4.6 X
Track quality 100.0 %
Test CRC 3732BF4D
Copy CRC 3732BF4D
Accurately ripped (confidence 2) [94441C74]
Copy OK

Track 9

Filename D:\Seed\Lisa Ekdahl - Lisa Ekdahl At The Olympia, Paris\09 - Lisa Ekdahl - I'll Be Around.wav

Peak level 98.8 %
Extraction speed 5.0 X
Track quality 100.0 %
Test CRC 568FD765
Copy CRC 568FD765
Accurately ripped (confidence 2) [DA1612A0]
Copy OK

Track 10

Filename D:\Seed\Lisa Ekdahl - Lisa Ekdahl At The Olympia, Paris\10 - Lisa Ekdahl - Love For Sale.wav

Peak level 98.9 %
Extraction speed 5.0 X
Track quality 100.0 %
Test CRC 780D9972
Copy CRC 780D9972
Accurately ripped (confidence 2) [11D12F99]
Copy OK

Track 11

Filename D:\Seed\Lisa Ekdahl - Lisa Ekdahl At The Olympia, Paris\11 - Lisa Ekdahl - Tea Tor Two.wav

Peak level 98.8 %
Extraction speed 5.8 X
Track quality 100.0 %
Test CRC AA26EDEE
Copy CRC AA26EDEE
Accurately ripped (confidence 2) [948EB461]
Copy OK


All tracks accurately ripped

No errors occurred

End of status report

==== Log checksum 1BEDACB61F901013C17438EC702B0ADFD492FB8C5D1FA4FC26E9ADD57BCD9EB0 ====


AUDIOCHECKER v1.2 - by Dester - opdester@freemail.hu
~~~~~~~~~~~~~~~~~

01 -===- I:\MUSIC\intray (pending)\2011. Lisa Ekdahl - Lisa Ekdahl At The Olympia, Paris\01. April In Paris.flac
Extracted successfully
Conclusion: This track looks like CDDA with probability 100%

02 -===- I:\MUSIC\intray (pending)\2011. Lisa Ekdahl - Lisa Ekdahl At The Olympia, Paris\02. Nature Boy.flac
Extracted successfully
Conclusion: This track looks like CDDA with probability 100%

03 -===- I:\MUSIC\intray (pending)\2011. Lisa Ekdahl - Lisa Ekdahl At The Olympia, Paris\03. I'll Get A Kick Out Of You.flac
Extracted successfully
Conclusion: This track looks like CDDA with probability 100%

04 -===- I:\MUSIC\intray (pending)\2011. Lisa Ekdahl - Lisa Ekdahl At The Olympia, Paris\04. Now Or Never.flac
Extracted successfully
Conclusion: This track looks like CDDA with probability 100%

05 -===- I:\MUSIC\intray (pending)\2011. Lisa Ekdahl - Lisa Ekdahl At The Olympia, Paris\05. Beautiful Boy.flac
Extracted successfully
Conclusion: This track looks like CDDA with probability 100%

06 -===- I:\MUSIC\intray (pending)\2011. Lisa Ekdahl - Lisa Ekdahl At The Olympia, Paris\06. Laziest Girl In Town.flac
Extracted successfully
Conclusion: This track looks like CDDA with probability 100%

07 -===- I:\MUSIC\intray (pending)\2011. Lisa Ekdahl - Lisa Ekdahl At The Olympia, Paris\07. Give Me That Slow Knowing Smile.flac
Extracted successfully
Conclusion: This track looks like CDDA with probability 100%

08 -===- I:\MUSIC\intray (pending)\2011. Lisa Ekdahl - Lisa Ekdahl At The Olympia, Paris\08. Don't Stop.flac
Extracted successfully
Conclusion: This track looks like CDDA with probability 99%

09 -===- I:\MUSIC\intray (pending)\2011. Lisa Ekdahl - Lisa Ekdahl At The Olympia, Paris\09. I'll Be Around.flac
Extracted successfully
Conclusion: This track looks like CDDA with probability 100%

10 -===- I:\MUSIC\intray (pending)\2011. Lisa Ekdahl - Lisa Ekdahl At The Olympia, Paris\10. Love For Sale.flac
Extracted successfully
Conclusion: This track looks like CDDA with probability 100%

11 -===- I:\MUSIC\intray (pending)\2011. Lisa Ekdahl - Lisa Ekdahl At The Olympia, Paris\11. Tea Tor Two.flac
Extracted successfully
Conclusion: This track looks like CDDA with probability 100%