Subcategories

Lolita Ritmanis - Dvēseļu Putenis (Blizzard Of Souls) [Original Motion Picture Soundtrack] (2019)

Posted By: aasana
Lolita Ritmanis - Dvēseļu Putenis (Blizzard Of Souls) [Original Motion Picture Soundtrack] (2019)

Lolita Ritmanis - Blizzard of Souls (2019)
EAC Rip | FLAC (tracks+.cue) | 01:16:05 | 369,47 MB
Soundtrack | Label: Marlo Songs

Dvēseļu putenis / Blizzard of Souls is a powerful film directed by Dzintars Dreibergs and produced by Inga Pranevska. It is the story of a sixteen-year-old Arturs, who enlists to fight in First World War with dreams of becoming a hero, but after surviving the brutalities of trench warfare and the loss of his family, he wonders if his efforts in battle were futile and if hope is only to be found in rebuilding a family and a home - as Latvia itself is born from the atrocities of war. Acclaimed composer Lolita Ritmanis (YOUNG JUSTICE, BATMAN THE ANIMATED SERIES, MYSTERY OF THE BATWOMAN, BROKE SKY) recorded the score in Riga, Latvia - the birthplace of her parents. The composer assembled a 60 piece orchestra and 50 voice choir, and recorded the score at Latvia Radio 1.Studio, in the heart of old town Riga. The score is 1hour and 9 minutes in length. The album is produced by Mark Mattson and Lolita Ritmanis and the composer conducted musicians from several Symphony orchestras in Latvia.
State Choir Latvija - conductor Maris Sirmais.

Tracklist:
01. Lolita Ritmanis - Prelīde (feat. State Choir Latvija & Māris Sirmais) (1:27)
02. Lolita Ritmanis - Dvēseļu Putenis - Sākuma Titri, 1. Daļa (1:25)
03. Lolita Ritmanis - Ritenis, Dvēseļu Putenis - Sākuma Titri, 2. Daļa (3:17)
04. Lolita Ritmanis - Atstājot Mājas (3:47)
05. Lolita Ritmanis - Mēs Ātri Atgriezīsimies (1:21)
06. Lolita Ritmanis - Saules Stari (1:06)
07. Lolita Ritmanis - Miglā (5:02)
08. Lolita Ritmanis - Kritis Slokā (1:40)
09. Lolita Ritmanis - Sapnī (feat. State Choir Latvija & Māris Sirmais) (1:03)
10. Lolita Ritmanis - Foto (0:45)
11. Lolita Ritmanis - Atmiņas (3:18)
12. Lolita Ritmanis - Caur Smilgām (2:21)
13. Lolita Ritmanis - Mans Dēls (0:54)
14. Lolita Ritmanis - Artūrs Ierauga Tēvu (2:01)
15. Lolita Ritmanis - Kur Ir Tēvs? (0:50)
16. Lolita Ritmanis - Neatnāca Uz Nomaiņu (2:01)
17. Lolita Ritmanis - Ar Godu (0:47)
18. Lolita Ritmanis - Ziemsvētku Kauja (feat. State Choir Latvija & Māris Sirmais) (1:35)
19. Lolita Ritmanis - Visi Kājās! (1:08)
20. Lolita Ritmanis - Brālis Kritis (3:41)
21. Lolita Ritmanis - Marta (1:11)
22. Lolita Ritmanis - Miķelsons, Konrāds (2:38)
23. Lolita Ritmanis - Marta & Artūrs (2:29)
24. Lolita Ritmanis - Mīla Pļavā (1:09)
25. Lolita Ritmanis - Kartupeļi (1:31)
26. Lolita Ritmanis - Paslēpies (3:16)
27. Lolita Ritmanis - Ceļmalā (3:38)
28. Lolita Ritmanis - Uzbrukums (2:16)
29. Lolita Ritmanis - Sapnī Vēl Dziļākā (feat. State Choir Latvija & Māris Sirmais) (2:22)
30. Lolita Ritmanis - Artūrs Ir Pieaudzis (2:37)
31. Lolita Ritmanis - Artūrs Sniegā (3:14)
32. Lolita Ritmanis - Tēvzemei (2:31)
33. Lolita Ritmanis - Lūgšana: Dodi Mieru Mūsu Brāļiem (feat. State Choir Latvija & Māris Sirmais) (3:15)
34. Lolita Ritmanis - Dvēseļu Putenis, Beigu Titri (feat. State Choir Latvija & Māris Sirmais) (3:29)

Exact Audio Copy V1.1 from 23. June 2015

EAC extraction logfile from 3. December 2019, 23:24

Lolita Ritmanis / Blizzard of Souls

Used drive : SlimtypeeBAU108 6 L Adapter: 1 ID: 0

Read mode : Secure
Utilize accurate stream : Yes
Defeat audio cache : Yes
Make use of C2 pointers : No

Read offset correction : 6
Overread into Lead-In and Lead-Out : No
Fill up missing offset samples with silence : Yes
Delete leading and trailing silent blocks : No
Null samples used in CRC calculations : Yes
Used interface : Native Win32 interface for Win NT & 2000
Gap handling : Appended to previous track

Used output format : User Defined Encoder
Selected bitrate : 1024 kBit/s
Quality : High
Add ID3 tag : No
Command line compressor : D:\Software\flac-1.2.1-win\bin\flac.exe
Additional command line options : -8 -V -T "ARTIST=%artist%" -T "TITLE=%title%" -T "ALBUM=%albumtitle%" -T "DATE=%year%" -T "TRACKNUMBER=%tracknr%" -T "GENRE=%genre%" -T "PERFORMER=%albuminterpret%" -T "COMPOSER=%composer%" %haslyrics%–tag-from-file=LYRICS="%lyricsfile%"%haslyrics% -T "ALBUMARTIST=%albumartist%" -T "DISCNUMBER=%cdnumber%" -T "TOTALDISCS=%totalcds%" -T "TOTALTRACKS=%numtracks%" -T "COMMENT=%comment%" %source% -o %dest%


TOC of the extracted CD

Track | Start | Length | Start sector | End sector
––––––––––––––––––––––––––––-
1 | 0:00.00 | 1:27.73 | 0 | 6597
2 | 1:27.73 | 1:26.17 | 6598 | 13064
3 | 2:54.15 | 3:17.62 | 13065 | 27901
4 | 6:12.02 | 3:47.73 | 27902 | 44999
5 | 10:00.00 | 1:22.55 | 45000 | 51204
6 | 11:22.55 | 1:07.26 | 51205 | 56255
7 | 12:30.06 | 5:03.46 | 56256 | 79026
8 | 17:33.52 | 1:41.39 | 79027 | 86640
9 | 19:15.16 | 1:03.58 | 86641 | 91423
10 | 20:18.74 | 0:46.50 | 91424 | 94923
11 | 21:05.49 | 3:19.19 | 94924 | 109867
12 | 24:24.68 | 2:21.62 | 109868 | 120504
13 | 26:46.55 | 0:55.07 | 120505 | 124636
14 | 27:41.62 | 2:02.42 | 124637 | 133828
15 | 29:44.29 | 0:51.17 | 133829 | 137670
16 | 30:35.46 | 2:04.44 | 137671 | 147014
17 | 32:40.15 | 0:49.17 | 147015 | 150706
18 | 33:29.32 | 1:37.04 | 150707 | 157985
19 | 35:06.36 | 1:09.45 | 157986 | 163205
20 | 36:16.06 | 3:43.40 | 163206 | 179970
21 | 39:59.46 | 1:14.23 | 179971 | 185543
22 | 41:13.69 | 2:40.33 | 185544 | 197576
23 | 43:54.27 | 2:31.31 | 197577 | 208932
24 | 46:25.58 | 1:10.64 | 208933 | 214246
25 | 47:36.47 | 1:33.07 | 214247 | 221228
26 | 49:09.54 | 3:18.22 | 221229 | 236100
27 | 52:28.01 | 3:40.10 | 236101 | 252610
28 | 56:08.11 | 2:18.13 | 252611 | 262973
29 | 58:26.24 | 2:24.17 | 262974 | 273790
30 | 60:50.41 | 2:39.33 | 273791 | 285748
31 | 63:29.74 | 3:14.57 | 285749 | 300355
32 | 66:44.56 | 2:34.21 | 300356 | 311926
33 | 69:19.02 | 3:16.40 | 311927 | 326666
34 | 72:35.42 | 3:30.21 | 326667 | 342437


Track 1

Filename E:\BGMusic\Lolita Ritmanis - Blizzard of Souls\01 - Lolita Ritmanis feat. State Choir Latvija & Maris Sirmais - Prelude.wav

Pre-gap length 0:00:02.00

Peak level 72.6 %
Extraction speed 1.6 X
Track quality 99.8 %
Test CRC C245002A
Copy CRC C245002A
Track not present in AccurateRip database
Copy OK

Track 2

Filename E:\BGMusic\Lolita Ritmanis - Blizzard of Souls\02 - Lolita Ritmanis - Blizzard Of Souls - Main Title, Pt. 1.wav

Pre-gap length 0:00:01.00

Peak level 68.8 %
Extraction speed 2.3 X
Track quality 100.0 %
Test CRC 224D0F23
Copy CRC 224D0F23
Track not present in AccurateRip database
Copy OK

Track 3

Filename E:\BGMusic\Lolita Ritmanis - Blizzard of Souls\03 - Lolita Ritmanis feat. State Choir Latvija & Maris Sirmais - Bicycle, Blizzard Of Souls - Main Title, Pt. 2.wav

Pre-gap length 0:00:01.00

Peak level 86.2 %
Extraction speed 3.0 X
Track quality 100.0 %
Test CRC 65F50E7D
Copy CRC 65F50E7D
Track not present in AccurateRip database
Copy OK

Track 4

Filename E:\BGMusic\Lolita Ritmanis - Blizzard of Souls\04 - Lolita Ritmanis - Leaving Home.wav

Pre-gap length 0:00:01.00

Peak level 94.9 %
Extraction speed 3.3 X
Track quality 100.0 %
Test CRC B76BAC2C
Copy CRC B76BAC2C
Track not present in AccurateRip database
Copy OK

Track 5

Filename E:\BGMusic\Lolita Ritmanis - Blizzard of Souls\05 - Lolita Ritmanis - Soon We Will Return.wav

Pre-gap length 0:00:01.00

Peak level 88.1 %
Extraction speed 2.7 X
Track quality 100.0 %
Test CRC F6E1067B
Copy CRC F6E1067B
Track not present in AccurateRip database
Copy OK

Track 6

Filename E:\BGMusic\Lolita Ritmanis - Blizzard of Souls\06 - Lolita Ritmanis - Sunbeams.wav

Pre-gap length 0:00:01.00

Peak level 89.8 %
Extraction speed 1.7 X
Track quality 99.8 %
Test CRC 1D99C4A1
Copy CRC 1D99C4A1
Track not present in AccurateRip database
Copy OK

Track 7

Filename E:\BGMusic\Lolita Ritmanis - Blizzard of Souls\07 - Lolita Ritmanis - In The Fog.wav

Pre-gap length 0:00:01.00

Peak level 88.0 %
Extraction speed 3.8 X
Track quality 100.0 %
Test CRC D55468F5
Copy CRC D55468F5
Track not present in AccurateRip database
Copy OK

Track 8

Filename E:\BGMusic\Lolita Ritmanis - Blizzard of Souls\08 - Lolita Ritmanis - Fallen At Sloka.wav

Pre-gap length 0:00:01.00

Peak level 95.7 %
Extraction speed 3.2 X
Track quality 100.0 %
Test CRC 4EA6957C
Copy CRC 4EA6957C
Track not present in AccurateRip database
Copy OK

Track 9

Filename E:\BGMusic\Lolita Ritmanis - Blizzard of Souls\09 - Lolita Ritmanis feat. State Choir Latvija & Maris Sirmais - In A Dream.wav

Pre-gap length 0:00:01.00

Peak level 79.5 %
Extraction speed 2.8 X
Track quality 100.0 %
Test CRC 10DF0A2E
Copy CRC 10DF0A2E
Track not present in AccurateRip database
Copy OK

Track 10

Filename E:\BGMusic\Lolita Ritmanis - Blizzard of Souls\10 - Lolita Ritmanis - Photo.wav

Pre-gap length 0:00:01.00

Peak level 81.0 %
Extraction speed 2.6 X
Track quality 100.0 %
Test CRC 82A258BD
Copy CRC 82A258BD
Track not present in AccurateRip database
Copy OK

Track 11

Filename E:\BGMusic\Lolita Ritmanis - Blizzard of Souls\11 - Lolita Ritmanis - Memories.wav

Pre-gap length 0:00:01.00

Peak level 93.7 %
Extraction speed 4.0 X
Track quality 100.0 %
Test CRC C4DB8F38
Copy CRC C4DB8F38
Track not present in AccurateRip database
Copy OK

Track 12

Filename E:\BGMusic\Lolita Ritmanis - Blizzard of Souls\12 - Lolita Ritmanis - Through The Tall Grass.wav

Pre-gap length 0:00:01.00

Peak level 100.0 %
Extraction speed 3.8 X
Track quality 100.0 %
Test CRC 0F030426
Copy CRC 0F030426
Track not present in AccurateRip database
Copy OK

Track 13

Filename E:\BGMusic\Lolita Ritmanis - Blizzard of Souls\13 - Lolita Ritmanis - My Son.wav

Pre-gap length 0:00:00.98

Peak level 81.0 %
Extraction speed 1.9 X
Track quality 99.8 %
Test CRC AF4C0DA5
Copy CRC AF4C0DA5
Track not present in AccurateRip database
Copy OK

Track 14

Filename E:\BGMusic\Lolita Ritmanis - Blizzard of Souls\14 - Lolita Ritmanis - Arturs Spots His Father.wav

Pre-gap length 0:00:01.00

Peak level 93.7 %
Extraction speed 3.8 X
Track quality 100.0 %
Test CRC 064FDE95
Copy CRC 064FDE95
Track not present in AccurateRip database
Copy OK

Track 15

Filename E:\BGMusic\Lolita Ritmanis - Blizzard of Souls\15 - Lolita Ritmanis - Where Is Father.wav

Pre-gap length 0:00:01.00

Peak level 87.8 %
Extraction speed 3.0 X
Track quality 100.0 %
Test CRC F553A7B1
Copy CRC F553A7B1
Track not present in AccurateRip database
Copy OK

Track 16

Filename E:\BGMusic\Lolita Ritmanis - Blizzard of Souls\16 - Lolita Ritmanis - Did Not Return.wav

Pre-gap length 0:00:01.00

Peak level 79.6 %
Extraction speed 4.0 X
Track quality 100.0 %
Test CRC C7938A87
Copy CRC C7938A87
Track not present in AccurateRip database
Copy OK

Track 17

Filename E:\BGMusic\Lolita Ritmanis - Blizzard of Souls\17 - Lolita Ritmanis - With Honor.wav

Pre-gap length 0:00:03.00

Peak level 54.3 %
Extraction speed 3.0 X
Track quality 100.0 %
Test CRC B1943D47
Copy CRC B1943D47
Track not present in AccurateRip database
Copy OK

Track 18

Filename E:\BGMusic\Lolita Ritmanis - Blizzard of Souls\18 - Lolita Ritmanis feat. State Choir Latvija & Maris Sirmais - Christmas Battle.wav

Pre-gap length 0:00:02.00

Peak level 96.3 %
Extraction speed 3.8 X
Track quality 100.0 %
Test CRC E4296692
Copy CRC E4296692
Track not present in AccurateRip database
Copy OK

Track 19

Filename E:\BGMusic\Lolita Ritmanis - Blizzard of Souls\19 - Lolita Ritmanis - Everyone On Your Feet!.wav

Pre-gap length 0:00:02.00

Peak level 86.7 %
Extraction speed 3.5 X
Track quality 100.0 %
Test CRC F7E1B382
Copy CRC F7E1B382
Track not present in AccurateRip database
Copy OK

Track 20

Filename E:\BGMusic\Lolita Ritmanis - Blizzard of Souls\20 - Lolita Ritmanis - My Brother Has Fallen.wav

Pre-gap length 0:00:01.00

Peak level 80.5 %
Extraction speed 4.7 X
Track quality 100.0 %
Test CRC 032D712C
Copy CRC 032D712C
Track not present in AccurateRip database
Copy OK

Track 21

Filename E:\BGMusic\Lolita Ritmanis - Blizzard of Souls\21 - Lolita Ritmanis - Marta.wav

Pre-gap length 0:00:02.00

Peak level 42.0 %
Extraction speed 3.6 X
Track quality 100.0 %
Test CRC E72170EF
Copy CRC E72170EF
Track not present in AccurateRip database
Copy OK

Track 22

Filename E:\BGMusic\Lolita Ritmanis - Blizzard of Souls\22 - Lolita Ritmanis - Mikelsons, Konrads.wav

Pre-gap length 0:00:03.00

Peak level 91.4 %
Extraction speed 4.6 X
Track quality 100.0 %
Test CRC AFE062CE
Copy CRC AFE062CE
Track not present in AccurateRip database
Copy OK

Track 23

Filename E:\BGMusic\Lolita Ritmanis - Blizzard of Souls\23 - Lolita Ritmanis - Marta & Arturs.wav

Pre-gap length 0:00:02.00

Peak level 75.6 %
Extraction speed 3.7 X
Track quality 99.9 %
Test CRC FC609E82
Copy CRC FC609E82
Track not present in AccurateRip database
Copy OK

Track 24

Filename E:\BGMusic\Lolita Ritmanis - Blizzard of Souls\24 - Lolita Ritmanis - Love In The Field.wav

Pre-gap length 0:00:02.00

Peak level 59.6 %
Extraction speed 3.9 X
Track quality 100.0 %
Test CRC ED9A9226
Copy CRC ED9A9226
Track not present in AccurateRip database
Copy OK

Track 25

Filename E:\BGMusic\Lolita Ritmanis - Blizzard of Souls\25 - Lolita Ritmanis - Planting Potatoes.wav

Pre-gap length 0:00:02.00

Peak level 75.1 %
Extraction speed 4.3 X
Track quality 100.0 %
Test CRC 0C2C5ACB
Copy CRC 0C2C5ACB
Track not present in AccurateRip database
Copy OK

Track 26

Filename E:\BGMusic\Lolita Ritmanis - Blizzard of Souls\26 - Lolita Ritmanis - Hide.wav

Pre-gap length 0:00:02.00

Peak level 91.1 %
Extraction speed 5.1 X
Track quality 100.0 %
Test CRC 0AB35666
Copy CRC 0AB35666
Track not present in AccurateRip database
Copy OK

Track 27

Filename E:\BGMusic\Lolita Ritmanis - Blizzard of Souls\27 - Lolita Ritmanis - On The Side Of The Road.wav

Pre-gap length 0:00:02.00

Peak level 86.0 %
Extraction speed 5.2 X
Track quality 100.0 %
Test CRC 61A8D5F7
Copy CRC 61A8D5F7
Track not present in AccurateRip database
Copy OK

Track 28

Filename E:\BGMusic\Lolita Ritmanis - Blizzard of Souls\28 - Lolita Ritmanis - Attack.wav

Pre-gap length 0:00:02.00

Peak level 85.8 %
Extraction speed 5.0 X
Track quality 100.0 %
Test CRC 724CD461
Copy CRC 724CD461
Track not present in AccurateRip database
Copy OK

Track 29

Filename E:\BGMusic\Lolita Ritmanis - Blizzard of Souls\29 - Lolita Ritmanis feat. State Choir Latvija & Maris Sirmais - In A Deeper Dream.wav

Pre-gap length 0:00:01.98

Peak level 68.1 %
Extraction speed 5.1 X
Track quality 100.0 %
Test CRC 2D53FFFB
Copy CRC 2D53FFFB
Track not present in AccurateRip database
Copy OK

Track 30

Filename E:\BGMusic\Lolita Ritmanis - Blizzard of Souls\30 - Lolita Ritmanis - Arturs Has Grown Up.wav

Pre-gap length 0:00:02.00

Peak level 83.7 %
Extraction speed 5.3 X
Track quality 100.0 %
Test CRC A843DF6C
Copy CRC A843DF6C
Track not present in AccurateRip database
Copy OK

Track 31

Filename E:\BGMusic\Lolita Ritmanis - Blizzard of Souls\31 - Lolita Ritmanis - Arturs In The Snow.wav

Pre-gap length 0:00:01.98

Peak level 90.7 %
Extraction speed 5.6 X
Track quality 100.0 %
Test CRC 96A562A0
Copy CRC 96A562A0
Track not present in AccurateRip database
Copy OK

Track 32

Filename E:\BGMusic\Lolita Ritmanis - Blizzard of Souls\32 - Lolita Ritmanis - For My Fatherland.wav

Pre-gap length 0:00:01.00

Peak level 82.3 %
Extraction speed 5.4 X
Track quality 100.0 %
Test CRC 5900AF4B
Copy CRC 5900AF4B
Track not present in AccurateRip database
Copy OK

Track 33

Filename E:\BGMusic\Lolita Ritmanis - Blizzard of Souls\33 - Lolita Ritmanis feat. State Choir Latvija & Maris Sirmais - Prayer- Grant Peace To Our Fallen Brothers.wav

Pre-gap length 0:00:03.00

Peak level 100.0 %
Extraction speed 4.7 X
Track quality 99.9 %
Test CRC EB9A352C
Copy CRC EB9A352C
Track not present in AccurateRip database
Copy OK

Track 34

Filename E:\BGMusic\Lolita Ritmanis - Blizzard of Souls\34 - Lolita Ritmanis feat. State Choir Latvija & Maris Sirmais - Blizzard Of Souls, End Credits.wav

Pre-gap length 0:00:01.00

Peak level 79.3 %
Extraction speed 5.9 X
Track quality 100.0 %
Test CRC 658E70C7
Copy CRC 658E70C7
Track not present in AccurateRip database
Copy OK


None of the tracks are present in the AccurateRip database

No errors occurred

End of status report

–– CUETools DB Plugin V2.1.6

[CTDB TOCID: wMZZJIOc45jFmMXo3t7_AY0S00I-] disk not present in database
Submit result: wMZZJIOc45jFmMXo3t7_AY0S00I- has been uploaded


==== Log checksum 051485FF664FF572A64663EA860ED110BEFDC07D2ACB4722A9605D4B8E479CF8 ====