Subcategories

Lonnie Smith - Live At Club Mozambique (1970) {Blue Note Rare Groove Series}

Posted By: ruskaval
Lonnie Smith - Live At Club Mozambique (1970) {Blue Note Rare Groove Series}

Lonnie Smith - Live At Club Mozambique (1970) {Blue Note Rare Groove Series}
EAC rip (secure mode) | FLAC (tracks)+CUE+LOG -> 460 Mb | MP3 @320 -> 175 Mb
Full Artwork @ 600 dpi (png) -> 116 Mb | 5% repair rar | Blue Note Rare Groove Series
© 1995 Blue Note / Capitol | CDP 7243 8 31880 2 4
Jazz / Jazz Funk / Soul Jazz / Boogaloo / Organ

Recorded on May 21, 1970, at Detroit's Club Mozambique, this was shelved and remained unreleased until it was retrieved for CD issue in 1995. It's odd that Blue Note decided to sit on it for so long, because it ranks as one of Lonnie's better sets. The band, featuring George Benson on guitar, is relaxed and funky without being in your face about it, and unlike much soul-jazz of the time, most of the material is original, Smith having penned six of the eight numbers. Although the riffs often owe a lot to James Brown, this is definitely at least as much jazz as soul, with Lonnie taking a rare vocal turn on "Peace of Mind."
Lonnie Smith - Live At Club Mozambique (1970) {Blue Note Rare Groove Series}


Personnel:
Lonnie Smith (organ)
Dave Hubbard (tenor sax)
Ronnie Cuber (bari sax)
George Benson (guitar)
Joe Dukes (drums)
Gary Jones (conga)
Clifford Mack (tambourine)

tracklist:
01 - I Can't Stand It
02 - Expressions
03 - Scream
04 - Play It Back
05 - Love Bowl
06 - Peace Of Mind
07 - I Want To Thank You
08 - Seven Steps To Heaven

Exact Audio Copy V1.0 beta 3 from 29. August 2011

EAC extraction logfile from 20. January 2015, 0:56

Lonnie Smith / Live At Club Mozambique

Used drive : ATAPI iHAS124 B Adapter: 2 ID: 1

Read mode : Secure
Utilize accurate stream : Yes
Defeat audio cache : Yes
Make use of C2 pointers : No

Read offset correction : 6
Overread into Lead-In and Lead-Out : No
Fill up missing offset samples with silence : Yes
Delete leading and trailing silent blocks : No
Null samples used in CRC calculations : Yes
Used interface : Native Win32 interface for Win NT & 2000
Gap handling : Appended to previous track

Used output format : User Defined Encoder
Selected bitrate : 1024 kBit/s
Quality : High
Add ID3 tag : No
Command line compressor : C:\Program Files (x86)\FLAC Frontend\tools\flac.exe
Additional command line options : -8 -V -T "ARTIST=%artist%" -T "TITLE=%title%" -T "ALBUM=%albumtitle%" -T "DATE=%year%" -T "TRACKNUMBER=%tracknr%" -T "TOTALTRACKS=%numtracks%" -T "GENRE=%genre%" -T "ALBUMARTIST=%albumartist%" -T "ALBUM ARTIST=%albumartist%" -T "COMMENT=EAC Secure Mode, Test & Copy, AccurateRip, FLAC -8" %source%


TOC of the extracted CD

Track | Start | Length | Start sector | End sector
––––––––––––––––––––––––––––-
1 | 0:00.00 | 8:24.35 | 0 | 37834
2 | 8:24.35 | 11:30.42 | 37835 | 89626
3 | 19:55.02 | 9:47.55 | 89627 | 133706
4 | 29:42.57 | 9:35.53 | 133707 | 176884
5 | 39:18.35 | 9:43.05 | 176885 | 220614
6 | 49:01.40 | 7:38.72 | 220615 | 255036
7 | 56:40.37 | 9:51.05 | 255037 | 299366
8 | 66:31.42 | 7:06.25 | 299367 | 331341


Track 1

Filename C:\Lonnie Smith - Live At Club Mozambique (1970) {Blue Note Rare Groove Series}\01 - I Can't Stand It.wav

Pre-gap length 0:00:02.00

Peak level 98.3 %
Extraction speed 2.4 X
Track quality 100.0 %
Test CRC 25606FBE
Copy CRC 25606FBE
Accurately ripped (confidence 8) [9A66E959] (AR v2)
Copy OK

Track 2

Filename C:\Lonnie Smith - Live At Club Mozambique (1970) {Blue Note Rare Groove Series}\02 - Expressions.wav

Pre-gap length 0:00:01.08

Peak level 90.0 %
Extraction speed 2.5 X
Track quality 99.9 %
Test CRC 42B631EA
Copy CRC 42B631EA
Accurately ripped (confidence 8) [8AF678F4] (AR v2)
Copy OK

Track 3

Filename C:\Lonnie Smith - Live At Club Mozambique (1970) {Blue Note Rare Groove Series}\03 - Scream.wav

Pre-gap length 0:00:01.20

Peak level 90.9 %
Extraction speed 3.3 X
Track quality 100.0 %
Test CRC 84D12D2D
Copy CRC 84D12D2D
Accurately ripped (confidence 8) [2F02DAE7] (AR v2)
Copy OK

Track 4

Filename C:\Lonnie Smith - Live At Club Mozambique (1970) {Blue Note Rare Groove Series}\04 - Play It Back.wav

Pre-gap length 0:00:01.42

Peak level 90.0 %
Extraction speed 3.1 X
Track quality 99.9 %
Test CRC F4E79A8A
Copy CRC F4E79A8A
Accurately ripped (confidence 8) [35E0DAB0] (AR v2)
Copy OK

Track 5

Filename C:\Lonnie Smith - Live At Club Mozambique (1970) {Blue Note Rare Groove Series}\05 - Love Bowl.wav

Pre-gap length 0:00:00.70

Peak level 92.8 %
Extraction speed 4.0 X
Track quality 100.0 %
Test CRC CC353CF3
Copy CRC CC353CF3
Accurately ripped (confidence 8) [4DC293D0] (AR v2)
Copy OK

Track 6

Filename C:\Lonnie Smith - Live At Club Mozambique (1970) {Blue Note Rare Groove Series}\06 - Peace Of Mind.wav

Pre-gap length 0:00:00.70

Peak level 95.4 %
Extraction speed 4.1 X
Track quality 100.0 %
Test CRC 9941D117
Copy CRC 9941D117
Accurately ripped (confidence 8) [A0648FAF] (AR v2)
Copy OK

Track 7

Filename C:\Lonnie Smith - Live At Club Mozambique (1970) {Blue Note Rare Groove Series}\07 - I Want To Thank You.wav

Pre-gap length 0:00:00.67

Peak level 90.3 %
Extraction speed 4.5 X
Track quality 100.0 %
Test CRC 9C8E5CBF
Copy CRC 9C8E5CBF
Accurately ripped (confidence 8) [D048C605] (AR v2)
Copy OK

Track 8

Filename C:\Lonnie Smith - Live At Club Mozambique (1970) {Blue Note Rare Groove Series}\08 - Seven Steps To Heaven.wav

Pre-gap length 0:00:01.10

Peak level 90.8 %
Extraction speed 4.6 X
Track quality 100.0 %
Test CRC 018940A2
Copy CRC 018940A2
Accurately ripped (confidence 8) [1B6122D5] (AR v2)
Copy OK


All tracks accurately ripped

No errors occurred

End of status report

==== Log checksum 0205C58E35F12F5576BAC6810F525C95A05BB5D218A2E6D608B570AA73522E97 ====


Lonnie Smith - Live At Club Mozambique (1970) {Blue Note Rare Groove Series}

Lonnie Smith - Live At Club Mozambique (1970) {Blue Note Rare Groove Series}




NEXT -> More Dr. Lonnie Smith…