Subcategories

Lonnie Smith - Move Your Hand (1969) {Blue Note Rare Goove Series}

Posted By: ruskaval
Lonnie Smith - Move Your Hand (1969) {Blue Note Rare Goove Series}

Lonnie Smith - Move Your Hand (1969) {Blue Note Rare Goove Series}
EAC rip (secure mode) | FLAC (tracks)+CUE+LOG -> 267 Mb | MP3 @320 -> 116 Mb
Full Artwork @ 600 dpi (png) -> 129 Mb | 5% repair rar
© 1969, 1996 Blue Note | Rare Groove Series | CDP 7243 8 31249 2 3
Jazz / Soul Jazz / Jazz Funk / Hammond B-3

Move Your Hand was recorded live at Club Harlem in Atlantic City on August 9, 1969. Organist Lonnie Smith led a small combo – featuring guitarist Larry McGee, tenor saxist Rudy Jones, bari saxist Ronnie Cuber, and drummer Sylvester Goshay – through a set that alternated originals with two pop covers, the Coasters' "Charlie Brown" and Donovan's "Sunshine Superman." Throughout, the band works a relaxed, bluesy, and, above all, funky rhythm; they abandon improvisation and melody for a steady groove, so much that the hooks of the two pop hits aren't recognizable until a few minutes into the track.
Lonnie Smith - Move Your Hand (1969) {Blue Note Rare Goove Series}

No one player stands out, but Move Your Hand is thoroughly enjoyable, primarily because the group never lets their momentum sag throughout the session. Though the sound of the record might be somewhat dated, the essential funk of the album remains vital.

Personnel:
Lonnie Smith - vocals, organ
Sylvester Goshay - drums
Larry McGee - guitar
Rudy Jones - tenor saxophone
Ronnie Cuber - baritone saxophone

tracklist:
01. Charlie Brown
02. Layin' In The Cut
03. Move Your Hand
04. Sunshine Superman
05. Dancin' In An Easy Groove (*CD only)

Exact Audio Copy V1.1 from 23. June 2015

EAC extraction logfile from 10. February 2016, 18:12

Lonnie Smith / Move Your Hand

Used drive : TSSTcorpCDDVDW SE-208DB Adapter: 1 ID: 0

Read mode : Secure
Utilize accurate stream : Yes
Defeat audio cache : Yes
Make use of C2 pointers : No

Read offset correction : 6
Overread into Lead-In and Lead-Out : No
Fill up missing offset samples with silence : Yes
Delete leading and trailing silent blocks : No
Null samples used in CRC calculations : Yes
Used interface : Native Win32 interface for Win NT & 2000
Gap handling : Appended to previous track

Used output format : User Defined Encoder
Selected bitrate : 1024 kBit/s
Quality : High
Add ID3 tag : No
Command line compressor : C:\Program Files (x86)\FLAC Frontend\tools\flac.exe
Additional command line options : -8 -V -T "ARTIST=%artist%" -T "TITLE=%title%" -T "ALBUM=%albumtitle%" -T "DATE=%year%" -T "TRACKNUMBER=%tracknr%" -T "TOTALTRACKS=%numtracks%" -T "GENRE=%genre%" -T "ALBUMARTIST=%albumartist%" -T "ALBUM ARTIST=%albumartist%" -T "COMMENT=EAC Secure Mode, Test & Copy, AccurateRip, FLAC -8" %source%


TOC of the extracted CD

Track | Start | Length | Start sector | End sector
––––––––––––––––––––––––––––-
1 | 0:00.00 | 10:11.35 | 0 | 45859
2 | 10:11.35 | 9:01.13 | 45860 | 86447
3 | 19:12.48 | 10:16.40 | 86448 | 132687
4 | 29:29.13 | 11:56.47 | 132688 | 186434
5 | 41:25.60 | 8:26.47 | 186435 | 224431


Track 1

Filename D:\_EAC\Lonnie Smith - Move Your Hand (1969) [FLAC] {Blue Note}\01 - Charlie Brown.wav

Pre-gap length 0:00:02.00

Peak level 98.1 %
Extraction speed 1.3 X
Track quality 100.0 %
Test CRC DF628A1E
Copy CRC DF628A1E
Accurately ripped (confidence 3) [CBD1E183] (AR v2)
Copy OK

Track 2

Filename D:\_EAC\Lonnie Smith - Move Your Hand (1969) [FLAC] {Blue Note}\02 - Layin' In The Cut.wav

Peak level 83.9 %
Extraction speed 1.4 X
Track quality 99.9 %
Test CRC BC05BC2E
Copy CRC BC05BC2E
Accurately ripped (confidence 4) [D5F5008E] (AR v2)
Copy OK

Track 3

Filename D:\_EAC\Lonnie Smith - Move Your Hand (1969) [FLAC] {Blue Note}\03 - Move Your Hand.wav

Peak level 87.5 %
Extraction speed 1.6 X
Track quality 99.9 %
Test CRC E409D74F
Copy CRC E409D74F
Accurately ripped (confidence 3) [67BEED72] (AR v2)
Copy OK

Track 4

Filename D:\_EAC\Lonnie Smith - Move Your Hand (1969) [FLAC] {Blue Note}\04 - Sunshine Superman.wav

Peak level 78.2 %
Extraction speed 1.8 X
Track quality 100.0 %
Test CRC 49790FF3
Copy CRC 49790FF3
Accurately ripped (confidence 4) [11B231EE] (AR v2)
Copy OK

Track 5

Filename D:\_EAC\Lonnie Smith - Move Your Hand (1969) [FLAC] {Blue Note}\05 - Dancin' In An Easy Groove.wav

Peak level 98.0 %
Extraction speed 1.8 X
Track quality 99.9 %
Test CRC BE7B812D
Copy CRC BE7B812D
Accurately ripped (confidence 4) [6ADEC8F9] (AR v2)
Copy OK


All tracks accurately ripped

No errors occurred

End of status report

==== Log checksum D8F2C63A4DE0D8A599C5580D6201ACADE7E8222D0423FB2F540E6CA89078C9BB ====


Lonnie Smith - Move Your Hand (1969) {Blue Note Rare Goove Series}

Lonnie Smith - Move Your Hand (1969) {Blue Note Rare Goove Series}




NEXT -> More Dr. Lonnie Smith on the way…