Subcategories

Loomings - Hey Weirdo! (2019)

Posted By: Domestos
Loomings - Hey Weirdo! (2019)

Loomings - Hey Weirdo! (2019)
EAC Rip | FLAC (image+.cue, log) ~ 297.73 Mb + 106.86 Mb (Scans) | 52:16
Avantgarde, Experimental, Prog Rock, RIO | Country: France, Strasbourg | Label: Soleil Mutant - SM 57

LOOMINGS was born under the impulse of Jacopo COSTA, an Italian musician living in Strasbourg. Thanks to the vitality of the local music scene, it has the possibility to realize its creations with the help of several musicians with varied artistic trajectories. The voices of Maria DENAMI and Clara WEIL – one from the lyrical repertory, the other anchored in the current music – are added to the jazzy groove of Nicolas KLEE (electric bass) and Nils BOYNY (keyboards), as well as the percussions and electronic machines of Enrico PEDICONE and Jacopo himself : the result of this crossing, at once poetic, ironic and powerful, invites the most adventurous spirits to discover new sonorous territories.



Track List:
01. Listen 0:21
02. The Slap 6:29
03. All Hail 6:19
04. Sick Notes 3:51
05. The High Bar 4:03
06. Hypnotic 7:51
07. To And Fro 4:08
08. Cerchi 4:03
09. Hey Weirdo! 4:42
10. Stratification 2:52
11. Wonder And Delusion 7:37

Maria Denami – vocals
Clara Weil – vocals
Matthieu Mazue - electric piano, grand piano, synth, electric organ
Nicolas Klee – electric and acoustic bass, bass synth
Enrico Pedicone – vibraphone, drums, percussions and live electronics
Jacopo Costa – vocals, vibraphone, drums, percussions and live electronics

Loomings - Hey Weirdo! (2019)

Exact Audio Copy V1.3 from 2. September 2016

Отчёт EAC об извлечении, выполненном 15. июня 2019, 15:56

Loomings / Hey Weirdo!

Дисковод: ASUS DRW-24B3ST Adapter: 1 ID: 0

Режим чтения : Достоверность
Использование точного потока : Да
Отключение кэша аудио : Да
Использование указателей C2 : Нет

Коррекция смещения при чтении : 6
Способность читать области Lead-in и Lead-out : Нет
Заполнение пропущенных сэмплов тишиной : Да
Удаление блоков с тишиной в начале и конце : Нет
При вычислениях CRC использовались нулевые сэмплы : Да
Интерфейс : Встроенный Win32-интерфейс для Win NT/2000

Выходной формат : Пользовательский кодировщик
Выбранный битрейт : 1024 kBit/s
Качество : Высокий
Добавление ID3-тега : Нет
Утилита сжатия : C:\Program Files (x86)\Exact Audio Copy\Flac\flac.exe
Дополнительные параметры : -V -8 -T "Date=%year%" -T "Genre=%genre%" %source%


TOC извлечённого CD

Трек | Старт | Длительность | Начальный сектор | Конечный сектор
––––––––––––––––––––––––––––––––––-
1 | 0:00.00 | 0:20.49 | 0 | 1548
2 | 0:20.49 | 6:28.58 | 1549 | 30706
3 | 6:49.32 | 6:19.19 | 30707 | 59150
4 | 13:08.51 | 3:51.34 | 59151 | 76509
5 | 17:00.10 | 4:03.23 | 76510 | 94757
6 | 21:03.33 | 7:50.67 | 94758 | 130074
7 | 28:54.25 | 4:07.38 | 130075 | 148637
8 | 33:01.63 | 4:03.22 | 148638 | 166884
9 | 37:05.10 | 4:42.16 | 166885 | 188050
10 | 41:47.26 | 2:51.58 | 188051 | 200933
11 | 44:39.09 | 7:37.10 | 200934 | 235218


Характеристики диапазона извлечения и сообщения об ошибках

Выбранный диапазон

Имя файла C:\Torrents - C\Sweet D'Buster - 1978 - Friction\Loomings - Hey Weirdo!.wav

Пиковый уровень 99.8 %
Скорость извлечения 8.0 X
Качество диапазона 100.0 %
CRC теста 730A12C9
CRC копии 730A12C9
Копирование… OK

Ошибок не произошло


AccurateRip: сводка

Трек 1 отсутствует в базе данных
Трек 2 отсутствует в базе данных
Трек 3 отсутствует в базе данных
Трек 4 отсутствует в базе данных
Трек 5 отсутствует в базе данных
Трек 6 отсутствует в базе данных
Трек 7 отсутствует в базе данных
Трек 8 отсутствует в базе данных
Трек 9 отсутствует в базе данных
Трек 10 отсутствует в базе данных
Трек 11 отсутствует в базе данных

Ни одного трека нет в базе AccurateRip

Конец отчёта

==== Контрольная сумма отчёта 5EF4618A84E596BA2F3AC336D89EA97D0FC2D4A874F5128ED095DB596D824E46 ====

All thanks go to the Копысов

More Music in My Blog
Follow My RSS Channel