Subcategories

Lou Donaldson - Sunny Side Up (2011)

Posted By: Domestos
Lou Donaldson - Sunny Side Up (2011)

Lou Donaldson - Sunny Side Up (2011)
XLD Rip | FLAC (tracks+.cue, log) ~ 265.45 Mb | 44:56 | Covers
Hard Bop | Country: USA | Label: Analogue Productions (CBNJ 84036 SA)

Sunny Side Up is closer to hard bop than the straight-ahead bop that characterized Lou Donaldson's '50s Blue Note records. There's a bit more soul to the songs here, which pianist Horace Parlan helps emphasize with his lightly swinging grooves. The pair help lead the group – which also features trumpeter Bill Hardman, drummer Al Harewood and bassist Sam Jones (Laymon Jackson plays bass on two of the eight songs) – through a mellow set of standards and bluesy originals from Donaldson and Parlan. Even the uptempo numbers sound relaxed, never fiery. Despite the general smoothness of the session, Donaldson stumbles a little – the quotation of "Flight of the Bumblebee" on "Blues for J.P." is awkward, as is the snippet of "Pop Goes the Weasel" on "Politely," and "Way Down Upon the Swanee River" sounds lazy – but there's enough solid material to make Sunny Side Up a worthwhile listen for fans of Donaldson and early-'60s hard bop. ~ AllMusic Review by Stephen Thomas Erlewine

Lou Donaldson - alto saxophone
Bill Hardman - trumpet
Horace Parlan - piano
Laymon Jackson (#1-2), Sam Jones (#3-8) - bass
Al Harewood - drums

Recorded at the Van Gelder Studio, Englewood Cliffs, NJ on February 5 (#3-8) and February 28 (#1-2), 1960.

Track List:
01. Blues for J.P. (Parlan) - 5:41
02. The Man I Love (Gershwin) - 5:16
03. Politely (Hardman) - 5:54
04. It's You or No One (Styne-Cahn) - 3:59
05. The Truth (Donaldson) - 5:22
06. Goose Grease (Donaldson) - 6:11
07. Softly as in a Morning Sunrise (Romberg-Hammerstein) - 6:35
08. Way Down Upon the Swanee River (Foster) - 5:58

Lou Donaldson - Sunny Side Up (2011)

X Lossless Decoder version 20110821 (136.1)

XLD extraction logfile from 2011-09-09 18:55:06 +1000

Lou Donaldson / Sunny Side Up

Used drive : OPTIARC DVD RW AD-5680H (revision 3AHB)

Ripper mode : XLD Secure Ripper
Disable audio cache : OK for the drive with a cache less than 1375KiB
Make use of C2 pointers : NO
Read offset correction : 48
Max retry count : 100
Gap status : Analyzed, Appended

TOC of the extracted CD
Track | Start | Length | Start sector | End sector
––––––––––––––––––––––––––––-
1 | 00:00:00 | 05:40:71 | 0 | 25570
2 | 05:40:71 | 05:16:09 | 25571 | 49279
3 | 10:57:05 | 05:53:46 | 49280 | 75800
4 | 16:50:51 | 03:58:64 | 75801 | 93714
5 | 20:49:40 | 05:22:09 | 93715 | 117873
6 | 26:11:49 | 06:10:42 | 117874 | 145665
7 | 32:22:16 | 06:34:70 | 145666 | 175285
8 | 38:57:11 | 05:58:12 | 175286 | 202147

AccurateRip Summary
Track 01 : Not Found
Track 02 : Not Found
Track 03 : Not Found
Track 04 : Not Found
Track 05 : Not Found
Track 06 : Not Found
Track 07 : Not Found
Track 08 : Not Found
->0 track(s) accurately ripped, 0 track(s) not, 8 track(s) not found

All Tracks
Album gain : -1.45 dB
Peak : 0.906952
Statistics
Read error : 0
Jitter error (maybe fixed) : 0
Retry sector count : 0
Damaged sector count : 0

Track 01
Filename : /Users/dbarnier/Music/XLD/01 - Blues for J.P..flac
Pre-gap length : 00:02:00

Track gain : -1.04 dB
Peak : 0.613342
CRC32 hash (test run) : FB5D934F
CRC32 hash : FB5D934F
CRC32 hash (skip zero) : C83BFF87
AccurateRip signature : 70C06EF1
->Track not present in AccurateRip database.
Statistics
Read error : 0
Jitter error (maybe fixed) : 0
Retry sector count : 0
Damaged sector count : 0

Track 02
Filename : /Users/dbarnier/Music/XLD/02 - The Man I Love.flac
Pre-gap length : 00:01:17

Track gain : -0.07 dB
Peak : 0.656555
CRC32 hash (test run) : 966ABB0C
CRC32 hash : 966ABB0C
CRC32 hash (skip zero) : 4143ED6F
AccurateRip signature : 92E00BAF
->Track not present in AccurateRip database.
Statistics
Read error : 0
Jitter error (maybe fixed) : 0
Retry sector count : 0
Damaged sector count : 0

Track 03
Filename : /Users/dbarnier/Music/XLD/03 - Politely.flac
Pre-gap length : 00:00:21

Track gain : -3.34 dB
Peak : 0.906952
CRC32 hash (test run) : 51C03612
CRC32 hash : 51C03612
CRC32 hash (skip zero) : 9100C091
AccurateRip signature : E91B62DF
->Track not present in AccurateRip database.
Statistics
Read error : 0
Jitter error (maybe fixed) : 0
Retry sector count : 0
Damaged sector count : 0

Track 04
Filename : /Users/dbarnier/Music/XLD/04 - It's You or No One.flac
Pre-gap length : 00:01:46

Track gain : -1.41 dB
Peak : 0.652771
CRC32 hash (test run) : 841B55C8
CRC32 hash : 841B55C8
CRC32 hash (skip zero) : 49E0D986
AccurateRip signature : EA7967B7
->Track not present in AccurateRip database.
Statistics
Read error : 0
Jitter error (maybe fixed) : 0
Retry sector count : 0
Damaged sector count : 0

Track 05
Filename : /Users/dbarnier/Music/XLD/05 - The Truth.flac
Pre-gap length : 00:00:21

Track gain : 0.42 dB
Peak : 0.583649
CRC32 hash (test run) : 9A1464AE
CRC32 hash : 9A1464AE
CRC32 hash (skip zero) : 2F1BA3A2
AccurateRip signature : 9F2B9762
->Track not present in AccurateRip database.
Statistics
Read error : 0
Jitter error (maybe fixed) : 0
Retry sector count : 0
Damaged sector count : 0

Track 06
Filename : /Users/dbarnier/Music/XLD/06 - Goose Grease.flac
Pre-gap length : 00:01:56

Track gain : -0.99 dB
Peak : 0.790497
CRC32 hash (test run) : 88DBC21B
CRC32 hash : 88DBC21B
CRC32 hash (skip zero) : 7F8BC3B9
AccurateRip signature : D67317C2
->Track not present in AccurateRip database.
Statistics
Read error : 0
Jitter error (maybe fixed) : 0
Retry sector count : 0
Damaged sector count : 0

Track 07
Filename : /Users/dbarnier/Music/XLD/07 - Softly As in a Morning Sunrise.flac
Pre-gap length : 00:00:21

Track gain : -0.87 dB
Peak : 0.634155
CRC32 hash (test run) : 79FFC293
CRC32 hash : 79FFC293
CRC32 hash (skip zero) : 58D1D501
AccurateRip signature : 7BB8F952
->Track not present in AccurateRip database.
Statistics
Read error : 0
Jitter error (maybe fixed) : 0
Retry sector count : 0
Damaged sector count : 0

Track 08
Filename : /Users/dbarnier/Music/XLD/08 - Way Down upon the Swanee River.flac
Pre-gap length : 00:00:21

Track gain : -1.72 dB
Peak : 0.775604
CRC32 hash (test run) : 624D8418
CRC32 hash : 624D8418
CRC32 hash (skip zero) : 3C63E5B6
AccurateRip signature : F8001448
->Track not present in AccurateRip database.
Statistics
Read error : 0
Jitter error (maybe fixed) : 0
Retry sector count : 0
Damaged sector count : 0

No errors occurred

End of status report

All thanks go to the What.CD

More Music in My Blog
Follow My RSS Channel