Low Cut Connie - Dirty Pictures (Part 1) (2017)

Posted By: delpotro
Low Cut Connie - Dirty Pictures (Part 1) (2017)

Low Cut Connie - Dirty Pictures (Part 1) (2017)
EAC Rip | FLAC (tracks+log+.cue) | 00:32:06 | 228 Mb
Blues Rock, Rock'n'Roll | Label: Contender Records

The Connies traveled to Memphis to record at Ardent Studios, where the Replacements and Big Star made great records, and their mix of Seventies Stones (but dirtier), the New York Dolls (but tighter) and Jerry Lee Lewis (but Westerberg-ier) comes with an extra sense of bare-knuckled grit and sonic thwump to fight against the darkness. "Revolution Rock & Roll" is a slamming gospel-tinged get-woke anthem, while the strikingly spare piano ballad "Montreal" evokes Big Star's "Thirteen" and Dylan's "It's All Over Now, Baby Blue," and turns on the lines "I gave conjunctivitis to a girl in a bar/I gave conjunctivitis like a star."
Tracklist:
1 Revolution Rock n Roll
2 Dirty Water
3 Death and Destruction
4 Montreal
5 Angela
6 Love Life
7 Am I Wrong?
8 Controversy
9 Forever
10 What Size Shoe

Exact Audio Copy V1.3 from 2. September 2016

EAC extraction logfile from 13. August 2017, 17:43

Low Cut Connie / Dirty Pictures (Part 1)

Used drive : TSSTcorpDVD+-RW SH-216DB Adapter: 1 ID: 0

Read mode : Secure
Utilize accurate stream : Yes
Defeat audio cache : Yes
Make use of C2 pointers : No

Read offset correction : 6
Overread into Lead-In and Lead-Out : No
Fill up missing offset samples with silence : Yes
Delete leading and trailing silent blocks : No
Null samples used in CRC calculations : Yes
Used interface : Native Win32 interface for Win NT & 2000
Gap handling : Appended to previous track

Used output format : Internal WAV Routines
Sample format : 44.100 Hz; 16 Bit; Stereo


TOC of the extracted CD

Track | Start | Length | Start sector | End sector
––––––––––––––––––––––––––––-
1 | 0:00.00 | 3:09.21 | 0 | 14195
2 | 3:09.21 | 3:23.39 | 14196 | 29459
3 | 6:32.60 | 2:33.47 | 29460 | 40981
4 | 9:06.32 | 2:17.62 | 40982 | 51318
5 | 11:24.19 | 3:31.38 | 51319 | 67181
6 | 14:55.57 | 2:19.29 | 67182 | 77635
7 | 17:15.11 | 3:02.33 | 77636 | 91318
8 | 20:17.44 | 2:57.30 | 91319 | 104623
9 | 23:14.74 | 3:57.20 | 104624 | 122418
10 | 27:12.19 | 4:54.47 | 122419 | 144515


Track 1

Filename C:\EAC Rips\Processing\Low Cut Connie - 2017 - Dirty Pictures (Part 1) [FLAC] {Contender CON 104-2}\01 - Revolution Rock n Roll.wav

Pre-gap length 0:00:02.00

Peak level 99.9 %
Extraction speed 1.6 X
Track quality 100.0 %
Test CRC BC31B77B
Copy CRC BC31B77B
Accurately ripped (confidence 1) [4DD2A592] (AR v2)
Copy OK

Track 2

Filename C:\EAC Rips\Processing\Low Cut Connie - 2017 - Dirty Pictures (Part 1) [FLAC] {Contender CON 104-2}\02 - Dirty Water.wav

Peak level 100.0 %
Extraction speed 1.5 X
Track quality 99.9 %
Test CRC 57226007
Copy CRC 57226007
Accurately ripped (confidence 1) [DECB7F17] (AR v2)
Copy OK

Track 3

Filename C:\EAC Rips\Processing\Low Cut Connie - 2017 - Dirty Pictures (Part 1) [FLAC] {Contender CON 104-2}\03 - Death and Destruction.wav

Peak level 99.3 %
Extraction speed 1.8 X
Track quality 100.0 %
Test CRC 1B15FE21
Copy CRC 1B15FE21
Accurately ripped (confidence 1) [2CAE4E8F] (AR v2)
Copy OK

Track 4

Filename C:\EAC Rips\Processing\Low Cut Connie - 2017 - Dirty Pictures (Part 1) [FLAC] {Contender CON 104-2}\04 - Montreal.wav

Peak level 69.8 %
Extraction speed 1.8 X
Track quality 100.0 %
Test CRC 53094F03
Copy CRC 53094F03
Accurately ripped (confidence 1) [3B50A71E] (AR v2)
Copy OK

Track 5

Filename C:\EAC Rips\Processing\Low Cut Connie - 2017 - Dirty Pictures (Part 1) [FLAC] {Contender CON 104-2}\05 - Angela.wav

Peak level 99.5 %
Extraction speed 1.8 X
Track quality 99.9 %
Test CRC F8B82112
Copy CRC F8B82112
Accurately ripped (confidence 1) [3A696A70] (AR v2)
Copy OK

Track 6

Filename C:\EAC Rips\Processing\Low Cut Connie - 2017 - Dirty Pictures (Part 1) [FLAC] {Contender CON 104-2}\06 - Love Life.wav

Peak level 99.3 %
Extraction speed 2.1 X
Track quality 100.0 %
Test CRC 01502414
Copy CRC 01502414
Accurately ripped (confidence 1) [42B8A6CA] (AR v2)
Copy OK

Track 7

Filename C:\EAC Rips\Processing\Low Cut Connie - 2017 - Dirty Pictures (Part 1) [FLAC] {Contender CON 104-2}\07 - Am I Wrong.wav

Peak level 98.5 %
Extraction speed 2.3 X
Track quality 100.0 %
Test CRC DB6A7E12
Copy CRC DB6A7E12
Accurately ripped (confidence 1) [D9292945] (AR v2)
Copy OK

Track 8

Filename C:\EAC Rips\Processing\Low Cut Connie - 2017 - Dirty Pictures (Part 1) [FLAC] {Contender CON 104-2}\08 - Controversy.wav

Peak level 98.7 %
Extraction speed 2.4 X
Track quality 100.0 %
Test CRC 8D457352
Copy CRC 8D457352
Accurately ripped (confidence 1) [43A1A1AD] (AR v2)
Copy OK

Track 9

Filename C:\EAC Rips\Processing\Low Cut Connie - 2017 - Dirty Pictures (Part 1) [FLAC] {Contender CON 104-2}\09 - Forever.wav

Peak level 97.9 %
Extraction speed 2.6 X
Track quality 100.0 %
Test CRC 962BFF47
Copy CRC 962BFF47
Accurately ripped (confidence 1) [D3A01F6B] (AR v2)
Copy OK

Track 10

Filename C:\EAC Rips\Processing\Low Cut Connie - 2017 - Dirty Pictures (Part 1) [FLAC] {Contender CON 104-2}\10 - What Size Shoe.wav

Peak level 99.5 %
Extraction speed 2.8 X
Track quality 100.0 %
Test CRC 1FC499B1
Copy CRC 1FC499B1
Accurately ripped (confidence 1) [0294194A] (AR v2)
Copy OK


All tracks accurately ripped

No errors occurred

End of status report

–– CUETools DB Plugin V2.1.6

[CTDB TOCID: thpsJqTwGpZ6CEYX9WM7blLMWqQ-] found
Submit result: thpsJqTwGpZ6CEYX9WM7blLMWqQ- has been confirmed
Track | CTDB Status
1 | (5/5) Accurately ripped
2 | (5/5) Accurately ripped
3 | (5/5) Accurately ripped
4 | (5/5) Accurately ripped
5 | (5/5) Accurately ripped
6 | (5/5) Accurately ripped
7 | (5/5) Accurately ripped
8 | (5/5) Accurately ripped
9 | (5/5) Accurately ripped
10 | (5/5) Accurately ripped


==== Log checksum E7DB76752CAC13AF2954584F8FB7AE91575D622EF8C56230DFB46664D342C7CD ====

Thanks to the Original ripper gnomby !