Subcategories

Lynyrd Skynyrd - Skynyrd's Innyrds/Their Greatest Hits (1989)

Posted By: muddboogers
Lynyrd Skynyrd - Skynyrd's Innyrds/Their Greatest Hits (1989)

Lynyrd Skynyrd - Skynyrd's Innyrds/Their Greatest Hits (1989)
EAC | FLAC IMG+CUE+LOG | Scans | RAR 3% Recovery | 457 MB
Classic Rock / Southern Rock | 1989 MCA Records #MCAD-42293

Skynyrd's Innyrds: Their Greatest Hits comes close to being a solid single-disc overview of the Southern rockers' biggest hits, but it falls short in a number of important ways. Most notably, "Free Bird" is not in either its studio or live incarnations; it's presented as an outtake, something that will only be of interest to hardcore Lynyrd Skynyrd fans, just like the outtake of "Double Trouble." Also, several major songs – "Down South Jukin'," "You Got That Right," "Whiskey Rock-a-Roller," "Simple Man," "Tuesday's Gone," "I Know a Little" – are missing, with album cuts in their place. That said, it has most of the big hits – "Sweet Home Alabama," "Gimme Three Steps," "Saturday Night Special," "What's Your Name," "That Smell," plus "Workin' for MCA" and "Call Me the Breeze," which were not on Gold & Platinum – which is enough to make it a good sampler, even if it doesn't provide as complete an introduction as Gold & Platinum. ~ Stephen Thomas Erlewine, allmusic.com
Tracklist:
1. Sweet Home Alabama
2. Swamp Music
3. I Ain't The One
4. Gimme Three Steps
5. Double Trouble (Outtake Version)
6. Free Bird (Outtake Version)
7. Truck Drivin' Man
8. Saturday Night Special
9. Workin' For MCA
10. What's Your Name
11. That Smell
12. Don't Ask Me No Questions
13. Call Me The Breeze

Exact Audio Copy V1.0 beta 3 from 29. August 2011

EAC extraction logfile from 17. December 2011, 18:35

Lynyrd Skynyrd / Skynyrd's Innyrds/Their Greatest Hits

Used drive : TDK CDRW4800B Adapter: 2 ID: 1

Read mode : Secure
Utilize accurate stream : Yes
Defeat audio cache : Yes
Make use of C2 pointers : No

Read offset correction : 6
Overread into Lead-In and Lead-Out : No
Fill up missing offset samples with silence : Yes
Delete leading and trailing silent blocks : No
Null samples used in CRC calculations : Yes
Used interface : Native Win32 interface for Win NT & 2000

Used output format : Internal WAV Routines
Sample format : 44.100 Hz; 16 Bit; Stereo


TOC of the extracted CD

Track | Start | Length | Start sector | End sector
––––––––––––––––––––––––––––-
1 | 0:00.00 | 4:43.37 | 0 | 21261
2 | 4:43.37 | 3:31.63 | 21262 | 37149
3 | 8:15.25 | 3:52.65 | 37150 | 54614
4 | 12:08.15 | 4:27.42 | 54615 | 74681
5 | 16:35.57 | 2:52.20 | 74682 | 87601
6 | 19:28.02 | 10:07.50 | 87602 | 133176
7 | 29:35.52 | 5:18.08 | 133177 | 157034
8 | 34:53.60 | 5:09.17 | 157035 | 180226
9 | 40:03.02 | 4:45.00 | 180227 | 201601
10 | 44:48.02 | 3:31.45 | 201602 | 217471
11 | 48:19.47 | 5:48.20 | 217472 | 243591
12 | 54:07.67 | 3:25.30 | 243592 | 258996
13 | 57:33.22 | 5:09.58 | 258997 | 282229


Range status and errors

Selected range

Filename E:\[# AvaxHome ~ muddboogers #]\Lynyrd Skynyrd - Skynyrd's Innyrds–Their Greatest Hits.wav

Peak level 97.7 %
Extraction speed 9.0 X
Range quality 100.0 %
Test CRC FD75AA71
Copy CRC FD75AA71
Copy OK

No errors occurred


AccurateRip summary

Track 1 accurately ripped (confidence 10) [710623B7] (AR v1)
Track 2 accurately ripped (confidence 9) [0D3C290B] (AR v1)
Track 3 accurately ripped (confidence 9) [70D70801] (AR v1)
Track 4 accurately ripped (confidence 10) [8094F760] (AR v1)
Track 5 accurately ripped (confidence 9) [464410C8] (AR v1)
Track 6 accurately ripped (confidence 9) [B0262E9A] (AR v1)
Track 7 accurately ripped (confidence 9) [C709B4E3] (AR v1)
Track 8 accurately ripped (confidence 9) [99BC5C02] (AR v1)
Track 9 accurately ripped (confidence 9) [15FAF526] (AR v1)
Track 10 accurately ripped (confidence 9) [CBAECAEE] (AR v1)
Track 11 accurately ripped (confidence 8) [5248DE8B] (AR v1)
Track 12 accurately ripped (confidence 9) [A0D255AE] (AR v1)
Track 13 accurately ripped (confidence 8) [01A61546] (AR v1)

All tracks accurately ripped

End of status report

==== Log checksum B37D43EE0F014D724845507A403B68926810BB7EE8176C40FF2CCE8CC43EA594 ====

[CUETools log; Date: 12/17/2011 6:41:25 PM; Version: 2.1.2a]
[CTDB TOCID: bbBwKOMif8W7civX0L4Ng37ecLI-] found.
[ CTDBID ] Status
[95e086a1] (8/8) Accurately ripped
[AccurateRip ID: 001dbfcb-012d143c-c20eb30d] found.
Track [ CRC ] Status
01 [710623b7] (10/10) Accurately ripped
02 [0d3c290b] (09/09) Accurately ripped
03 [70d70801] (09/09) Accurately ripped
04 [8094f760] (10/10) Accurately ripped
05 [464410c8] (09/09) Accurately ripped
06 [b0262e9a] (09/09) Accurately ripped
07 [c709b4e3] (09/09) Accurately ripped
08 [99bc5c02] (09/09) Accurately ripped
09 [15faf526] (09/09) Accurately ripped
10 [cbaecaee] (09/09) Accurately ripped
11 [5248de8b] (08/08) Accurately ripped
12 [a0d255ae] (09/09) Accurately ripped
13 [01a61546] (08/08) Accurately ripped

Track Peak [ CRC32 ] [W/O NULL] [ LOG ]
– 97.7 [FD75AA71] [1F3438BE] CRC32
01 85.2 [A366B2D2] [1805A14C]
02 79.4 [DDBECDC1] [13761735]
03 83.0 [004A3FA3] [BD85F3A8]
04 93.6 [A7B302A8] [13CE4911]
05 97.7 [4A0CEEA6] [465D16BC]
06 93.3 [9418934E] [36418A0C]
07 93.7 [1C2809AE] [DA97D8E3]
08 74.9 [704064A0] [5CF78D74]
09 85.2 [BA9BA8F8] [805271D0]
10 69.1 [33B23B7A] [DDF48E1C]
11 87.4 [5EC3C992] [583E0F65]
12 69.7 [4E7BFB60] [D70F048A]
13 71.8 [0C091B43] [DD4281DD]

–––––––––––-

DON'T MODIFY THIS FILE

–––––––––––-

PERFORMER: auCDtect Task Manager, ver. 1.5.1RC6 build 1.5.1.7
Copyright © 2008-2010 y-soft. All rights reserved
http://y-soft.org

ANALYZER: auCDtect: CD records authenticity detector, version 0.8.2
Copyright © 2004 Oleg Berngardt. All rights reserved.
Copyright © 2004 Alexander Djourik. All rights reserved.


FILE: Lynyrd Skynyrd - Skynyrd's Innyrds–Their Greatest Hits.flac
Size: 394346829 Hash: CA453D337F242ACD99E729D9E80DB577 Accuracy: -m0
Conclusion: CDDA 100%
Signature: A97913114B3CCF1810ACC4223E0F3DE4B20B0B7A
FILE: Lynyrd Skynyrd - Skynyrd's Innyrds–Their Greatest Hits.wav
Size: 663805004 Hash: CA453D337F242ACD99E729D9E80DB577 Accuracy: -m0
Conclusion: CDDA 100%
Signature: 8AEDB096DA6B5A79B84E0578FA0AF389DFA1D995
FileSonic
Part 1 | Part 2

FileServe
Part 1 | Part 2

Interchangeable archives

Password: www.AvaxHome.ws