M. Kiske & A. Somerville - Kiske/Somerville (2010) [album + video clips]

Posted By: stfine
M. Kiske & A. Somerville - Kiske/Somerville (2010) [album + video clips]

M. Kiske & A. Somerville - Kiske/Somerville (2010) [album + video clips]
FLAC image + cue + log + scans | 00:53:19 | 450 MB (+3%)
VOB | MPEG 6000 Kbps 720 x 480 at 29.970 fps | PCM 2 ch 48.0 KHz | 247 + 226 MB (+3%)
Melodic Heavy Metal, AOR | Label: Frontiers Records, FR CD 479 | Released: September 24, 2010

A collaboration between Metal vocalist Michael Kiske (Helloween, Place Vendome) and American singer Amanda Somerville. Eighteen months in the making, a massive production, two videoclips and one documentary, the Kiske-Somerville collaboration album has all the trademarks of a real Rock event in 2010.

Read more at Wikipedia
Listen to samples on Amazon

Tracklist

1. Nothing Left To Say [04:37]
2. Silence [06:20]
3. If I Had A Wish [04:20]
4. Arise [03:15]
5. End Of The Road [05:11]
6. Don't Walk Away [04:30]
7. A Thousand Suns [03:58]
8. Rain [03:47]
9. One Night Burning [04:04]
10. Devil In Her Heart [04:25]
11. Second Chance [04:55]
12. Set Afire [03:57]

Total time 00:53:19

Exact Audio Copy V0.99 prebeta 4 from 23. January 2008

Отчёт EAC об извлечении, выполненном 26. сентября 2010, 0:23

Kiske / Somerville / Kiske / Somerville

Дисковод: _NEC DVD_RW ND-3500AG Adapter: 3 ID: 0

Режим чтения : Достоверность
Использование точного потока : Да
Отключение кэша аудио : Да
Использование указателей C2 : Нет

Коррекция смещения при чтении : 48
Способность читать области Lead-in и Lead-out : Нет
Заполнение пропущенных сэмплов тишиной : Да
Удаление блоков с тишиной в начале и конце : Нет
При вычислениях CRC использовались нулевые сэмплы : Да
Интерфейс : Установленный внешний ASPI-интерфейс

Выходной формат : Внутренние WAV-операции
Формат сэмплов : 44.100 Гц; 16 бит; стерео


TOC извлечённого CD

Трек | Старт | Длительность | Начальный сектор | Конечный сектор
––––––––––––––––––––––––––––––––––-
1 | 0:00.00 | 4:37.06 | 0 | 20780
2 | 4:37.06 | 6:20.41 | 20781 | 49321
3 | 10:57.47 | 4:20.48 | 49322 | 68869
4 | 15:18.20 | 3:15.08 | 68870 | 83502
5 | 18:33.28 | 5:11.14 | 83503 | 106841
6 | 23:44.42 | 4:30.29 | 106842 | 127120
7 | 28:14.71 | 3:58.01 | 127121 | 144971
8 | 32:12.72 | 3:47.33 | 144972 | 162029
9 | 36:00.30 | 4:04.46 | 162030 | 180375
10 | 40:05.01 | 4:25.36 | 180376 | 200286
11 | 44:30.37 | 4:55.61 | 200287 | 222472
12 | 49:26.23 | 3:58.08 | 222473 | 240330


Характеристики диапазона извлечения и сообщения об ошибках

Выбранный диапазон

Имя файла D:\Kiske Somerville - Kiske Somerville.wav

Пиковый уровень 98.9 %
Качество диапазона 99.9 %
CRC теста D32B02BE
CRC копии D32B02BE
Копирование… OK

Ошибок не произошло


AccurateRip: сводка

Трек 1 нет в базе данных
Трек 2 нет в базе данных
Трек 3 нет в базе данных
Трек 4 нет в базе данных
Трек 5 нет в базе данных
Трек 6 нет в базе данных
Трек 7 нет в базе данных
Трек 8 нет в базе данных
Трек 9 нет в базе данных
Трек 10 нет в базе данных
Трек 11 нет в базе данных
Трек 12 нет в базе данных

Ни одного трека нет в базе AccurateRip

Конец отчёта

M. Kiske & A. Somerville - Kiske/Somerville (2010) [album + video clips]


(filesonic.com)
Download part 1 | Download part 2 | Download part 3 | Download part 4

(hotfile.com)
Download part 1 | Download part 2 | Download part 3 | Download part 4

(fileserve.com)
Download part 1 | Download part 2 | Download part 3 | Download part 4

(shareflare.net)
Download part 1 | Download part 2 | Download part 3 | Download part 4



– Video clips –

M.Kiske & A.Somerville - If I Had A Wish (247 MB)
Video: MPEG at 6 017 Kbps, aspect 720 x 480 (1.333) at 29.970 fps, length 4mn 24s
Audio: PCM at 1 536 Kbps, 2 channels, 48.0 KHz

M. Kiske & A. Somerville - Kiske/Somerville (2010) [album + video clips]

(filesonic.com)
Download part 1 | Download part 2

(hotfile.com)
Download part 1 | Download part 2

(fileserve.com)
Download part 1 | Download part 2



M.Kiske & A.Somerville - M.Kiske & A.Somerville - Silence (226 MB)
Video: MPEG at 6 010 Kbps, aspect 720 x 480 (1.778) at 29.970 fps, length 4mn 2s
Audio: PCM at 1 536 Kbps, 2 channels, 48.0 KHz

M. Kiske & A. Somerville - Kiske/Somerville (2010) [album + video clips]

(filesonic.com)
Download part 1 | Download part 2

(hotfile.com)
Download part 1 | Download part 2

(fileserve.com)
Download part 1 | Download part 2



Very many thanks to kuzsasha and trixter!!!

Enjoy my blog >