Subcategories

Mal Waldron - In Retrospect (1982) {Baybridge Records Japan TECW-20694 rel 1998}

Posted By: ruskaval
Mal Waldron - In Retrospect (1982) {Baybridge Records Japan TECW-20694 rel 1998}

Mal Waldron - In Retrospect (1982) {Baybridge Records Japan TECW-20694 rel 1998}
EAC rip (secure mode) | FLAC (tracks)+CUE+LOG -> 234 Mb | MP3 @320 -> 90 Mb
Full Artwork @ 300 dpi (jpg) -> 31 Mb | 5% repair rar
© 1982, 1998 Baybridge Records Japan | TECW-20694
Jazz / Post Bop / Piano

Mal Waldron is accompanied by a trio of Japanese players for this fine album, recorded in Japan in 1982. As the title suggests, it's a look back, celebrating one of Waldron's key influences, Thelonious Monk. "Blue Monk" is given a relaxed and regal treatment, as Waldron's bedrock chording supports the higher register melody played in tandem on piano and sax. The set as a whole has a bluesy feel to it, with "I Can't Get Started" gliding along as gracefully as a solitary ice skater in a light snowfall. Waldron's varied discography has found him recording for numerous labels, especially in the '70s and '80s, and this date didn't find a U.S. release until eight years after it was recorded; however, it's well worth adding to any Waldron collection.
Mal Waldron - In Retrospect (1982) {Baybridge Records Japan TECW-20694 rel 1998}


Musicians
Mal Waldron - piano
Akira Miyazawa - tenor saxophone, flute
Isao Suzuki - bass
Hironobu Fujisawa - drums

Recorded at the Tecichiku Kaikan Studio, April 23rd 1982

Track Listing
01 - All Alone
02 - Oleo
03 - Blue Monk
04 - I Can't Get Started
05 - Straight No Chaser

EAC extraction logfile from 15. August 2010, 0:17 for CD
Mal Waldron / IN RETROSPECT

Used drive : HP DVD Writer 1170d Adapter: 1 ID: 2
Read mode : Secure with NO C2, accurate stream, disable cache
Read offset correction : 6
Overread into Lead-In and Lead-Out : No

Used output format : C:\Eac\Codecs\flac.exe (User Defined Encoder)
320 kBit/s
Additional command line options : -8 -V -T "artist=%a" -T "title=%t" -T "album=%g" -T "date=%y" -T "tracknumber=%n" -T "genre=%m" -T "comment=EAC Flac 1.1.2 -8" %s

Other options :
Fill up missing offset samples with silence : Yes
Delete leading and trailing silent blocks : No
Installed external ASPI interface


Track 1
Filename C:\Documents and Settings\mal\01 - All Alone.wav

Pre-gap length 0:00:02.00

Peak level 98.8 %
Track quality 100.0 %
Test CRC C20E26A1
Copy CRC C20E26A1
Copy OK

Track 2
Filename C:\Documents and Settings\mal\02 - Oleo.wav

Pre-gap length 0:00:01.89

Peak level 98.8 %
Track quality 100.0 %
Test CRC BFE6045D
Copy CRC BFE6045D
Copy OK

Track 3
Filename C:\Documents and Settings\mal\03 - Blue Monk.wav

Pre-gap length 0:00:01.90

Peak level 98.8 %
Track quality 99.9 %
Test CRC 31DAD107
Copy CRC 31DAD107
Copy OK

Track 4
Filename C:\Documents and Settings\mal\04 - I Can't Get Started.wav

Pre-gap length 0:00:01.90

Peak level 93.2 %
Track quality 100.0 %
Test CRC 18A2A188
Copy CRC 18A2A188
Copy OK

Track 5
Filename C:\Documents and Settings\mal\05 - Straight No Chaser.wav

Pre-gap length 0:00:01.89

Peak level 98.8 %
Track quality 100.0 %
Test CRC 77883456
Copy CRC 77883456
Copy OK

No errors occured


End of status report


Mal Waldron - In Retrospect (1982) {Baybridge Records Japan TECW-20694 rel 1998}

Mal Waldron - In Retrospect (1982) {Baybridge Records Japan TECW-20694 rel 1998}



===