Subcategories

Malia - Black Orchid (2012) {EmArcy-Universal 06025 2786059}

Posted By: ruskaval
Malia - Black Orchid (2012) {EmArcy-Universal 06025 2786059}

Malia - Black Orchid (2012) {EmArcy-Universal 06025 2786059}
EAC rip (secure mode) | FLAC (tracks)+CUE+LOG -> 307 Mb | MP3 @320 -> 122 Mb
Full Artwork @ 300 dpi (png) -> 51 Mb | 5% repair rar
© 2012 EmArcy / Universal Music / Malia | 06025 2786059
Jazz / Vocal Jazz / Neo Soul / Soul Jazz / Jazz Pop

A tribute to her musical hero, Nina Simone, Black Orchid is the fourth studio album from British-Malawi jazz vocalist and protegee of Nouvelle Star judge Andre Manoukian, Malia. The self-produced follow-up to 2007's Young Bones includes 13 interpretations of the legendary singer's biggest hits, including "My Baby Just Cares for Me," "Feeling Good," and "I Put a Spell on You."

tracklist:
01 - My Baby Just Cares For Me
02 - Don't Explain
03 - Baltimore
04 - Feeling Good
05 - Four Women
06 - I love You Porgy
07 - If You Go Away
08 - I Put A Spell On You
09 - Keeper Of The Flame
10 - He Ain't Comin' Home No More
11 - Marriage Is For Old Folks
12 - Wild Is The Wind
13 - That's All I Want From You

Exact Audio Copy V1.0 beta 3 from 29. August 2011

EAC extraction logfile from 28. April 2012, 14:43

Malia / Black Orchid

Used drive : PLEXTOR DVDR PX-860A Adapter: 0 ID: 0

Read mode : Secure
Utilize accurate stream : Yes
Defeat audio cache : Yes
Make use of C2 pointers : No

Read offset correction : 96
Overread into Lead-In and Lead-Out : No
Fill up missing offset samples with silence : Yes
Delete leading and trailing silent blocks : No
Null samples used in CRC calculations : Yes
Used interface : Native Win32 interface for Win NT & 2000
Gap handling : Appended to previous track

Used output format : User Defined Encoder
Selected bitrate : 1024 kBit/s
Quality : High
Add ID3 tag : No
Command line compressor : C:\Program Files\Exact Audio Copy\Flac\flac.exe
Additional command line options : -8 -V -T "ARTIST=%artist%" -T "TITLE=%title%" -T "ALBUM=%albumtitle%" -T "DATE=%year%" -T "TRACKNUMBER=%tracknr%" -T "GENRE=%genre%" -T "PERFORMER=%albuminterpret%" -T "COMPOSER=%composer%" %haslyrics%–tag-from-file=LYRICS="%lyricsfile%"%haslyrics% -T "ALBUMARTIST=%albumartist%" -T "DISCNUMBER=%cdnumber%" -T "TOTALDISCS=%totalcds%" -T "TOTALTRACKS=%numtracks%" -T "COMMENT=%comment%" %source% -o %dest%


TOC of the extracted CD

Track | Start | Length | Start sector | End sector
––––––––––––––––––––––––––––-
1 | 0:00.00 | 2:37.39 | 0 | 11813
2 | 2:37.39 | 4:51.51 | 11814 | 33689
3 | 7:29.15 | 5:03.59 | 33690 | 56473
4 | 12:32.74 | 2:57.14 | 56474 | 69762
5 | 15:30.13 | 5:48.48 | 69763 | 95910
6 | 21:18.61 | 3:23.41 | 95911 | 111176
7 | 24:42.27 | 3:14.44 | 111177 | 125770
8 | 27:56.71 | 4:07.44 | 125771 | 144339
9 | 32:04.40 | 4:06.57 | 144340 | 162846
10 | 36:11.22 | 3:08.68 | 162847 | 177014
11 | 39:20.15 | 2:14.21 | 177015 | 187085
12 | 41:34.36 | 7:16.29 | 187086 | 219814
13 | 48:50.65 | 3:11.13 | 219815 | 234152


Track 1

Filename I:\DL\Malia - Black Orchid (2012) [FLAC]\01 - My Baby Just Cares For Me.wav

Pre-gap length 0:00:02.00

Peak level 88.3 %
Extraction speed 4.0 X
Track quality 100.0 %
Test CRC 7B675A32
Copy CRC 7B675A32
Accurately ripped (confidence 3) [5730C129] (AR v2)
Copy OK

Track 2

Filename I:\DL\Malia - Black Orchid (2012) [FLAC]\02 - Don't Explain.wav

Pre-gap length 0:00:01.32

Peak level 98.8 %
Extraction speed 4.8 X
Track quality 100.0 %
Test CRC 182D98D3
Copy CRC 182D98D3
Accurately ripped (confidence 3) [FAA2D58C] (AR v2)
Copy OK

Track 3

Filename I:\DL\Malia - Black Orchid (2012) [FLAC]\03 - Baltimore.wav

Pre-gap length 0:00:03.98

Peak level 98.8 %
Extraction speed 4.8 X
Track quality 99.9 %
Test CRC 844D73B1
Copy CRC 844D73B1
Accurately ripped (confidence 3) [637BAF09] (AR v2)
Copy OK

Track 4

Filename I:\DL\Malia - Black Orchid (2012) [FLAC]\04 - Feeling Good.wav

Pre-gap length 0:00:03.20

Peak level 97.3 %
Extraction speed 5.3 X
Track quality 100.0 %
Test CRC AFBB45E1
Copy CRC AFBB45E1
Accurately ripped (confidence 3) [4F2310D2] (AR v2)
Copy OK

Track 5

Filename I:\DL\Malia - Black Orchid (2012) [FLAC]\05 - Four Women.wav

Pre-gap length 0:00:03.57

Peak level 98.8 %
Extraction speed 6.1 X
Track quality 100.0 %
Test CRC 93C4D346
Copy CRC 93C4D346
Accurately ripped (confidence 3) [51DFD847] (AR v2)
Copy OK

Track 6

Filename I:\DL\Malia - Black Orchid (2012) [FLAC]\06 - I love You Porgy.wav

Pre-gap length 0:00:01.68

Peak level 98.8 %
Extraction speed 6.0 X
Track quality 100.0 %
Test CRC F1F9CD3F
Copy CRC F1F9CD3F
Accurately ripped (confidence 3) [15EE82F1] (AR v2)
Copy OK

Track 7

Filename I:\DL\Malia - Black Orchid (2012) [FLAC]\07 - If You Go Away.wav

Pre-gap length 0:00:01.65

Peak level 98.7 %
Extraction speed 6.2 X
Track quality 100.0 %
Test CRC E202B041
Copy CRC E202B041
Accurately ripped (confidence 3) [C8208FBE] (AR v2)
Copy OK

Track 8

Filename I:\DL\Malia - Black Orchid (2012) [FLAC]\08 - I Put A Spell On You.wav

Pre-gap length 0:00:02.12

Peak level 98.8 %
Extraction speed 6.6 X
Track quality 100.0 %
Test CRC 98328D7D
Copy CRC 98328D7D
Accurately ripped (confidence 3) [38D85F2D] (AR v2)
Copy OK

Track 9

Filename I:\DL\Malia - Black Orchid (2012) [FLAC]\09 - Keeper Of The Flame.wav

Pre-gap length 0:00:01.34

Peak level 99.9 %
Extraction speed 6.9 X
Track quality 100.0 %
Test CRC EA39A781
Copy CRC EA39A781
Accurately ripped (confidence 3) [550AAB01] (AR v2)
Copy OK

Track 10

Filename I:\DL\Malia - Black Orchid (2012) [FLAC]\10 - He Ain't Comin' Home No More.wav

Pre-gap length 0:00:03.06

Peak level 95.5 %
Extraction speed 6.0 X
Track quality 99.9 %
Test CRC B84502DB
Copy CRC B84502DB
Accurately ripped (confidence 3) [68141AF2] (AR v2)
Copy OK

Track 11

Filename I:\DL\Malia - Black Orchid (2012) [FLAC]\11 - Marriage Is For Old Folks.wav

Pre-gap length 0:00:02.76

Peak level 88.7 %
Extraction speed 6.6 X
Track quality 100.0 %
Test CRC 7C808158
Copy CRC 7C808158
Accurately ripped (confidence 3) [631788EA] (AR v2)
Copy OK

Track 12

Filename I:\DL\Malia - Black Orchid (2012) [FLAC]\12 - Wild Is The Wind.wav

Pre-gap length 0:00:03.38

Peak level 98.9 %
Extraction speed 7.5 X
Track quality 99.9 %
Test CRC 35E56F9E
Copy CRC 35E56F9E
Accurately ripped (confidence 3) [3D4804C9] (AR v2)
Copy OK

Track 13

Filename I:\DL\Malia - Black Orchid (2012) [FLAC]\13 - That's All I Want From You.wav

Pre-gap length 0:00:02.68

Peak level 88.9 %
Extraction speed 7.6 X
Track quality 100.0 %
Test CRC 9AB8153A
Copy CRC 9AB8153A
Accurately ripped (confidence 3) [A428E663] (AR v2)
Copy OK


All tracks accurately ripped

No errors occurred

End of status report

–– CUETools DB Plugin V2.1.3

[CTDB TOCID: gXM5Mvcm6J5qiE4GFTv8g8V0l.4-] found, Submit result: gXM5Mvcm6J5qiE4GFTv8g8V0l.4- has been confirmed
[ee1c9fc2] (5/6) Accurately ripped
[fe4ad1ce] (1/6) No match


==== Log checksum B04A93411F6EED1DAC64DAAFCFAD0BBEBE28C3FA4CC824F3BDE3A7463FE2DA74 ====


Malia - Black Orchid (2012) {EmArcy-Universal 06025 2786059}

Malia - Black Orchid (2012) {EmArcy-Universal 06025 2786059}


All thanks goes to dtromp!

see also:
Malia - Yellow Daffodils (2003) {Epic 503369/5 - bonus tracks}



===