Subcategories

Maria Callas - 100 Best Classics (2006)

Posted By: delpotro
Maria Callas - 100 Best Classics (2006)

Maria Callas - 100 Best Classics (2006)
EAC Rip | FLAC (tracks+log+.cue) | 07:46:11 | 1,59 Gb
Classical, Vocal, Opera | Label: EMI Classics

EMI's generous compilation of 100 tracks from its archive of recordings by Maria Callas makes a fine introduction to her legacy. Callas' voice isn't consistent throughout, but when she's at her best, it's easy to hear the musical and dramatic power that made her the most legendary opera singer of the 20th century. She is impressive often enough that it's not hard to forgive the performances that are less than stellar. The six-disc collection is intelligently organized, with each disc dedicated to a particular composer (or several composers) or a theme: Bellini; Donizetti and Rossini; Verdi; Puccini; French operatic heroines; and dramatic heroines. Particularly on the discs dedicated to composers the tracks come from complete recordings of the operas and it's gratifying to be able to hear her ability to flesh out a role based on more than a single aria. The operas included encompass both soprano and mezzo-soprano roles. Among the most satisfying selections are those taken from Carmen, La sonnambula, Il barbiere di Siviglia, and Aida. In some of the excerpts, Callas is joined by some of the most illustrious singers of her generation, including Tito Gobbi, Giuseppe di Stefano, Fiorenza Cossotto, Anna Moffo, Richard Tucker, Christa Ludwig, and Nicolai Gedda. The conductors include her mentor, Tullio Serafin, Nicola Rescigno, Herbert von Karajan, and Georges Prêtre. EMI provides useful information about the performers and the dates of performance so that dedicated listeners can track down the sources of these selections. The recordings were made between 1953 and 1965, including some live performances, so the sound quality varies considerably, but it's mostly very good and never bad enough to get in the way of the music.
Tracklist:
Disc 1 (01:15:56)
1. Antonino Votto, Orchestra Del Teatro Alla Scala Di Milan & Maria Callas – La Sonnambula, Act I: Come per me sereno (02:31)
2. Antonino Votto, Franco Ricciardi, Eugenia Ratti, Orchestra Del Teatro Alla Scala Di Milan, Giuseppe Morresi, Fiorenza Cossotto, Coro del Teatro alla Scala di Milano & Maria Callas – La Sonnambula, Act I, Scene 1: Sovra il sen la man mi posa (Alessio/Amina/Lisa/Teresa/Coro/Notaro) (02:38)
3. Antonino Votto, Eugenia Ratti, Orchestra Del Teatro Alla Scala Di Milan, Giuseppe Morresi, Nicola Monti, Coro del Teatro alla Scala di Milano & Maria Callas – La Sonnambula, Act I, Scene 2: D'un pensiero e d'un accento (Amina/Elvino/Coro/Alessio/Teresa) (05:22)
4. Antonino Votto, Orchestra Del Teatro Alla Scala Di Milan, Nicola Monti & Maria Callas – La Sonnambula, Act II, Scene 2: Ah! non credea mirarti (Amina/Elvino) (04:45)
5. Antonino Votto, Orchestra Del Teatro Alla Scala Di Milan, Coro del Teatro alla Scala di Milano & Maria Callas – La Sonnambula, Act II, Scene 2: Ah! non giunge uman pensiero (Amina/Tutti) (04:08)
6. Vittore Veneziani, Tullio Serafin, Nicola Rossi-Lemeni, Orchestra Del Teatro Alla Scala Di Milan, Carlo Forti, Giuseppe di Stefano, Coro del Teatro alla Scala di Milano, Aurora Cattelani & Maria Callas – I Puritani, Act I, Scena terza: Son vergin vezzosa (Elvira/Enrichetta/Arturo/Giorgio/Valton/Coro) (03:35)
7. Vittore Veneziani, Tullio Serafin, Nicola Rossi-Lemeni, Rolando Panerai, Orchestra Del Teatro Alla Scala Di Milan, Angelo Mercuriale, Coro del Teatro alla Scala di Milano & Maria Callas – I Puritani, Act I, Scena terza: Ah, vieni al tempio … fedele Arturo (Elvira/Bruno/Coro/Riccardo/Giorgio) (04:54)
8. Tullio Serafin, Nicola Rossi-Lemeni, Rolando Panerai, Orchestra Del Teatro Alla Scala Di Milan & Maria Callas – I Puritani, Act II: Qui la voce - extract (Elvira, Giorgio, Riccardo) (08:37)
9. Tullio Serafin, Orchestra Del Teatro Alla Scala Di Milan & Maria Callas – I Puritani, Act II: Vien diletto, è in ciel la luna (Elvira) (02:48)
10. Tullio Serafin, Orchestra Del Teatro Alla Scala Di Milan, Giuseppe di Stefano & Maria Callas – I Puritani, Act III: Ch'ei provò lontan da me? (03:08)
11. Tullio Serafin, Orchestra Del Teatro Alla Scala Di Milan, Giuseppe di Stefano & Maria Callas – I Puritani, Act III: Vieni, fra queste braccia (Elvira/Arturo) (02:43)
12. Tullio Serafin, Orchestra Del Teatro Alla Scala Di Milan, Coro del Teatro alla Scala di Milano & Maria Callas – Norma, Act I, Scene 1: Casta Diva - extract (Norma/Coro) (05:32)
13. Tullio Serafin, Orchestra Del Teatro Alla Scala Di Milan, Christa Ludwig & Maria Callas – Norma, Act II, Scene 1: Mira, o Norma (Norma/Adalgisa) (04:16)
14. Tullio Serafin, Orchestra Del Teatro Alla Scala Di Milan, Christa Ludwig & Maria Callas – Norma, Act II, Scene 1: Cedi! … deh! cedi! (Adalgisa/Norma) (03:12)
15. Nicola Zaccaria, Tullio Serafin, Orchestra Del Teatro Alla Scala Di Milan, Noberto Mola, Piero de Palma, Coro del Teatro alla Scala di Milano, Franco Corelli & Maria Callas – Norma, Act II, Scene 3: Qual cor tradisti, qual cor perdesti (Coro/Norma/Pollione/Oroveso) (05:05)
16. Nicola Zaccaria, Tullio Serafin, Orchestra Del Teatro Alla Scala Di Milan, Coro del Teatro alla Scala di Milano, Franco Corelli & Maria Callas – Norma, Act II, Scene 3: Deh! non volerli vittime (Coro/Norma/Pollione/Oroveso) (04:44)
17. Nicola Rescigno, Philharmonia Orchestra & Maria Callas – Il Pirata, Act II: Col sorriso d'innocenza (03:41)
18. Nicola Rescigno, Philharmonia Orchestra, Philharmonia Chorus & Maria Callas – Il Pirata: Quel suono…Oh, Sole! (Imogene/Coro) (04:17)

Disc 2 (01:17:16)
1. Tullio Serafin, Orchestra del Maggio Musicale Fiorentino, Anna Maria Canali & Maria Callas – Lucia di Lammermoor, Act I: Regnava nel silenzio…Quando rapito in estasi (08:02)
2. Tullio Serafin, Orchestra del Maggio Musicale Fiorentino, Valiano Natali, Tito Gobbi, Giuseppe di Stefano, Coro del Maggio Musicale Fiorentino, Anna Maria Canali, Maria Callas & Raffaele Arie – Lucia di Lammermoor, Act II, Scene 2: Chi mi frena in tal momento (Edgardo/Enrico/Lucia/Raimondo/Arturo/Alisa/Coro) (03:36)
3. Tullio Serafin, Orchestra del Maggio Musicale Fiorentino, Tito Gobbi, Coro del Maggio Musicale Fiorentino, Maria Callas & Raffaele Arie – Lucia di Lammermoor, Act III, Scene 1: Spargi d'amaro pianto (Lucia/Raimondo/Coro/Enrico) (03:50)
4. Orchestra Del Teatro Alla Scala Di Milan, Gianandrea Gavazzeni & Maria Callas – Il Turco in Italia, Act I: Non si da follia maggiore (03:39)
5. Nicola Rossi-Lemeni, Orchestra Del Teatro Alla Scala Di Milan, Gianandrea Gavazzeni & Maria Callas – Il Turco in Italia, Act I: Serva…Servo (03:39)
6. Orchestra Del Teatro Alla Scala Di Milan, Gianandrea Gavazzeni, Maria Callas & Franco Calabrese – Il Turco in Italia, Act I: No, mia vita, mio tesoro (03:43)
7. Nicola Rossi-Lemeni, Orchestra Del Teatro Alla Scala Di Milan, Gianandrea Gavazzeni & Maria Callas – Il turco in Italia: Credete alla femmine…In Italia certamente (Selim/Fiorilla) (05:08)
8. Philharmonia Orchestra, Alceo Galliera & Maria Callas – Il Barbiere di Siviglia: Una voce poco fa (06:20)
9. Philharmonia Orchestra, Tito Gobbi, Alceo Galliera & Maria Callas – Il Barbiere di Siviglia: Dunque io son (05:14)
10. Nicola Rescigno, Orchestre de la Société des concerts du Conservatoire & Maria Callas – Semiramide, Act I: Bel raggio lusinghier (08:38)
11. Nicola Rescigno, Orchestre de la Société des concerts du Conservatoire & Maria Callas – Gugliemo Tell, Act II: Selva opaca (05:15)
12. Nicola Rescigno, Orchestre de la Société des concerts du Conservatoire & Maria Callas – La Cenerentola, Act II: Non più mesta - extract (Angelina) (02:37)
13. Nicola Rescigno, Orchestre de la Société des concerts du Conservatoire & Maria Callas – L'Elisir d'amore, Act II: Prendi, per me sei libero (03:36)
14. Nicola Rescigno, Orchestre de la Société des concerts du Conservatoire & Maria Callas – La figlia del reggimento, Act I: Convien partir (04:06)
15. Nicola Rescigno, Philharmonia Orchestra & Maria Callas – Anna Bolena: Al dolce guidami castel natio (04:26)
16. Nicola Rescigno, Orchestre de la Société des concerts du Conservatoire & Maria Callas – Lucrezia Borgia, Act I: Com'è bello (Lucrezia) (05:27)

Disc 3 (01:15:33)
1. Tullio Serafin, Philharmonia Orchestra & Maria Callas – I vespri Siciliani: Mercè, dilette amiche (Bolero) (04:02)
2. Tullio Serafin, Orchestra Del Teatro Alla Scala Di Milan, Carlo Forti, Renato Ercolani, William Dickie & Maria Callas – Rigoletto, Act I, Scene 2: Gualtier Maldè …Caro nome (Gilda/Borsa/Ceprano/Marullo) (07:30)
3. Tullio Serafin, Orchestra Del Teatro Alla Scala Di Milan, Tito Gobbi & Maria Callas – Rigoletto: V'ho ingannato…Lassù in cielo (Rigoletto/Gilda) (04:43)
4. Orquesta Sinfonica del Teatro Nacional de Santa Carlos, Lisboa, Franco Ghione & Maria Callas – La Traviata: Ah, fors'è lui (03:18)
5. Tullio Serafin, Orchestra Del Teatro Alla Scala Di Milan & Maria Callas – Aida: Ritorna vincitor! (06:40)
6. Tullio Serafin, Orchestra Del Teatro Alla Scala Di Milan & Maria Callas – Aida, Act III: Qui Radamès verrà!…O patria mia (Aida) (06:59)
7. Richard Tucker, Tullio Serafin, Orchestra Del Teatro Alla Scala Di Milan, Coro del Teatro alla Scala di Milano, Maria Callas & Fedora Barbieri – Aida: O terra addio (04:53)
8. Orchestra Del Teatro Alla Scala Di Milan, Herbert von Karajan & Maria Callas – Il Trovatore, Act I Scene 2: Tacea la notte placida (06:02)
9. Orchestra Del Teatro Alla Scala Di Milan, Herbert von Karajan, Coro del Teatro alla Scala di Milano & Maria Callas – Il Trovatore, Act IV Scene 1: D'amor sull'ali rosee (Leonora) (04:08)
10. Antonino Votto, Orchestra Del Teatro Alla Scala Di Milan & Maria Callas – Un ballo in maschera: Ecco l'orrido campo…Ma dall'arido stelo divulsa (06:43)
11. Antonino Votto, Orchestra Del Teatro Alla Scala Di Milan, Giuseppe di Stefano & Maria Callas – Un ballo in maschera: Non sai tu che se l'anima mia (Ricardo, Amelia) (03:38)
12. Nicola Rescigno, Orchestre de la Société des concerts du Conservatoire & Maria Callas – I Lombardi alla prima crociata, Act II: O Madre dal ciel soccorri (03:57)
13. Nicola Rescigno, Orchestre de la Société des concerts du Conservatoire & Maria Callas – Aroldo, Act I: Ciel, ch'io respiri!…Salvami, salvami tu gran dio (03:23)
14. Nicola Rescigno, Orchestre de la Société des concerts du Conservatoire & Maria Callas – Don Carlo, Act II: Non pianger, mia compagna (04:50)
15. Nicola Rescigno, Orchestre de la Société des concerts du Conservatoire & Maria Callas – Otello, Act IV: Ave Maria (04:47)

Disc 4 (01:16:11)
1. Tullio Serafin, Philharmonia Orchestra & Maria Callas – Manon Lescaut: In quelle trine morbide (02:53)
2. Tullio Serafin, Philharmonia Orchestra & Maria Callas – Manon Lescaut: Sola, perduta, abbandonata (05:52)
3. Antonino Votto, Orchestra Del Teatro Alla Scala Di Milan, Giuseppe di Stefano & Maria Callas – La Bohème, Act I: Sì. mi chiamano Mimì (Mimì/Rodolfo) (04:56)
4. Nicola Zaccaria, Antonino Votto, Manuel Spatafora, Rolando Panerai, Orchestra Del Teatro Alla Scala Di Milan, Giuseppe di Stefano & Maria Callas – La Bohème, Act I: O soave fanciulla (Rodolfo/Mimì) (04:06)
5. Antonino Votto, Orchestra Del Teatro Alla Scala Di Milan & Maria Callas – La Bohème: Donde lieta uscì al tuo grido d'amore (Mimì) (03:20)
6. Antonino Votto, Rolando Panerai, Orchestra Del Teatro Alla Scala Di Milan, Anna Moffo, Giuseppe di Stefano & Maria Callas – La Bohème: Dunque è proprio finita? (Rodolfo/Mimì/Marcello/Musetta) (05:50)
7. Orchestra Del Teatro Alla Scala Di Milan, Giuseppe di Stefano, Victor De Sabata, Coro del Teatro alla Scala di Milano & Maria Callas – Tosca, Act I: Non la sospiri, la nostra casetta (02:24)
8. Orchestra Del Teatro Alla Scala Di Milan, Victor De Sabata & Maria Callas – Tosca, Act II: Vissi d'arte (Tosca) (03:16)
9. Orchestra Del Teatro Alla Scala Di Milan, Giuseppe di Stefano, Victor De Sabata & Maria Callas – Tosca, Act III: Senti, l'ora è vicina…Amaro sol per te (Tosca/Cavaradossi) (03:26)
10. Orchestra Del Teatro Alla Scala Di Milan, Herbert von Karajan, Coro del Teatro alla Scala di Milano, Maria Callas & Mario Borriello – Madama Butterfly, Act I: Quanto cielo!…Ancora un passo o via (03:00)
11. Orchestra Del Teatro Alla Scala Di Milan, Herbert von Karajan, Nicolai Gedda & Maria Callas – Madama Butterfly: Vogliatemi bene, un bene piccolino (07:21)
12. Orchestra Del Teatro Alla Scala Di Milan, Herbert von Karajan & Maria Callas – Madama Butterfly, Act II: Un bel di vedremo (04:39)
13. Orchestra Del Teatro Alla Scala Di Milan, Herbert von Karajan, Nicolai Gedda & Maria Callas – Madama Butterfly, Act II: Con onor muore (05:20)
14. Tullio Serafin, Philharmonia Orchestra & Maria Callas – Suor Angelica: Senza mamma, O bimbo (05:32)
15. Tullio Serafin, Philharmonia Orchestra & Maria Callas – Gianni Schicchi: O mio babbino caro (02:33)
16. Tullio Serafin, Philharmonia Orchestra & Maria Callas – Turandot, Act I: Signore, ascolta! (02:29)
17. Tullio Serafin, Philharmonia Orchestra & Maria Callas – Turandot, Act II: In questa Reggia (06:23)
18. Tullio Serafin, Philharmonia Orchestra & Maria Callas – Turandot, Act III: Tu, che di gel sei cinta (02:51)

Disc 5 (01:17:33)
1. Georges Prêtre, Orchestre National de la Radiodiffusion Francaise & Maria Callas – Orphée et Eurydice: J'ai perdu mon Eurydice (04:28)
2. Georges Prêtre, Orchestre National de la Radiodiffusion Francaise & Maria Callas – Alceste: Divinités du Styx (04:28)
3. Georges Prêtre, Orchestre de l'Opéra National de Paris, Choeurs Rene Duclos & Maria Callas – Carmen, Act I: L'amour est un oiseau rebelle (Habanera) (04:23)
4. Georges Prêtre, Orchestre de l'Opéra National de Paris, Nicolai Gedda & Maria Callas – Carmen, Act I: Séguidille: Près des ramparts de Séville (04:36)
5. Georges Prêtre, Orchestre de l'Opéra National de Paris & Maria Callas – Carmen, Act II: Chanson bohème: les tringles des sistres tintaient (04:23)
6. Nadine Sautereau, Georges Prêtre, Choeurs Rene Duclos, Choeurs et Orchestre de l'Opéra National de Paris, Maria Callas & Jane Berbie – Carmen: Carreau! Pique! (Card Scene) (03:43)
7. Georges Prêtre, Orchestre National de la Radiodiffusion Francaise & Maria Callas – Roméo et Juliette: Je veux vivre (Waltz) (03:43)
8. Georges Prêtre, Orchestre National de la Radiodiffusion Francaise & Maria Callas – Mignon: Ah, pour ce soir…Je suis Titania (Polonaise) (05:14)
9. Georges Prêtre, Orchestre de la Société des concerts du Conservatoire & Maria Callas – La Damnation de Faust, Op. 24: D'amour l'ardente flamme (08:16)
10. Georges Prêtre, Orchestre de la Société des concerts du Conservatoire & Maria Callas – Werther: Werther! Qui m'aurait dit la place… Des cris joyeux (Air des lettres) (07:07)
11. Georges Prêtre, Orchestre de la Société des concerts du Conservatoire & Maria Callas – Faust: Un bouquet!…Ah! je ris (Jewel song) (05:33)
12. Georges Prêtre, Orchestre National de la Radiodiffusion Francaise & Maria Callas – Samson et Dalila: Printemps qui commence (05:18)
13. Georges Prêtre, Orchestre National de la Radiodiffusion Francaise & Maria Callas – Samson et Dalila: Mon coeur s'ouvre à ta voix (05:21)
14. Georges Prêtre, Orchestre de la Société des concerts du Conservatoire & Maria Callas – Manon: Je ne suis que faiblesse….Adieu, notre petite table (03:23)
15. Georges Prêtre, Orchestre de la Société des concerts du Conservatoire & Maria Callas – Manon: Suis-je gentille ainsi? … Je marche sur tous les chemins (02:53)
16. Georges Prêtre, Orchestre National de la Radiodiffusion Francaise & Maria Callas – Louise: Depuis le jour où je me suis donnée (04:44)

Disc 6 (01:17:56)
1. Tullio Serafin, Philharmonia Orchestra & Maria Callas – Andrea Chenier: La Mamma Morta (04:53)
2. Tullio Serafin, Philharmonia Orchestra & Maria Callas – Adriana Lecouvreur: Ecco: respiro appena…Io son l'umile ancella (03:48)
3. Tullio Serafin, Philharmonia Orchestra & Maria Callas – Adriana Lecouvreur: Poveri fiori (03:13)
4. Ebe Ticozzi, Tullio Serafin, Orchestra Del Teatro Alla Scala Di Milan & Maria Callas – Cavalleria Rusticana: Voi lo sapete (04:20)
5. Tullio Serafin, Orchestra Del Teatro Alla Scala Di Milan & Maria Callas – Pagliacci, Scene 2: Qual fiamma avea nel guardo…Hui! Stridono lassu (Meditazione di Nedda) (04:39)
6. Tullio Serafin, Philharmonia Orchestra & Maria Callas – Mefistofele: L'altra notte in fondo al mare (07:25)
7. Tullio Serafin, Philharmonia Orchestra & Maria Callas – La Wally: Ebben?…Ne andrò lontana (04:52)
8. Tullio Serafin, Orchestra Del Teatro Alla Scala Di Milan & Maria Callas – Medea: Dei tuoi figla la madre (04:46)
9. Tullio Serafin, Orchestra Del Teatro Alla Scala Di Milan & Maria Callas – La Vestale: O nome tutelar (02:30)
10. Tullio Serafin, Orchestra Del Teatro Alla Scala Di Milan & Maria Callas – La Vestale: Caro oggetto (03:45)
11. Georges Prêtre, Orchestre de la Société des concerts du Conservatoire & Maria Callas – Iphigénie en Tauride: O malheureuse Iphigénie! (04:28)
12. Nicola Rescigno, Orchestre de la Société des concerts du Conservatoire & Maria Callas – Don Giovanni, K. 527: Or sai chi l'onore (03:14)
13. Nicola Rescigno, Orchestre de la Société des concerts du Conservatoire & Maria Callas – Don Giovanni, K. 527: In quali eccessi, O Numi!…Mi tradi quell'alma ingrata (06:32)
14. Georges Prêtre, Orchestre National de la Radiodiffusion Francaise & Maria Callas – Le Cid: De cet affreux combat….Pleurez, mes yeux (06:05)
15. Antonino Votto, Orchestra Del Teatro Alla Scala Di Milan & Maria Callas – La Gioconda, Act IV: Suicidio! (04:16)
16. Nicola Rescigno, Orchestre de la Société des concerts du Conservatoire & Maria Callas – Un Ballo in Maschera, Act III: Morrò, ma prima in grazia (04:25)
17. Nicola Rescigno, Orchestre de la Société des concerts du Conservatoire & Maria Callas – Don Carlo, Act III: O don fatale (04:45)

Exact Audio Copy V1.3 from 2. September 2016

EAC extraction logfile from 9. October 2017, 22:34

Maria Callas / Maria Callas 100 Best Classics Disc 1

Used drive : TSSTcorpDVD+-RW TS-H653B Adapter: 1 ID: 0

Read mode : Secure
Utilize accurate stream : Yes
Defeat audio cache : Yes
Make use of C2 pointers : No

Read offset correction : 6
Overread into Lead-In and Lead-Out : No
Fill up missing offset samples with silence : Yes
Delete leading and trailing silent blocks : No
Null samples used in CRC calculations : Yes
Used interface : Native Win32 interface for Win NT & 2000
Gap handling : Appended to previous track

Used output format : User Defined Encoder
Selected bitrate : 1024 kBit/s
Quality : High
Add ID3 tag : No
Command line compressor : C:\Program Files (x86)\Exact Audio Copy\Flac\flac.exe
Additional command line options : -8 -e -p -V -T "ARTIST=%artist%" -T "TITLE=%title%" -T "ALBUM=%albumtitle%" -T "DATE=%year%" -T "TRACKNUMBER=%tracknr%" -T "GENRE=%genre%" -T "PERFORMER=%albuminterpret%" -T "COMPOSER=%composer%" %haslyrics%–tag-from-file=LYRICS="%lyricsfile%"%haslyrics% -T "ALBUMARTIST=%albumartist%" -T "DISCNUMBER=%cdnumber%" -T "TOTALDISCS=%totalcds%" -T "TOTALTRACKS=%numtracks%" -T "COMMENT=%comment%" %source% -o %dest%


TOC of the extracted CD

Track | Start | Length | Start sector | End sector
––––––––––––––––––––––––––––-
1 | 0:00.00 | 2:33.54 | 0 | 11528
2 | 2:33.54 | 2:41.43 | 11529 | 23646
3 | 5:15.22 | 5:26.34 | 23647 | 48130
4 | 10:41.56 | 4:48.33 | 48131 | 69763
5 | 15:30.14 | 4:14.20 | 69764 | 88833
6 | 19:44.34 | 3:39.66 | 88834 | 105324
7 | 23:24.25 | 4:59.37 | 105325 | 127786
8 | 28:23.62 | 8:37.18 | 127787 | 166579
9 | 37:01.05 | 2:51.34 | 166580 | 179438
10 | 39:52.39 | 3:08.17 | 179439 | 193555
11 | 43:00.56 | 2:49.12 | 193556 | 206242
12 | 45:49.68 | 5:36.02 | 206243 | 231444
13 | 51:25.70 | 4:16.08 | 231445 | 250652
14 | 55:42.03 | 3:15.48 | 250653 | 265325
15 | 58:57.51 | 5:08.33 | 265326 | 288458
16 | 64:06.09 | 4:49.25 | 288459 | 310158
17 | 68:55.34 | 3:41.22 | 310159 | 326755
18 | 72:36.56 | 4:17.24 | 326756 | 346054


Track 1

Filename C:\Users\user\Music\EAC Rips\100 Best Classics\ 01 - La Somnambula - Come per me sereno.wav

Pre-gap length 0:00:02.00

Peak level 85.8 %
Extraction speed 3.3 X
Track quality 99.9 %
Test CRC 43503807
Copy CRC 43503807
Accurately ripped (confidence 4) [8A2929A8] (AR v2)
Copy OK

Track 2

Filename C:\Users\user\Music\EAC Rips\100 Best Classics\ 02 - La Somnambula - Sovra il sen la man mi posa.wav

Pre-gap length 0:00:02.26

Peak level 95.2 %
Extraction speed 4.7 X
Track quality 100.0 %
Test CRC 5C7B5EBD
Copy CRC 5C7B5EBD
Accurately ripped (confidence 4) [566CE705] (AR v2)
Copy OK

Track 3

Filename C:\Users\user\Music\EAC Rips\100 Best Classics\ 03 - La Somnambula - D'un pensiero.wav

Pre-gap length 0:00:02.92

Peak level 85.1 %
Extraction speed 5.6 X
Track quality 100.0 %
Test CRC E5154039
Copy CRC E5154039
Accurately ripped (confidence 4) [9FE02A4C] (AR v2)
Copy OK

Track 4

Filename C:\Users\user\Music\EAC Rips\100 Best Classics\ 04 - La Somnambula - Ah! non credea mirarti.wav

Pre-gap length 0:00:03.72

Peak level 54.4 %
Extraction speed 6.0 X
Track quality 100.0 %
Test CRC F77AD1E9
Copy CRC F77AD1E9
Accurately ripped (confidence 4) [783CB6C0] (AR v2)
Copy OK

Track 5

Filename C:\Users\user\Music\EAC Rips\100 Best Classics\ 05 - La Somnambula - Ah! non giunge.wav

Pre-gap length 0:00:02.98

Peak level 98.6 %
Extraction speed 5.1 X
Track quality 99.9 %
Test CRC CD465140
Copy CRC CD465140
Accurately ripped (confidence 4) [A4FB182A] (AR v2)
Copy OK

Track 6

Filename C:\Users\user\Music\EAC Rips\100 Best Classics\ 06 - I puritani - Son vergin vezzosa.wav

Pre-gap length 0:00:05.41

Peak level 58.0 %
Extraction speed 6.5 X
Track quality 100.0 %
Test CRC 1364E378
Copy CRC 1364E378
Accurately ripped (confidence 4) [E1C263CD] (AR v2)
Copy OK

Track 7

Filename C:\Users\user\Music\EAC Rips\100 Best Classics\ 07 - I puritani - Ah vieni al tempio.wav

Pre-gap length 0:00:04.06

Peak level 58.5 %
Extraction speed 7.1 X
Track quality 100.0 %
Test CRC 6431E33C
Copy CRC 6431E33C
Accurately ripped (confidence 4) [682F423B] (AR v2)
Copy OK

Track 8

Filename C:\Users\user\Music\EAC Rips\100 Best Classics\ 08 - I puritani - Qui la voce.wav

Pre-gap length 0:00:04.54

Peak level 58.2 %
Extraction speed 7.0 X
Track quality 99.9 %
Test CRC 82F40994
Copy CRC 82F40994
Accurately ripped (confidence 4) [1EA3CAD9] (AR v2)
Copy OK

Track 9

Filename C:\Users\user\Music\EAC Rips\100 Best Classics\ 09 - I puritani - Vien, diletto.wav

Peak level 75.7 %
Extraction speed 7.3 X
Track quality 100.0 %
Test CRC 4CF16D89
Copy CRC 4CF16D89
Accurately ripped (confidence 4) [FBFD65BE] (AR v2)
Copy OK

Track 10

Filename C:\Users\user\Music\EAC Rips\100 Best Classics\ 10 - I puritani - Ch'ei provò lontan da me.wav

Pre-gap length 0:00:03.17

Peak level 69.0 %
Extraction speed 5.7 X
Track quality 99.9 %
Test CRC C8636D29
Copy CRC C8636D29
Accurately ripped (confidence 4) [A917664E] (AR v2)
Copy OK

Track 11

Filename C:\Users\user\Music\EAC Rips\100 Best Classics\ 11 - I puritani - Vieni fra queste braccia.wav

Peak level 56.1 %
Extraction speed 7.6 X
Track quality 100.0 %
Test CRC 468AB0C3
Copy CRC 468AB0C3
Accurately ripped (confidence 4) [A1D3CBEF] (AR v2)
Copy OK

Track 12

Filename C:\Users\user\Music\EAC Rips\100 Best Classics\ 12 - Norma - Casta Diva.wav

Pre-gap length 0:00:06.00

Peak level 69.9 %
Extraction speed 8.6 X
Track quality 100.0 %
Test CRC E5A46B82
Copy CRC E5A46B82
Accurately ripped (confidence 4) [C312D51B] (AR v2)
Copy OK

Track 13

Filename C:\Users\user\Music\EAC Rips\100 Best Classics\ 13 - Norma - Mira, o Norma.wav

Pre-gap length 0:00:03.56

Peak level 76.4 %
Extraction speed 8.6 X
Track quality 100.0 %
Test CRC 159A7C11
Copy CRC 159A7C11
Accurately ripped (confidence 4) [A628BCC2] (AR v2)
Copy OK

Track 14

Filename C:\Users\user\Music\EAC Rips\100 Best Classics\ 14 - Norma - Cedi, deh cedi! Sì, fino all'ore.wav

Peak level 98.1 %
Extraction speed 8.2 X
Track quality 100.0 %
Test CRC B87088B0
Copy CRC B87088B0
Accurately ripped (confidence 4) [97046FF7] (AR v2)
Copy OK

Track 15

Filename C:\Users\user\Music\EAC Rips\100 Best Classics\ 15 - Norma - Qual cor tradisti.wav

Pre-gap length 0:00:03.28

Peak level 63.4 %
Extraction speed 7.5 X
Track quality 99.9 %
Test CRC 1B7CFD9C
Copy CRC 1B7CFD9C
Accurately ripped (confidence 4) [278422C4] (AR v2)
Copy OK

Track 16

Filename C:\Users\user\Music\EAC Rips\100 Best Classics\ 16 - Norma - Deh! Non volerli vittime.wav

Pre-gap length 0:00:03.28

Peak level 79.5 %
Extraction speed 9.4 X
Track quality 100.0 %
Test CRC 7A54BB21
Copy CRC 7A54BB21
Accurately ripped (confidence 4) [6F9766C9] (AR v2)
Copy OK

Track 17

Filename C:\Users\user\Music\EAC Rips\100 Best Classics\ 17 - Il pirata - Col sorriso d'innocenza.wav

Pre-gap length 0:00:05.20

Peak level 86.5 %
Extraction speed 9.2 X
Track quality 100.0 %
Test CRC 7EC297C0
Copy CRC 7EC297C0
Accurately ripped (confidence 4) [6D5F7E54] (AR v2)
Copy OK

Track 18

Filename C:\Users\user\Music\EAC Rips\100 Best Classics\ 18 - Il pirata - Quel suono…Oh, Sole!.wav

Peak level 97.1 %
Extraction speed 7.6 X
Track quality 99.9 %
Test CRC 7806CC09
Copy CRC 7806CC09
Accurately ripped (confidence 4) [5354EDFE] (AR v2)
Copy OK


All tracks accurately ripped

No errors occurred

End of status report

–– CUETools DB Plugin V2.1.6

[CTDB TOCID: vFV0_Xr.G0kW0n8bbuzBiXLRmwU-] found
Submit result: vFV0_Xr.G0kW0n8bbuzBiXLRmwU- has been confirmed
Track | CTDB Status
1 | (57/57) Accurately ripped
2 | (57/57) Accurately ripped
3 | (57/57) Accurately ripped
4 | (57/57) Accurately ripped
5 | (57/57) Accurately ripped
6 | (57/57) Accurately ripped
7 | (57/57) Accurately ripped
8 | (57/57) Accurately ripped
9 | (57/57) Accurately ripped
10 | (57/57) Accurately ripped
11 | (57/57) Accurately ripped
12 | (57/57) Accurately ripped
13 | (57/57) Accurately ripped
14 | (57/57) Accurately ripped
15 | (57/57) Accurately ripped
16 | (57/57) Accurately ripped
17 | (57/57) Accurately ripped
18 | (57/57) Accurately ripped


==== Log checksum DF2116F1CBEF190A253E0B9DDCECB92581897F8804C9755EB270704D45AD861E ====

Exact Audio Copy V1.3 from 2. September 2016

EAC extraction logfile from 9. October 2017, 23:38

Maria Callas / One Hundred Best Classics Disc 2

Used drive : TSSTcorpDVD+-RW TS-H653B Adapter: 1 ID: 0

Read mode : Secure
Utilize accurate stream : Yes
Defeat audio cache : Yes
Make use of C2 pointers : No

Read offset correction : 6
Overread into Lead-In and Lead-Out : No
Fill up missing offset samples with silence : Yes
Delete leading and trailing silent blocks : No
Null samples used in CRC calculations : Yes
Used interface : Native Win32 interface for Win NT & 2000
Gap handling : Appended to previous track

Used output format : User Defined Encoder
Selected bitrate : 1024 kBit/s
Quality : High
Add ID3 tag : No
Command line compressor : C:\Program Files (x86)\Exact Audio Copy\Flac\flac.exe
Additional command line options : -8 -e -p -V -T "ARTIST=%artist%" -T "TITLE=%title%" -T "ALBUM=%albumtitle%" -T "DATE=%year%" -T "TRACKNUMBER=%tracknr%" -T "GENRE=%genre%" -T "PERFORMER=%albuminterpret%" -T "COMPOSER=%composer%" %haslyrics%–tag-from-file=LYRICS="%lyricsfile%"%haslyrics% -T "ALBUMARTIST=%albumartist%" -T "DISCNUMBER=%cdnumber%" -T "TOTALDISCS=%totalcds%" -T "TOTALTRACKS=%numtracks%" -T "COMMENT=%comment%" %source% -o %dest%


TOC of the extracted CD

Track | Start | Length | Start sector | End sector
––––––––––––––––––––––––––––-
1 | 0:00.00 | 8:07.67 | 0 | 36591
2 | 8:07.67 | 3:40.72 | 36592 | 53163
3 | 11:48.64 | 3:55.15 | 53164 | 70803
4 | 15:44.04 | 3:43.14 | 70804 | 87542
5 | 19:27.18 | 3:43.45 | 87543 | 104312
6 | 23:10.63 | 3:48.29 | 104313 | 121441
7 | 26:59.17 | 5:16.01 | 121442 | 145142
8 | 32:15.18 | 6:26.35 | 145143 | 174127
9 | 38:41.53 | 5:20.04 | 174128 | 198131
10 | 44:01.57 | 8:42.13 | 198132 | 237294
11 | 52:43.70 | 5:19.59 | 237295 | 261278
12 | 58:03.54 | 2:42.07 | 261279 | 273435
13 | 60:45.61 | 3:41.22 | 273436 | 290032
14 | 64:27.08 | 4:11.05 | 290033 | 308862
15 | 68:38.13 | 4:31.21 | 308863 | 329208
16 | 73:09.34 | 5:27.09 | 329209 | 353742


Track 1

Filename C:\Users\user\Music\EAC Rips\100 Best Classics\ 01 - Regnava nel silenzio…Quanda rapito in estasi.wav

Pre-gap length 0:00:02.00

Peak level 56.7 %
Extraction speed 5.4 X
Track quality 100.0 %
Test CRC 0A480B1D
Copy CRC 0A480B1D
Accurately ripped (confidence 3) [8A3B24D5] (AR v2)
Copy OK

Track 2

Filename C:\Users\user\Music\EAC Rips\100 Best Classics\ 02 - Chi mi frena.wav

Pre-gap length 0:00:05.20

Peak level 69.0 %
Extraction speed 5.6 X
Track quality 100.0 %
Test CRC CC79BA7E
Copy CRC CC79BA7E
Accurately ripped (confidence 3) [9BCF052A] (AR v2)
Copy OK

Track 3

Filename C:\Users\user\Music\EAC Rips\100 Best Classics\ 03 - Spargi d'amaro pianto.wav

Pre-gap length 0:00:04.76

Peak level 66.7 %
Extraction speed 6.0 X
Track quality 100.0 %
Test CRC 4E5CF349
Copy CRC 4E5CF349
Accurately ripped (confidence 3) [013D937F] (AR v2)
Copy OK

Track 4

Filename C:\Users\user\Music\EAC Rips\100 Best Classics\ 04 - Non si da follia maggiore.wav

Pre-gap length 0:00:05.17

Peak level 90.2 %
Extraction speed 6.2 X
Track quality 100.0 %
Test CRC 883897DC
Copy CRC 883897DC
Accurately ripped (confidence 3) [E3DF4039] (AR v2)
Copy OK

Track 5

Filename C:\Users\user\Music\EAC Rips\100 Best Classics\ 05 - Serva…Servo.wav

Pre-gap length 0:00:03.82

Peak level 81.6 %
Extraction speed 6.5 X
Track quality 100.0 %
Test CRC 2E02BF07
Copy CRC 2E02BF07
Accurately ripped (confidence 3) [1AB19068] (AR v2)
Copy OK

Track 6

Filename C:\Users\user\Music\EAC Rips\100 Best Classics\ 06 - No, mia vita.wav

Pre-gap length 0:00:04.57

Peak level 81.5 %
Extraction speed 5.4 X
Track quality 99.9 %
Test CRC 61C2295D
Copy CRC 61C2295D
Accurately ripped (confidence 3) [1287FD13] (AR v2)
Copy OK

Track 7

Filename C:\Users\user\Music\EAC Rips\100 Best Classics\ 07 - Credete alla femmine…In Italia certamente.wav

Pre-gap length 0:00:04.77

Peak level 69.1 %
Extraction speed 7.4 X
Track quality 100.0 %
Test CRC F20BE00B
Copy CRC F20BE00B
Accurately ripped (confidence 3) [16A542E6] (AR v2)
Copy OK

Track 8

Filename C:\Users\user\Music\EAC Rips\100 Best Classics\ 08 - Una voce poco fa.wav

Pre-gap length 0:00:07.05

Peak level 99.9 %
Extraction speed 7.9 X
Track quality 100.0 %
Test CRC 6B79FB4B
Copy CRC 6B79FB4B
Accurately ripped (confidence 3) [D4807941] (AR v2)
Copy OK

Track 9

Filename C:\Users\user\Music\EAC Rips\100 Best Classics\ 09 - Dunque io son.wav

Pre-gap length 0:00:06.16

Peak level 99.4 %
Extraction speed 6.9 X
Track quality 99.9 %
Test CRC DE73D5B2
Copy CRC DE73D5B2
Accurately ripped (confidence 3) [B47271C0] (AR v2)
Copy OK

Track 10

Filename C:\Users\user\Music\EAC Rips\100 Best Classics\ 10 - Bel raggio lusinghier.wav

Pre-gap length 0:00:05.84

Peak level 84.3 %
Extraction speed 9.0 X
Track quality 100.0 %
Test CRC 1FF5A6E0
Copy CRC 1FF5A6E0
Accurately ripped (confidence 3) [13F07DC6] (AR v2)
Copy OK

Track 11

Filename C:\Users\user\Music\EAC Rips\100 Best Classics\ 11 - Selva opaca.wav

Pre-gap length 0:00:03.64

Peak level 82.7 %
Extraction speed 9.0 X
Track quality 100.0 %
Test CRC 748C1C86
Copy CRC 748C1C86
Accurately ripped (confidence 3) [868E3208] (AR v2)
Copy OK

Track 12

Filename C:\Users\user\Music\EAC Rips\100 Best Classics\ 12 - Non piu mesta.wav

Pre-gap length 0:00:04.46

Peak level 93.4 %
Extraction speed 8.3 X
Track quality 100.0 %
Test CRC 3CA4AB53
Copy CRC 3CA4AB53
Accurately ripped (confidence 3) [4EBCA34F] (AR v2)
Copy OK

Track 13

Filename C:\Users\user\Music\EAC Rips\100 Best Classics\ 13 - Prendi, prendi; per me sei libero.wav

Pre-gap length 0:00:04.33

Peak level 90.8 %
Extraction speed 9.0 X
Track quality 100.0 %
Test CRC 369BBB74
Copy CRC 369BBB74
Accurately ripped (confidence 3) [A77F1039] (AR v2)
Copy OK

Track 14

Filename C:\Users\user\Music\EAC Rips\100 Best Classics\ 14 - Convien partier.wav

Pre-gap length 0:00:04.53

Peak level 64.3 %
Extraction speed 9.3 X
Track quality 100.0 %
Test CRC 2A474A61
Copy CRC 2A474A61
Accurately ripped (confidence 3) [97BC758C] (AR v2)
Copy OK

Track 15

Filename C:\Users\user\Music\EAC Rips\100 Best Classics\ 15 - Al dolce guidami castel natio.wav

Pre-gap length 0:00:04.97

Peak level 80.2 %
Extraction speed 9.5 X
Track quality 100.0 %
Test CRC C4B20AB9
Copy CRC C4B20AB9
Accurately ripped (confidence 3) [00A1F99A] (AR v2)
Copy OK

Track 16

Filename C:\Users\user\Music\EAC Rips\100 Best Classics\ 16 - Com'e bello.wav

Pre-gap length 0:00:04.62

Peak level 95.6 %
Extraction speed 2.5 X
Track quality 99.8 %
Test CRC AEF53FBB
Copy CRC AEF53FBB
Accurately ripped (confidence 2) [3A446086] (AR v2)
Copy OK


All tracks accurately ripped

No errors occurred

End of status report

–– CUETools DB Plugin V2.1.6

[CTDB TOCID: vg3kcL8.9FWyDE9_RkFyOFLlAsk-] found
Submit result: vg3kcL8.9FWyDE9_RkFyOFLlAsk- has been confirmed
Track | CTDB Status
1 | (68/68) Accurately ripped
2 | (68/68) Accurately ripped
3 | (68/68) Accurately ripped
4 | (68/68) Accurately ripped
5 | (68/68) Accurately ripped
6 | (68/68) Accurately ripped
7 | (68/68) Accurately ripped
8 | (68/68) Accurately ripped
9 | (68/68) Accurately ripped
10 | (66/68) Accurately ripped
11 | (68/68) Accurately ripped
12 | (68/68) Accurately ripped
13 | (68/68) Accurately ripped
14 | (68/68) Accurately ripped
15 | (68/68) Accurately ripped
16 | (60/68) Accurately ripped, or (7/68) differs in 135 samples @05:01:03-05:01:04,05:03:64-05:03:65,05:07:24-05:07:25


==== Log checksum 799E023726674B4678679954E855EF4419271B4357E490A85890E83C2C190685 ====

Exact Audio Copy V1.3 from 2. September 2016

EAC extraction logfile from 10. October 2017, 7:05

Maria Callas / 100 Best Classics Disc 3

Used drive : TSSTcorpDVD+-RW TS-H653B Adapter: 1 ID: 0

Read mode : Secure
Utilize accurate stream : Yes
Defeat audio cache : Yes
Make use of C2 pointers : No

Read offset correction : 6
Overread into Lead-In and Lead-Out : No
Fill up missing offset samples with silence : Yes
Delete leading and trailing silent blocks : No
Null samples used in CRC calculations : Yes
Used interface : Native Win32 interface for Win NT & 2000
Gap handling : Appended to previous track

Used output format : User Defined Encoder
Selected bitrate : 1024 kBit/s
Quality : High
Add ID3 tag : No
Command line compressor : C:\Program Files (x86)\Exact Audio Copy\Flac\flac.exe
Additional command line options : -8 -e -p -V -T "ARTIST=%artist%" -T "TITLE=%title%" -T "ALBUM=%albumtitle%" -T "DATE=%year%" -T "TRACKNUMBER=%tracknr%" -T "GENRE=%genre%" -T "PERFORMER=%albuminterpret%" -T "COMPOSER=%composer%" %haslyrics%–tag-from-file=LYRICS="%lyricsfile%"%haslyrics% -T "ALBUMARTIST=%albumartist%" -T "DISCNUMBER=%cdnumber%" -T "TOTALDISCS=%totalcds%" -T "TOTALTRACKS=%numtracks%" -T "COMMENT=%comment%" %source% -o %dest%


TOC of the extracted CD

Track | Start | Length | Start sector | End sector
––––––––––––––––––––––––––––-
1 | 0:00.00 | 4:06.60 | 0 | 18509
2 | 4:06.60 | 7:34.63 | 18510 | 52622
3 | 11:41.48 | 4:47.22 | 52623 | 74169
4 | 16:28.70 | 3:22.43 | 74170 | 89362
5 | 19:51.38 | 6:44.66 | 89363 | 119728
6 | 26:36.29 | 7:02.62 | 119729 | 151440
7 | 33:39.16 | 4:58.31 | 151441 | 173821
8 | 38:37.47 | 6:03.74 | 173822 | 201120
9 | 44:41.46 | 4:13.23 | 201121 | 220118
10 | 48:54.69 | 6:47.36 | 220119 | 250679
11 | 55:42.30 | 3:43.01 | 250680 | 267405
12 | 59:25.31 | 4:01.65 | 267406 | 285545
13 | 63:27.21 | 3:28.14 | 285546 | 301159
14 | 66:55.35 | 4:54.31 | 301160 | 323240
15 | 71:49.66 | 4:47.03 | 323241 | 344768


Track 1

Filename C:\Users\user\Music\EAC Rips\100 Best Classics\ 01 - I vespri Siciliani- Mercè, dilette amiche.wav

Pre-gap length 0:00:02.00

Peak level 78.3 %
Extraction speed 1.9 X
Track quality 100.0 %
Test CRC D70AD034
Copy CRC D70AD034
Accurately ripped (confidence 3) [0B48931F] (AR v2)
Copy OK

Track 2

Filename C:\Users\user\Music\EAC Rips\100 Best Classics\ 02 - Rigoletto, Act I, Scene 2- Gualtier Maldè …Caro nome.wav

Pre-gap length 0:00:04.38

Peak level 75.8 %
Extraction speed 2.1 X
Track quality 99.9 %
Test CRC D46336C8
Copy CRC D46336C8
Accurately ripped (confidence 3) [16A0665F] (AR v2)
Copy OK

Track 3

Filename C:\Users\user\Music\EAC Rips\100 Best Classics\ 03 - Rigoletto- V'ho ingannato…Lassù in cielo.wav

Pre-gap length 0:00:04.01

Peak level 97.7 %
Extraction speed 2.4 X
Track quality 100.0 %
Test CRC 2FAFC325
Copy CRC 2FAFC325
Accurately ripped (confidence 3) [EBFAAE8A] (AR v2)
Copy OK

Track 4

Filename C:\Users\user\Music\EAC Rips\100 Best Classics\ 04 - La Traviata- Ah, fors'è lui.wav

Pre-gap length 0:00:04.05

Peak level 62.9 %
Extraction speed 2.5 X
Track quality 100.0 %
Test CRC 88BA2414
Copy CRC 88BA2414
Accurately ripped (confidence 3) [1519E7AD] (AR v2)
Copy OK

Track 5

Filename C:\Users\user\Music\EAC Rips\100 Best Classics\ 05 - Aida- Ritorna vincitor!.wav

Pre-gap length 0:00:04.53

Peak level 94.8 %
Extraction speed 2.9 X
Track quality 100.0 %
Test CRC 5385AD99
Copy CRC 5385AD99
Accurately ripped (confidence 3) [2F893CB9] (AR v2)
Copy OK

Track 6

Filename C:\Users\user\Music\EAC Rips\100 Best Classics\ 06 - Aida, Act III- Qui Radamès verrà!…O patria mia.wav

Pre-gap length 0:00:03.97

Peak level 74.8 %
Extraction speed 3.1 X
Track quality 100.0 %
Test CRC 60D77BE3
Copy CRC 60D77BE3
Accurately ripped (confidence 3) [51260F86] (AR v2)
Copy OK

Track 7

Filename C:\Users\user\Music\EAC Rips\100 Best Classics\ 07 - Aida- O terra addio.wav

Pre-gap length 0:00:02.93

Peak level 64.0 %
Extraction speed 3.2 X
Track quality 100.0 %
Test CRC 158B08F1
Copy CRC 158B08F1
Accurately ripped (confidence 3) [F098926B] (AR v2)
Copy OK

Track 8

Filename C:\Users\user\Music\EAC Rips\100 Best Classics\ 08 - Il Trovatore, Act I Scene 2- Tacea la notte placida.wav

Pre-gap length 0:00:05.09

Peak level 70.5 %
Extraction speed 3.4 X
Track quality 100.0 %
Test CRC FF3C1BB2
Copy CRC FF3C1BB2
Accurately ripped (confidence 3) [F6F6EEAC] (AR v2)
Copy OK

Track 9

Filename C:\Users\user\Music\EAC Rips\100 Best Classics\ 09 - Il Trovatore, Act IV Scene 1- D'amor sull'ali rosee.wav

Pre-gap length 0:00:01.84

Peak level 77.3 %
Extraction speed 2.6 X
Track quality 99.9 %
Test CRC 9E2F9C93
Copy CRC 9E2F9C93
Accurately ripped (confidence 3) [47275491] (AR v2)
Copy OK

Track 10

Filename C:\Users\user\Music\EAC Rips\100 Best Classics\ 10 - Un ballo in maschera- Ecco l'orrido campo…Ma dall'arido stelo divulsa.wav

Pre-gap length 0:00:05.21

Peak level 84.1 %
Extraction speed 3.7 X
Track quality 100.0 %
Test CRC 1FB05FEC
Copy CRC 1FB05FEC
Accurately ripped (confidence 3) [9727C7C4] (AR v2)
Copy OK

Track 11

Filename C:\Users\user\Music\EAC Rips\100 Best Classics\ 11 - Un ballo in maschera- Non sai tu che se l'anima mia.wav

Pre-gap length 0:00:03.92

Peak level 67.7 %
Extraction speed 3.6 X
Track quality 100.0 %
Test CRC BF7888A9
Copy CRC BF7888A9
Accurately ripped (confidence 3) [898AE1D1] (AR v2)
Copy OK

Track 12

Filename C:\Users\user\Music\EAC Rips\100 Best Classics\ 12 - I Lombardi alla prima crociata, Act II- O Madre dal ciel soccorri.wav

Pre-gap length 0:00:04.22

Peak level 48.1 %
Extraction speed 3.7 X
Track quality 100.0 %
Test CRC 27AA9B81
Copy CRC 27AA9B81
Accurately ripped (confidence 3) [F97546AE] (AR v2)
Copy OK

Track 13

Filename C:\Users\user\Music\EAC Rips\100 Best Classics\ 13 - Aroldo, Act I- Ciel, ch'io respiri!…Salvami, salvami tu gran dio.wav

Pre-gap length 0:00:04.69

Peak level 73.5 %
Extraction speed 3.7 X
Track quality 100.0 %
Test CRC 34EDAD69
Copy CRC 34EDAD69
Accurately ripped (confidence 3) [D07C6204] (AR v2)
Copy OK

Track 14

Filename C:\Users\user\Music\EAC Rips\100 Best Classics\ 14 - Don Carlo, Act II- Non pianger, mia compagna.wav

Pre-gap length 0:00:04.60

Peak level 62.2 %
Extraction speed 4.0 X
Track quality 100.0 %
Test CRC FCA1B046
Copy CRC FCA1B046
Accurately ripped (confidence 3) [EEC8FAFF] (AR v2)
Copy OK

Track 15

Filename C:\Users\user\Music\EAC Rips\100 Best Classics\ 15 - Otello, Act IV- Ave Maria.wav

Pre-gap length 0:00:04.06

Peak level 58.3 %
Extraction speed 4.1 X
Track quality 100.0 %
Test CRC BD30D2C7
Copy CRC BD30D2C7
Accurately ripped (confidence 3) [F048D5D1] (AR v2)
Copy OK


All tracks accurately ripped

No errors occurred

End of status report

–– CUETools DB Plugin V2.1.6

[CTDB TOCID: FLmHkqGQoztMH_IbsAOm9TZ.mn0-] found
Submit result: FLmHkqGQoztMH_IbsAOm9TZ.mn0- has been confirmed
Track | CTDB Status
1 | (62/62) Accurately ripped
2 | (61/62) Accurately ripped
3 | (62/62) Accurately ripped
4 | (62/62) Accurately ripped
5 | (62/62) Accurately ripped
6 | (62/62) Accurately ripped
7 | (62/62) Accurately ripped
8 | (62/62) Accurately ripped
9 | (62/62) Accurately ripped
10 | (62/62) Accurately ripped
11 | (62/62) Accurately ripped
12 | (62/62) Accurately ripped
13 | (62/62) Accurately ripped
14 | (62/62) Accurately ripped
15 | (62/62) Accurately ripped


==== Log checksum C31697E772B4282E85D81707F38882E579E3B4C123024BD44FA681E6D7DD7918 ====

Exact Audio Copy V1.3 from 2. September 2016

EAC extraction logfile from 11. October 2017, 7:46

Maria Callas / Maria Callas 100 Best Classics Disc 4

Used drive : TSSTcorpDVD+-RW TS-H653B Adapter: 1 ID: 0

Read mode : Secure
Utilize accurate stream : Yes
Defeat audio cache : Yes
Make use of C2 pointers : No

Read offset correction : 6
Overread into Lead-In and Lead-Out : No
Fill up missing offset samples with silence : Yes
Delete leading and trailing silent blocks : No
Null samples used in CRC calculations : Yes
Used interface : Native Win32 interface for Win NT & 2000
Gap handling : Appended to previous track

Used output format : User Defined Encoder
Selected bitrate : 1024 kBit/s
Quality : High
Add ID3 tag : No
Command line compressor : C:\Program Files (x86)\Exact Audio Copy\Flac\flac.exe
Additional command line options : -8 -e -p -V -T "ARTIST=%artist%" -T "TITLE=%title%" -T "ALBUM=%albumtitle%" -T "DATE=%year%" -T "TRACKNUMBER=%tracknr%" -T "GENRE=%genre%" -T "PERFORMER=%albuminterpret%" -T "COMPOSER=%composer%" %haslyrics%–tag-from-file=LYRICS="%lyricsfile%"%haslyrics% -T "ALBUMARTIST=%albumartist%" -T "DISCNUMBER=%cdnumber%" -T "TOTALDISCS=%totalcds%" -T "TOTALTRACKS=%numtracks%" -T "COMMENT=%comment%" %source% -o %dest%


TOC of the extracted CD

Track | Start | Length | Start sector | End sector
––––––––––––––––––––––––––––-
1 | 0:00.00 | 2:57.06 | 0 | 13280
2 | 2:57.06 | 5:57.36 | 13281 | 40091
3 | 8:54.42 | 5:01.10 | 40092 | 62676
4 | 13:55.52 | 4:10.70 | 62677 | 81496
5 | 18:06.47 | 3:20.72 | 81497 | 96568
6 | 21:27.44 | 5:54.72 | 96569 | 123190
7 | 27:22.41 | 2:28.22 | 123191 | 134312
8 | 29:50.63 | 3:19.67 | 134313 | 149304
9 | 33:10.55 | 3:30.57 | 149305 | 165111
10 | 36:41.37 | 3:04.47 | 165112 | 178958
11 | 39:46.09 | 7:25.36 | 178959 | 212369
12 | 47:11.45 | 4:44.46 | 212370 | 233715
13 | 51:56.16 | 5:25.38 | 233716 | 258128
14 | 57:21.54 | 5:36.09 | 258129 | 283337
15 | 62:57.63 | 2:36.16 | 283338 | 295053
16 | 65:34.04 | 2:32.05 | 295054 | 306458
17 | 68:06.09 | 6:26.47 | 306459 | 335455
18 | 74:32.56 | 2:51.50 | 335456 | 348330


Track 1

Filename C:\Users\user\Music\EAC Rips\100 Best Classics\ 01 - In quelle trine morbide.wav

Pre-gap length 0:00:02.00

Peak level 70.5 %
Extraction speed 1.8 X
Track quality 100.0 %
Test CRC 2E0AA939
Copy CRC 2E0AA939
Accurately ripped (confidence 6) [83D6FBBA] (AR v1)
Copy OK

Track 2

Filename C:\Users\user\Music\EAC Rips\100 Best Classics\ 02 - Sola, perduta, abbandonata.wav

Pre-gap length 0:00:03.22

Peak level 65.6 %
Extraction speed 2.2 X
Track quality 100.0 %
Test CRC EC982155
Copy CRC EC982155
Accurately ripped (confidence 6) [053B418C] (AR v1)
Copy OK

Track 3

Filename C:\Users\user\Music\EAC Rips\100 Best Classics\ 03 - Si mi chiamano Mimi.wav

Pre-gap length 0:00:05.06

Peak level 80.3 %
Extraction speed 2.1 X
Track quality 99.9 %
Test CRC E5E1CCB6
Copy CRC E5E1CCB6
Accurately ripped (confidence 6) [1CFCD622] (AR v1)
Copy OK

Track 4

Filename C:\Users\user\Music\EAC Rips\100 Best Classics\ 04 - O soave fanciulla.wav

Pre-gap length 0:00:05.02

Peak level 75.0 %
Extraction speed 2.5 X
Track quality 100.0 %
Test CRC 08C84EA5
Copy CRC 08C84EA5
Accurately ripped (confidence 6) [6C6EA9F6] (AR v1)
Copy OK

Track 5

Filename C:\Users\user\Music\EAC Rips\100 Best Classics\ 05 - Donde lieta usci.wav

Pre-gap length 0:00:04.57

Peak level 78.2 %
Extraction speed 2.5 X
Track quality 100.0 %
Test CRC 502B6EF6
Copy CRC 502B6EF6
Accurately ripped (confidence 6) [049E5181] (AR v1)
Copy OK

Track 6

Filename C:\Users\user\Music\EAC Rips\100 Best Classics\ 06 - Dunque e proprio finita.wav

Peak level 95.4 %
Extraction speed 2.9 X
Track quality 100.0 %
Test CRC 1690E849
Copy CRC 1690E849
Accurately ripped (confidence 6) [FF1DB5E0] (AR v1)
Copy OK

Track 7

Filename C:\Users\user\Music\EAC Rips\100 Best Classics\ 07 - Non la sospiri, la nostra casetta.wav

Pre-gap length 0:00:04.30

Peak level 81.6 %
Extraction speed 2.6 X
Track quality 100.0 %
Test CRC D72CF8B2
Copy CRC D72CF8B2
Accurately ripped (confidence 6) [AF9D2A00] (AR v1)
Copy OK

Track 8

Filename C:\Users\user\Music\EAC Rips\100 Best Classics\ 08 - Vissi d'arte.wav

Pre-gap length 0:00:03.60

Peak level 75.9 %
Extraction speed 6.5 X
Track quality 100.0 %
Test CRC 2B24F3DB
Copy CRC 2B24F3DB
Accurately ripped (confidence 6) [2C545134] (AR v1)
Copy OK

Track 9

Filename C:\Users\user\Music\EAC Rips\100 Best Classics\ 09 - Senti, l'ora e vicina…Amaro sol per te.wav

Pre-gap length 0:00:03.30

Peak level 75.9 %
Extraction speed 6.8 X
Track quality 100.0 %
Test CRC 93948CB0
Copy CRC 93948CB0
Accurately ripped (confidence 5) [3DA8F542] (AR v1)
Copy OK

Track 10

Filename C:\Users\user\Music\EAC Rips\100 Best Classics\ 10 - Quanto Cielo!…Ancora un passo or via.wav

Pre-gap length 0:00:04.76

Peak level 58.5 %
Extraction speed 6.7 X
Track quality 100.0 %
Test CRC BB2A62CD
Copy CRC BB2A62CD
Accurately ripped (confidence 6) [C6B591B7] (AR v1)
Copy OK

Track 11

Filename C:\Users\user\Music\EAC Rips\100 Best Classics\ 11 - Vogliatemi bene.wav

Pre-gap length 0:00:04.58

Peak level 78.9 %
Extraction speed 8.1 X
Track quality 100.0 %
Test CRC 904EF3B1
Copy CRC 904EF3B1
Accurately ripped (confidence 6) [1FB4C63A] (AR v1)
Copy OK

Track 12

Filename C:\Users\user\Music\EAC Rips\100 Best Classics\ 12 - Un bel di vedremo.wav

Pre-gap length 0:00:04.12

Peak level 70.8 %
Extraction speed 7.9 X
Track quality 100.0 %
Test CRC B1E02E8A
Copy CRC B1E02E8A
Accurately ripped (confidence 6) [65A1E9A3] (AR v1)
Copy OK

Track 13

Filename C:\Users\user\Music\EAC Rips\100 Best Classics\ 13 - Con onor muore.wav

Pre-gap length 0:00:05.37

Peak level 71.6 %
Extraction speed 8.5 X
Track quality 100.0 %
Test CRC 723E2BA2
Copy CRC 723E2BA2
Accurately ripped (confidence 6) [D8483345] (AR v1)
Copy OK

Track 14

Filename C:\Users\user\Music\EAC Rips\100 Best Classics\ 14 - Senza mamma.wav

Pre-gap length 0:00:05.16

Peak level 64.5 %
Extraction speed 9.1 X
Track quality 100.0 %
Test CRC 107D09A2
Copy CRC 107D09A2
Accurately ripped (confidence 6) [D164196A] (AR v1)
Copy OK

Track 15

Filename C:\Users\user\Music\EAC Rips\100 Best Classics\ 15 - O mio babbino caro.wav

Pre-gap length 0:00:03.73

Peak level 59.5 %
Extraction speed 7.7 X
Track quality 100.0 %
Test CRC D1CE6302
Copy CRC D1CE6302
Accurately ripped (confidence 6) [56B1285C] (AR v1)
Copy OK

Track 16

Filename C:\Users\user\Music\EAC Rips\100 Best Classics\ 16 - Signore, ascolta!.wav

Pre-gap length 0:00:03.09

Peak level 65.0 %
Extraction speed 5.6 X
Track quality 99.9 %
Test CRC A381C89E
Copy CRC A381C89E
Accurately ripped (confidence 6) [3B1FC09D] (AR v1)
Copy OK

Track 17

Filename C:\Users\user\Music\EAC Rips\100 Best Classics\ 17 - In questa reggia.wav

Pre-gap length 0:00:02.61

Peak level 65.4 %
Extraction speed 8.5 X
Track quality 100.0 %
Test CRC 0842D267
Copy CRC 0842D267
Accurately ripped (confidence 6) [654798C5] (AR v1)
Copy OK

Track 18

Filename C:\Users\user\Music\EAC Rips\100 Best Classics\ 18 - Tu, che di gel sei cinta.wav

Pre-gap length 0:00:02.81

Peak level 65.2 %
Extraction speed 6.1 X
Track quality 99.9 %
Test CRC 81FCE8DC
Copy CRC 81FCE8DC
Accurately ripped (confidence 6) [E7510A0C] (AR v1)
Copy OK


All tracks accurately ripped

No errors occurred

End of status report

–– CUETools DB Plugin V2.1.6

[CTDB TOCID: PcxGahmecl57eE4S_EsNHHMVFgU-] found
Submit result: already submitted
Track | CTDB Status
1 | (70/70) Accurately ripped
2 | (70/70) Accurately ripped
3 | (70/70) Accurately ripped
4 | (70/70) Accurately ripped
5 | (70/70) Accurately ripped
6 | (69/70) Accurately ripped
7 | (70/70) Accurately ripped
8 | (70/70) Accurately ripped
9 | (70/70) Accurately ripped
10 | (70/70) Accurately ripped
11 | (68/70) Accurately ripped
12 | (70/70) Accurately ripped
13 | (70/70) Accurately ripped
14 | (70/70) Accurately ripped
15 | (70/70) Accurately ripped
16 | (70/70) Accurately ripped
17 | (70/70) Accurately ripped
18 | (69/70) Accurately ripped


==== Log checksum D26476639B59E9CE022ADE0BC6EE019F938192B6187A7510E56D6C6D1C0710E5 ====

Exact Audio Copy V1.3 from 2. September 2016

EAC extraction logfile from 10. October 2017, 22:08

Maria Callas / Maria Callas 100 Best Classics Disc 5

Used drive : TSSTcorpDVD+-RW TS-H653B Adapter: 1 ID: 0

Read mode : Secure
Utilize accurate stream : Yes
Defeat audio cache : Yes
Make use of C2 pointers : No

Read offset correction : 6
Overread into Lead-In and Lead-Out : No
Fill up missing offset samples with silence : Yes
Delete leading and trailing silent blocks : No
Null samples used in CRC calculations : Yes
Used interface : Native Win32 interface for Win NT & 2000
Gap handling : Appended to previous track

Used output format : User Defined Encoder
Selected bitrate : 1024 kBit/s
Quality : High
Add ID3 tag : No
Command line compressor : C:\Program Files (x86)\Exact Audio Copy\Flac\flac.exe
Additional command line options : -8 -e -p -V -T "ARTIST=%artist%" -T "TITLE=%title%" -T "ALBUM=%albumtitle%" -T "DATE=%year%" -T "TRACKNUMBER=%tracknr%" -T "GENRE=%genre%" -T "PERFORMER=%albuminterpret%" -T "COMPOSER=%composer%" %haslyrics%–tag-from-file=LYRICS="%lyricsfile%"%haslyrics% -T "ALBUMARTIST=%albumartist%" -T "DISCNUMBER=%cdnumber%" -T "TOTALDISCS=%totalcds%" -T "TOTALTRACKS=%numtracks%" -T "COMMENT=%comment%" %source% -o %dest%


TOC of the extracted CD

Track | Start | Length | Start sector | End sector
––––––––––––––––––––––––––––-
1 | 0:00.00 | 4:28.12 | 0 | 20111
2 | 4:28.12 | 4:28.27 | 20112 | 40238
3 | 8:56.39 | 4:23.53 | 40239 | 60016
4 | 13:20.17 | 4:36.34 | 60017 | 80750
5 | 17:56.51 | 4:23.16 | 80751 | 100491
6 | 22:19.67 | 3:43.18 | 100492 | 117234
7 | 26:03.10 | 3:43.57 | 117235 | 134016
8 | 29:46.67 | 5:14.31 | 134017 | 157597
9 | 35:01.23 | 8:16.31 | 157598 | 194828
10 | 43:17.54 | 7:07.33 | 194829 | 226886
11 | 50:25.12 | 5:33.14 | 226887 | 251875
12 | 55:58.26 | 5:18.72 | 251876 | 275797
13 | 61:17.23 | 5:21.16 | 275798 | 299888
14 | 66:38.39 | 3:23.02 | 299889 | 315115
15 | 70:01.41 | 2:53.40 | 315116 | 328130
16 | 72:55.06 | 4:44.39 | 328131 | 349469


Track 1

Filename C:\Users\user\Music\EAC Rips\100 Best Classics\ 01 - J'ai perdu mon Eurydice.wav

Pre-gap length 0:00:02.00

Peak level 91.4 %
Extraction speed 4.9 X
Track quality 100.0 %
Test CRC 981D36B0
Copy CRC 981D36B0
Accurately ripped (confidence 5) [28EAE2EE] (AR v1)
Copy OK

Track 2

Filename C:\Users\user\Music\EAC Rips\100 Best Classics\ 02 - Divinites du Styx.wav

Pre-gap length 0:00:03.36

Peak level 96.7 %
Extraction speed 5.4 X
Track quality 100.0 %
Test CRC 7AE044E4
Copy CRC 7AE044E4
Accurately ripped (confidence 5) [055C9EB3] (AR v1)
Copy OK

Track 3

Filename C:\Users\user\Music\EAC Rips\100 Best Classics\ 03 - L'amour est un oiseau rebelle.wav

Pre-gap length 0:00:05.25

Peak level 76.4 %
Extraction speed 5.8 X
Track quality 100.0 %
Test CRC ECA51B49
Copy CRC ECA51B49
Accurately ripped (confidence 5) [D9CE8C91] (AR v1)
Copy OK

Track 4

Filename C:\Users\user\Music\EAC Rips\100 Best Classics\ 04 - Pres des ramparts de Seville.wav

Pre-gap length 0:00:04.21

Peak level 83.5 %
Extraction speed 6.2 X
Track quality 100.0 %
Test CRC FF822436
Copy CRC FF822436
Accurately ripped (confidence 5) [BE091BDB] (AR v1)
Copy OK

Track 5

Filename C:\Users\user\Music\EAC Rips\100 Best Classics\ 05 - Les tringles des sistres tintaient.wav

Pre-gap length 0:00:03.98

Peak level 98.6 %
Extraction speed 6.6 X
Track quality 100.0 %
Test CRC FCE85883
Copy CRC FCE85883
Accurately ripped (confidence 5) [E295345A] (AR v1)
Copy OK

Track 6

Filename C:\Users\user\Music\EAC Rips\100 Best Classics\ 06 - Carreau! Pique!.wav

Pre-gap length 0:00:03.93

Peak level 70.0 %
Extraction speed 6.7 X
Track quality 100.0 %
Test CRC 89903024
Copy CRC 89903024
Accurately ripped (confidence 5) [EADF817F] (AR v1)
Copy OK

Track 7

Filename C:\Users\user\Music\EAC Rips\100 Best Classics\ 07 - Ah! Je veux vivre dans ce reve.wav

Pre-gap length 0:00:05.12

Peak level 91.5 %
Extraction speed 5.5 X
Track quality 99.9 %
Test CRC 9AAE7591
Copy CRC 9AAE7591
Accurately ripped (confidence 5) [18D35672] (AR v1)
Copy OK

Track 8

Filename C:\Users\user\Music\EAC Rips\100 Best Classics\ 08 - Ah, pour ce soir…Je suis Titania.wav

Pre-gap length 0:00:02.82

Peak level 97.8 %
Extraction speed 6.3 X
Track quality 99.9 %
Test CRC 08182E95
Copy CRC 08182E95
Accurately ripped (confidence 5) [F4F81827] (AR v1)
Copy OK

Track 9

Filename C:\Users\user\Music\EAC Rips\100 Best Classics\ 09 - D'amour l'ardente flamme.wav

Pre-gap length 0:00:04.29

Peak level 98.0 %
Extraction speed 8.4 X
Track quality 100.0 %
Test CRC 69B2D31F
Copy CRC 69B2D31F
Accurately ripped (confidence 5) [52E5FAAC] (AR v1)
Copy OK

Track 10

Filename C:\Users\user\Music\EAC Rips\100 Best Classics\ 10 - Werther! Qui m'aurait dit la place… Des cris joyeux.wav

Pre-gap length 0:00:04.29

Peak level 87.6 %
Extraction speed 8.7 X
Track quality 100.0 %
Test CRC F4179594
Copy CRC F4179594
Accurately ripped (confidence 5) [7F726277] (AR v1)
Copy OK

Track 11

Filename C:\Users\user\Music\EAC Rips\100 Best Classics\ 11 - Un bouquet!…Ah! je ris.wav

Pre-gap length 0:00:04.94

Peak level 91.2 %
Extraction speed 8.8 X
Track quality 100.0 %
Test CRC 2103D1DF
Copy CRC 2103D1DF
Accurately ripped (confidence 5) [43E51795] (AR v1)
Copy OK

Track 12

Filename C:\Users\user\Music\EAC Rips\100 Best Classics\ 12 - Printemps qui commence.wav

Pre-gap length 0:00:03.49

Peak level 87.3 %
Extraction speed 9.1 X
Track quality 100.0 %
Test CRC 03DA3FCB
Copy CRC 03DA3FCB
Accurately ripped (confidence 5) [1CBA998E] (AR v1)
Copy OK

Track 13

Filename C:\Users\user\Music\EAC Rips\100 Best Classics\ 13 - Mon coeur s'ouvre a ta voix..wav

Pre-gap length 0:00:02.60

Peak level 98.8 %
Extraction speed 9.3 X
Track quality 100.0 %
Test CRC 723344F4
Copy CRC 723344F4
Accurately ripped (confidence 5) [39906941] (AR v1)
Copy OK

Track 14

Filename C:\Users\user\Music\EAC Rips\100 Best Classics\ 14 - Je ne suis que faiblesse….Adieu, notre petite table.wav

Pre-gap length 0:00:03.37

Peak level 87.7 %
Extraction speed 9.0 X
Track quality 100.0 %
Test CRC 48046DEE
Copy CRC 48046DEE
Accurately ripped (confidence 5) [E4B3D6D9] (AR v1)
Copy OK

Track 15

Filename C:\Users\user\Music\EAC Rips\100 Best Classics\ 15 - Suis-je gentille ainsi … Je marche sur tous les chemins.wav

Pre-gap length 0:00:03.04

Peak level 93.7 %
Extraction speed 7.6 X
Track quality 100.0 %
Test CRC 3EA4EAEF
Copy CRC 3EA4EAEF
Accurately ripped (confidence 5) [8651203A] (AR v1)
Copy OK

Track 16

Filename C:\Users\user\Music\EAC Rips\100 Best Classics\ 16 - Depuis le jour.wav

Pre-gap length 0:00:03.58

Peak level 98.7 %
Extraction speed 7.9 X
Track quality 99.9 %
Test CRC D337D48F
Copy CRC D337D48F
Accurately ripped (confidence 5) [6A90A153] (AR v1)
Copy OK


All tracks accurately ripped

No errors occurred

End of status report

–– CUETools DB Plugin V2.1.6

[CTDB TOCID: aNDI6VnUrJWUPfVXqYMZI41iOGE-] found
Submit result: aNDI6VnUrJWUPfVXqYMZI41iOGE- has been confirmed
Track | CTDB Status
1 | (71/71) Accurately ripped
2 | (71/71) Accurately ripped
3 | (71/71) Accurately ripped
4 | (71/71) Accurately ripped
5 | (71/71) Accurately ripped
6 | (71/71) Accurately ripped
7 | (71/71) Accurately ripped
8 | (71/71) Accurately ripped
9 | (70/71) Accurately ripped
10 | (69/71) Accurately ripped
11 | (70/71) Accurately ripped
12 | (70/71) Accurately ripped
13 | (70/71) Accurately ripped
14 | (70/71) Accurately ripped
15 | (70/71) Accurately ripped
16 | (70/71) Accurately ripped


==== Log checksum 17660F888F33E7167B1A7D66EA4457404062CBD9996F69F5FCDF71919AA15333 ====

Exact Audio Copy V1.3 from 2. September 2016

EAC extraction logfile from 11. October 2017, 0:15

Maria Callas / Maria Callas 100 Best Classics Disc 6

Used drive : TSSTcorpDVD+-RW TS-H653B Adapter: 1 ID: 0

Read mode : Secure
Utilize accurate stream : Yes
Defeat audio cache : Yes
Make use of C2 pointers : No

Read offset correction : 6
Overread into Lead-In and Lead-Out : No
Fill up missing offset samples with silence : Yes
Delete leading and trailing silent blocks : No
Null samples used in CRC calculations : Yes
Used interface : Native Win32 interface for Win NT & 2000
Gap handling : Appended to previous track

Used output format : User Defined Encoder
Selected bitrate : 1024 kBit/s
Quality : High
Add ID3 tag : No
Command line compressor : C:\Program Files (x86)\Exact Audio Copy\Flac\flac.exe
Additional command line options : -8 -e -p -V -T "ARTIST=%artist%" -T "TITLE=%title%" -T "ALBUM=%albumtitle%" -T "DATE=%year%" -T "TRACKNUMBER=%tracknr%" -T "GENRE=%genre%" -T "PERFORMER=%albuminterpret%" -T "COMPOSER=%composer%" %haslyrics%–tag-from-file=LYRICS="%lyricsfile%"%haslyrics% -T "ALBUMARTIST=%albumartist%" -T "DISCNUMBER=%cdnumber%" -T "TOTALDISCS=%totalcds%" -T "TOTALTRACKS=%numtracks%" -T "COMMENT=%comment%" %source% -o %dest%


TOC of the extracted CD

Track | Start | Length | Start sector | End sector
––––––––––––––––––––––––––––-
1 | 0:00.00 | 4:57.57 | 0 | 22331
2 | 4:57.57 | 3:51.53 | 22332 | 39709
3 | 8:49.35 | 3:17.36 | 39710 | 54520
4 | 12:06.71 | 4:24.44 | 54521 | 74364
5 | 16:31.40 | 4:42.54 | 74365 | 95568
6 | 21:14.19 | 7:30.00 | 95569 | 129318
7 | 28:44.19 | 4:55.66 | 129319 | 151509
8 | 33:40.10 | 4:49.62 | 151510 | 173246
9 | 38:29.72 | 2:33.06 | 173247 | 184727
10 | 41:03.03 | 3:48.55 | 184728 | 201882
11 | 44:51.58 | 4:30.68 | 201883 | 222200
12 | 49:22.51 | 3:16.38 | 222201 | 236938
13 | 52:39.14 | 6:36.69 | 236939 | 266707
14 | 59:16.08 | 6:09.34 | 266708 | 294416
15 | 65:25.42 | 4:19.72 | 294417 | 313913
16 | 69:45.39 | 4:29.30 | 313914 | 334118
17 | 74:14.69 | 4:45.26 | 334119 | 355519


Track 1

Filename C:\Users\user\Music\EAC Rips\100 Best Classics\ 01 - La mamma morta.wav

Pre-gap length 0:00:02.00

Peak level 76.9 %
Extraction speed 5.0 X
Track quality 100.0 %
Test CRC 35B64E35
Copy CRC 35B64E35
Accurately ripped (confidence 6) [D436D6D0] (AR v1)
Copy OK

Track 2

Filename C:\Users\user\Music\EAC Rips\100 Best Classics\ 02 - Ecco- respiro appena…Io son l'umile ancella.wav

Pre-gap length 0:00:04.40

Peak level 78.5 %
Extraction speed 4.3 X
Track quality 99.9 %
Test CRC 97B35E9C
Copy CRC 97B35E9C
Accurately ripped (confidence 6) [E4D90F07] (AR v1)
Copy OK

Track 3

Filename C:\Users\user\Music\EAC Rips\100 Best Classics\ 03 - Poveri fiori.wav

Pre-gap length 0:00:03.68

Peak level 76.0 %
Extraction speed 5.4 X
Track quality 100.0 %
Test CRC 4BB86D6B
Copy CRC 4BB86D6B
Accurately ripped (confidence 6) [F13AE34E] (AR v1)
Copy OK

Track 4

Filename C:\Users\user\Music\EAC Rips\100 Best Classics\ 04 - Voi lo sapete, o mamma.wav

Pre-gap length 0:00:04.13

Peak level 82.0 %
Extraction speed 5.0 X
Track quality 99.9 %
Test CRC 461B73AE
Copy CRC 461B73AE
Accurately ripped (confidence 6) [175912B3] (AR v1)
Copy OK

Track 5

Filename C:\Users\user\Music\EAC Rips\100 Best Classics\ 05 - Qual fiamma avea nel guardo…Hui!.wav

Pre-gap length 0:00:04.08

Peak level 98.8 %
Extraction speed 6.5 X
Track quality 100.0 %
Test CRC A1FF0889
Copy CRC A1FF0889
Accurately ripped (confidence 6) [7AD3F293] (AR v1)
Copy OK

Track 6

Filename C:\Users\user\Music\EAC Rips\100 Best Classics\ 06 - L'altra notte in fondo al mare.wav

Pre-gap length 0:00:03.49

Peak level 86.6 %
Extraction speed 7.3 X
Track quality 100.0 %
Test CRC C941D5CD
Copy CRC C941D5CD
Accurately ripped (confidence 6) [A178EADB] (AR v1)
Copy OK

Track 7

Filename C:\Users\user\Music\EAC Rips\100 Best Classics\ 07 - Ebben…ne andro lontana.wav

Pre-gap length 0:00:04.13

Peak level 75.4 %
Extraction speed 7.4 X
Track quality 100.0 %
Test CRC 48E33CF1
Copy CRC 48E33CF1
Accurately ripped (confidence 6) [2DE20F14] (AR v1)
Copy OK

Track 8

Filename C:\Users\user\Music\EAC Rips\100 Best Classics\ 08 - Dei tuoi figla.wav

Pre-gap length 0:00:03.34

Peak level 61.9 %
Extraction speed 6.4 X
Track quality 99.9 %
Test CRC F4B35119
Copy CRC F4B35119
Accurately ripped (confidence 6) [B9F05B58] (AR v1)
Copy OK

Track 9

Filename C:\Users\user\Music\EAC Rips\100 Best Classics\ 09 - O nome tutelar.wav

Pre-gap length 0:00:03.74

Peak level 82.8 %
Extraction speed 5.3 X
Track quality 99.9 %
Test CRC 81CE8A86
Copy CRC 81CE8A86
Accurately ripped (confidence 6) [99F073F8] (AR v1)
Copy OK

Track 10

Filename C:\Users\user\Music\EAC Rips\100 Best Classics\ 10 - Caro oggetto.wav

Pre-gap length 0:00:02.76

Peak level 59.4 %
Extraction speed 6.3 X
Track quality 99.9 %
Test CRC DA1F00FA
Copy CRC DA1F00FA
Accurately ripped (confidence 6) [96BC45EE] (AR v1)
Copy OK

Track 11

Filename C:\Users\user\Music\EAC Rips\100 Best Classics\ 11 - O malheureuse Iphigenie.wav

Pre-gap length 0:00:02.82

Peak level 80.4 %
Extraction speed 6.8 X
Track quality 99.9 %
Test CRC C20ACF30
Copy CRC C20ACF30
Accurately ripped (confidence 6) [8EF05207] (AR v1)
Copy OK

Track 12

Filename C:\Users\user\Music\EAC Rips\100 Best Classics\ 12 - Or sai chi l'onore.wav

Pre-gap length 0:00:02.73

Peak level 61.8 %
Extraction speed 6.3 X
Track quality 99.9 %
Test CRC 3562167C
Copy CRC 3562167C
Accurately ripped (confidence 6) [24AF3908] (AR v1)
Copy OK

Track 13

Filename C:\Users\user\Music\EAC Rips\100 Best Classics\ 13 - In quali eccessi, O Numi!…Mi tradi quell'alma ingrata.wav

Pre-gap length 0:00:02.38

Peak level 59.5 %
Extraction speed 9.2 X
Track quality 100.0 %
Test CRC 29CA2C83
Copy CRC 29CA2C83
Accurately ripped (confidence 6) [81ACA36E] (AR v1)
Copy OK

Track 14

Filename C:\Users\user\Music\EAC Rips\100 Best Classics\ 14 - De cet affreux combat….Pleurez, mes yeux.wav

Pre-gap length 0:00:04.02

Peak level 84.6 %
Extraction speed 9.4 X
Track quality 100.0 %
Test CRC C143872B
Copy CRC C143872B
Accurately ripped (confidence 6) [B1CA6FD6] (AR v1)
Copy OK

Track 15

Filename C:\Users\user\Music\EAC Rips\100 Best Classics\ 15 - Suicidio!.wav

Pre-gap length 0:00:03.61

Peak level 78.5 %
Extraction speed 7.5 X
Track quality 99.9 %
Test CRC EC406ED7
Copy CRC EC406ED7
Accurately ripped (confidence 6) [3E2103FC] (AR v1)
Copy OK

Track 16

Filename C:\Users\user\Music\EAC Rips\100 Best Classics\ 16 - Morro, ma prima in grazia.wav

Pre-gap length 0:00:03.86

Peak level 69.4 %
Extraction speed 3.9 X
Track quality 100.0 %
Test CRC 203A2ED2
Copy CRC 203A2ED2
Accurately ripped (confidence 5) [DBBDE446] (AR v1)
Copy OK

Track 17

Filename C:\Users\user\Music\EAC Rips\100 Best Classics\ 17 - O don fatale.wav

Pre-gap length 0:00:03.92

Peak level 78.7 %
Extraction speed 4.1 X
Track quality 100.0 %
Test CRC E706FF76
Copy CRC E706FF76
Accurately ripped (confidence 5) [BDBC4FDD] (AR v1)
Copy OK


All tracks accurately ripped

No errors occurred

End of status report

–– CUETools DB Plugin V2.1.6

[CTDB TOCID: iY3MEWTnJT2mi6vrVO.WItmTYz4-] found
Submit result: iY3MEWTnJT2mi6vrVO.WItmTYz4- has been confirmed
Track | CTDB Status
1 | (66/66) Accurately ripped
2 | (66/66) Accurately ripped
3 | (66/66) Accurately ripped
4 | (66/66) Accurately ripped
5 | (66/66) Accurately ripped
6 | (65/66) Accurately ripped
7 | (66/66) Accurately ripped
8 | (65/66) Accurately ripped
9 | (66/66) Accurately ripped
10 | (65/66) Accurately ripped
11 | (66/66) Accurately ripped
12 | (66/66) Accurately ripped
13 | (66/66) Accurately ripped
14 | (58/66) Accurately ripped, or (6/66) differs in 3 samples @03:55:71
15 | (60/66) Accurately ripped, or (6/66) differs in 49 samples @03:32:39
16 | (64/66) Accurately ripped
17 | (57/66) Accurately ripped, or (6/66) differs in 54 samples @03:57:54


==== Log checksum 0C914F7A290541D609A125E66D11E1940A26ADDA0FBC781B7F9D07EB011C6FAD ====

Thanks to the Original ripper rockocoltrane !