Subcategories

Mario Castelnuovo-Tedesco - Andres Segovia (1997)

Posted By: TimMa
Mario Castelnuovo-Tedesco - Andres Segovia (1997)

Mario Castelnuovo-Tedesco - Andres Segovia (1997)
APE+cue+log | 1 CD | 167.99 Mb | Total Time: 41:44 min
Genre: Classical Guitar | Label: Theorema | Released: 1997

Andrés Torres Segovia, 1st Marquis of Salobreña (February 21, 1893 – June 2, 1987), known as Andrés Segovia, was a Spanish classical guitarist from Linares, Jaén, Andalucia, Spain. He is widely considered to be one of the finest classical guitarists of the 20th century - and one of the founders of what we now consider "Classical Guitar".
Mario Castelnuovo-Tedesco - Andres Segovia (1997)

01. Guitar Concerto in D major op. 99 - I Allegretto giusto
02. Guitar Concerto in D major op. 99 - II Andantino alla romanza
03. Guitar Concerto in D major op. 99 - III Ritmico e cavaleresco
04. Quintet for Guitar and Strings op. 143 - I Allegro, vivo e schietto
05. Quintet for Guitar and Strings op. 143 - II Andante mesto
06. Quintet for Guitar and Strings op. 143 - III Scherzo, Allegro con spirito alla marcia
07. Quintet for Guitar and Strings op. 143 - IV Finale, Allegro con fuoco

Exact Audio Copy V0.99 prebeta 4 from 23. January 2008
EAC extraction logfile from 9. April 2009, 22:15
Andres Segovia / Mario Castelnuovo-Tedesco
Used drive : HL-DT-STDVDRAM GSA-T10N Adapter: 1 ID: 0
Read mode : Secure
Utilize accurate stream : Yes
Defeat audio cache : Yes
Make use of C2 pointers : No
Combined read/write offset correction : 0
Overread into Lead-In and Lead-Out : No
Fill up missing offset samples with silence : Yes
Delete leading and trailing silent blocks : No
Null samples used in CRC calculations : Yes
Used interface : Native Win32 interface for Win NT & 2000
Used output format : Internal WAV Routines
Sample format : 44.100 Hz; 16 Bit; Stereo
TOC of the extracted CD
Track | Start | Length | Start sector | End sector
––––––––––––––––––––––––––––-
1 | 0:00.33 | 6:17.00 | 33 | 28307
2 | 6:17.33 | 6:33.25 | 28308 | 57807
3 | 12:50.58 | 6:15.37 | 57808 | 85969
4 | 19:06.20 | 5:27.38 | 85970 | 110532
5 | 24:33.58 | 6:32.12 | 110533 | 139944
6 | 31:05.70 | 4:41.50 | 139945 | 161069
7 | 35:47.45 | 5:56.63 | 161070 | 187832
Range status and errors
Selected range
Filename C:\Documents and Settings\rustam\Desktop\Mario Castelnuovo-Tedesco\Andres Segovia - Mario Castelnuovo-Tedesco.wav
Peak level 100.0 %
Range quality 99.9 %
Copy CRC 4F2DF25F
Copy OK
No errors occurred
End of status report