Subcategories

Mariss Jansons & Royal Concertgebouw Orchestra - Mahler: Symphony No. 7 in E Minor (2018)

Posted By: delpotro
Mariss Jansons & Royal Concertgebouw Orchestra - Mahler: Symphony No. 7 in E Minor (2018)

Mariss Jansons & Royal Concertgebouw Orchestra - Mahler: Symphony No. 7 in E Minor (2018)
EAC Rip | FLAC (tracks+log+.cue) | Digital booklet | 01:19:53 | 333 Mb
Classical | Label: RCO Live

Mariss Jansons’s international reputation as a Mahler conductor is indisputable. During his tenure as chief conductor of the Royal Concertgebouw Orchestra Jansons did not record a full cycle of Mahler symphonies. With this new 2016 recording that project is now nearing completion. Mahler himself led the Concertgebouw Orchestra in the Dutch premiere of the Seventh in October 1909. How must the audience in the Main Hall have reacted to this whimsical work with its night-time atmosphere and eerie sounds? Although this vast symphony, featuring a number of unconventional instruments like the mandolin and guitar, did not catch on right away, it would slowly but surely win the hearts of music lovers everywhere.
Tracklist:
01 Symphony No.7 in e minor - I. Langsam - Allegro risoluto, ma non troppo
02 Symphony No.7 in e minor - II. Nachtmusik. Allegro moderato
03 Symphony No.7 in e minor - III. Scherzo. Schattenhaft
04 Symphony No.7 in e minor - IV. Nachtmusik. Andante amoroso
05 Symphony No.7 in e minor - V. Rondo-Finale. Allegro ordinario

Exact Audio Copy V1.3 from 2. September 2016

EAC extraction logfile from 29. January 2018, 17:09

Mariss Jansons, Royal Concertgebouw Orchestra / Mahler - Symphony No.7

Used drive : ATAPI iHAS424 Y Adapter: 1 ID: 4

Read mode : Secure
Utilize accurate stream : Yes
Defeat audio cache : Yes
Make use of C2 pointers : No

Read offset correction : 48
Overread into Lead-In and Lead-Out : No
Fill up missing offset samples with silence : Yes
Delete leading and trailing silent blocks : No
Null samples used in CRC calculations : Yes
Used interface : Installed external ASPI interface
Gap handling : Appended to previous track

Used output format : User Defined Encoder
Selected bitrate : 1024 kBit/s
Quality : High
Add ID3 tag : No
Command line compressor : E:\Program Files (Portable)\flac-1.3.2-win\win64\flac.exe
Additional command line options : -8 -V -T "ARTIST=%artist%" -T "TITLE=%title%" -T "ALBUM=%albumtitle%" -T "DATE=%year%" -T "TRACKNUMBER=%tracknr%" -T "GENRE=%genre%" -T "COMMENT=EAC Secure mode, Test & Copy, AccurateRip, FLAC -8" %hascover%–picture="%coverfile%"%hascover% %source% -o %dest%


TOC of the extracted CD

Track | Start | Length | Start sector | End sector
––––––––––––––––––––––––––––-
1 | 0:00.00 | 22:29.16 | 0 | 101190
2 | 22:29.16 | 16:21.74 | 101191 | 174839
3 | 38:51.15 | 10:26.29 | 174840 | 221818
4 | 49:17.44 | 13:12.40 | 221819 | 281258
5 | 62:30.09 | 17:23.30 | 281259 | 359513


Track 1

Filename F:\Uploads\Mahler - Symphony No.7 - Jansons, RCO [RCO Live 17006]\01 Symphony No.7 in e minor - I. Langsam - Allegro risoluto, ma non troppo.wav

Pre-gap length 0:00:02.00

Peak level 99.8 %
Extraction speed 3.3 X
Track quality 99.9 %
Test CRC 904A3581
Copy CRC 904A3581
Track not present in AccurateRip database
Copy OK

Track 2

Filename F:\Uploads\Mahler - Symphony No.7 - Jansons, RCO [RCO Live 17006]\02 Symphony No.7 in e minor - II. Nachtmusik. Allegro moderato.wav

Peak level 96.9 %
Extraction speed 4.3 X
Track quality 100.0 %
Test CRC A0BABD04
Copy CRC A0BABD04
Track not present in AccurateRip database
Copy OK

Track 3

Filename F:\Uploads\Mahler - Symphony No.7 - Jansons, RCO [RCO Live 17006]\03 Symphony No.7 in e minor - III. Scherzo. Schattenhaft.wav

Peak level 62.8 %
Extraction speed 4.8 X
Track quality 100.0 %
Test CRC 109B2F4C
Copy CRC 109B2F4C
Track not present in AccurateRip database
Copy OK

Track 4

Filename F:\Uploads\Mahler - Symphony No.7 - Jansons, RCO [RCO Live 17006]\04 Symphony No.7 in e minor - IV. Nachtmusik. Andante amoroso.wav

Peak level 52.3 %
Extraction speed 5.3 X
Track quality 100.0 %
Test CRC CD0D68D1
Copy CRC CD0D68D1
Track not present in AccurateRip database
Copy OK

Track 5

Filename F:\Uploads\Mahler - Symphony No.7 - Jansons, RCO [RCO Live 17006]\05 Symphony No.7 in e minor - V. Rondo-Finale. Allegro ordinario.wav

Peak level 98.6 %
Extraction speed 5.9 X
Track quality 100.0 %
Test CRC DAF0EAD8
Copy CRC DAF0EAD8
Track not present in AccurateRip database
Copy OK


None of the tracks are present in the AccurateRip database

No errors occurred

End of status report

–– CUETools DB Plugin V2.1.6

[CTDB TOCID: kwI6fs7zyUPunRVWySE9o1WM1R4-] disk not present in database
Submit result: kwI6fs7zyUPunRVWySE9o1WM1R4- has been uploaded


==== Log checksum 15030C6C0529E7846797A719EE592027F945059D2CF333DD8A643ADB881B0D0C ====



Mariss Jansons & Royal Concertgebouw Orchestra - Mahler: Symphony No. 7 in E Minor (2018)

Thanks to the Original ripper rwhite873 !