Subcategories

Martin Amlin - Music for Flute, Clarinet & Piano (2015) {Albany Records TROY1567}

Posted By: ruskaval
Martin Amlin - Music for Flute, Clarinet & Piano (2015) {Albany Records TROY1567}

Martin Amlin - Music for Flute, Clarinet & Piano (2015) {Albany Records TROY1567}
EAC rip (secure mode) | FLAC (tracks)+CUE+LOG -> 243 Mb | MP3 @320 -> 154 Mb
Full Artwork @ 300 dpi (png) -> 49 Mb | 5% repair rar
© 2015 Albany Records | TROY156
Classical / Chamber Music / Contemporary Classics

All of the works on this recording evidence the hallmarks of Martin Amlin's style: a facile flow of elaborate rhythms; a harmonic language rich with the notes that comprise seventh chords; a non-strict usage of tone rows; an honoring of the past through recognizable formal structure and thematic evolution; and a French sensibility that might be described as neo-impressionistic. A student of Nadia Boulanger, Martin Amlin received masters and doctoral degrees from the Eastman School of Music. He is the recipient of numerous prizes and awards and has been a resident at Yaddo, the Virginia Center for the Creative Arts, and the MacDowell Colony. A member of the faculty at Boston University, he is also director of the Boston University Tanglewood Institute Young Artists Composition Program. A noted pianist as well, he performs the works on this CD with noted artists Leone Buyse and Michael Webster, who have long been advocates of his music.
Martin Amlin - Music for Flute, Clarinet & Piano (2015) {Albany Records TROY1567}

Martin Amlin - Music for Flute, Clarinet & Piano (2015) {Albany Records TROY1567}


Albany Records INFO

Personnel & tracklist:
Martin Amlin, composer

Intrada for two flutes & piano
Leone Buyse, flute; Fenwick Smith, flute; Martin Amlin, piano

Sonata for Clarinet and Piano
Michael Webster, clarinet; Martin Amlin, piano

Morceau de Concours for flute & piano
Leone Buyse, flute; Martin Amlin, piano

Three Etudes on Intervals for piano solo
Martin Amlin, piano

Sonata No. 2 for Flute & Piano
Leone Buyse, flute; Martin Amlin, piano

Trio Sonatina
Leone Buyse, flute; Michael Webster, clarinet; Martin Amlin, piano

Exact Audio Copy V1.1 from 23. June 2015

EAC extraction logfile from 11. April 2016, 8:12

Martin Amlin / Music for Flute, Clarinet, and Piano

Used drive : ASUS DRW-24B1ST i Adapter: 1 ID: 0

Read mode : Secure
Utilize accurate stream : Yes
Defeat audio cache : Yes
Make use of C2 pointers : No

Read offset correction : 6
Overread into Lead-In and Lead-Out : No
Fill up missing offset samples with silence : Yes
Delete leading and trailing silent blocks : No
Null samples used in CRC calculations : Yes
Used interface : Native Win32 interface for Win NT & 2000
Gap handling : Appended to previous track

Used output format : User Defined Encoder
Selected bitrate : 128 kBit/s
Quality : High
Add ID3 tag : No
Command line compressor : C:\Program Files (x86)\Exact Audio Copy\Flac\flac.exe
Additional command line options : -8 -V -T "ARTIST=%artist%" -T "TITLE=%title%" -T "ALBUM=%albumtitle%" -T "DATE=%year%" -T "TRACKNUMBER=%tracknr%" -T "TOTALTRACKS=%numtracks%" -T "GENRE=%genre%" -T "ALBUMARTIST=%albumartist%" -T "ALBUM ARTIST=%albumartist%" -T "COMMENT=EAC Secure Mode, Test & Copy, AccurateRip, FLAC -8" %source%


TOC of the extracted CD

Track | Start | Length | Start sector | End sector
––––––––––––––––––––––––––––-
1 | 0:00.00 | 3:48.56 | 0 | 17155
2 | 3:48.56 | 5:28.56 | 17156 | 41811
3 | 9:17.37 | 4:17.35 | 41812 | 61121
4 | 13:34.72 | 3:34.37 | 61122 | 77208
5 | 17:09.34 | 4:25.58 | 77209 | 97141
6 | 21:35.17 | 5:54.16 | 97142 | 123707
7 | 27:29.33 | 2:48.61 | 123708 | 136368
8 | 30:18.19 | 5:00.54 | 136369 | 158922
9 | 35:18.73 | 5:04.32 | 158923 | 181754
10 | 40:23.30 | 6:47.55 | 181755 | 212334
11 | 47:11.10 | 6:43.52 | 212335 | 242611
12 | 53:54.62 | 3:01.50 | 242612 | 256236
13 | 56:56.37 | 2:45.70 | 256237 | 268681
14 | 59:42.32 | 2:00.20 | 268682 | 277701
15 | 61:42.52 | 3:59.27 | 277702 | 295653


Track 1

Filename D:\_Post\Amlin\01 - Intrada for two flutes and piano.wav

Pre-gap length 0:00:02.00

Peak level 89.1 %
Extraction speed 1.4 X
Track quality 99.9 %
Test CRC 306B1D41
Copy CRC 306B1D41
Track not present in AccurateRip database
Copy OK

Track 2

Filename D:\_Post\Amlin\02 - Sonata for Clarinet and Piano - Dialogue.wav

Pre-gap length 0:00:00.37

Peak level 80.7 %
Extraction speed 2.2 X
Track quality 100.0 %
Test CRC 1E5A5E5B
Copy CRC 1E5A5E5B
Track not present in AccurateRip database
Copy OK

Track 3

Filename D:\_Post\Amlin\03 - Sonata for Clarinet and Piano - Homage.wav

Peak level 57.5 %
Extraction speed 2.4 X
Track quality 100.0 %
Test CRC A2996E89
Copy CRC A2996E89
Track not present in AccurateRip database
Copy OK

Track 4

Filename D:\_Post\Amlin\04 - Sonata for Clarinet and Piano - Solfeggietto.wav

Peak level 71.4 %
Extraction speed 2.5 X
Track quality 100.0 %
Test CRC 9CDAB955
Copy CRC 9CDAB955
Track not present in AccurateRip database
Copy OK

Track 5

Filename D:\_Post\Amlin\05 - Sonata for Clarinet and Piano - Finale.wav

Peak level 98.1 %
Extraction speed 2.7 X
Track quality 100.0 %
Test CRC DFE8BC35
Copy CRC DFE8BC35
Track not present in AccurateRip database
Copy OK

Track 6

Filename D:\_Post\Amlin\06 - Morceau de Concours for flute and piano.wav

Peak level 97.9 %
Extraction speed 2.4 X
Track quality 99.9 %
Test CRC 894D3F2B
Copy CRC 894D3F2B
Track not present in AccurateRip database
Copy OK

Track 7

Filename D:\_Post\Amlin\07 - Three Etudes on Intervals for piano solo - 1. Thirds.wav

Peak level 60.9 %
Extraction speed 2.8 X
Track quality 100.0 %
Test CRC 820281CE
Copy CRC 820281CE
Track not present in AccurateRip database
Copy OK

Track 8

Filename D:\_Post\Amlin\08 - Three Etudes on Intervals for piano solo - 2. Fifths.wav

Peak level 63.1 %
Extraction speed 3.2 X
Track quality 100.0 %
Test CRC 4553CAB8
Copy CRC 4553CAB8
Track not present in AccurateRip database
Copy OK

Track 9

Filename D:\_Post\Amlin\09 - Three Etudes on Intervals for piano solo - 3. Tenths.wav

Peak level 69.7 %
Extraction speed 2.6 X
Track quality 99.9 %
Test CRC A3620A4D
Copy CRC A3620A4D
Track not present in AccurateRip database
Copy OK

Track 10

Filename D:\_Post\Amlin\10 - Sonata No. 2 for Flute and Piano - I. Molto moderato.wav

Pre-gap length 0:00:01.00

Peak level 97.2 %
Extraction speed 3.6 X
Track quality 100.0 %
Test CRC 583F8E37
Copy CRC 583F8E37
Track not present in AccurateRip database
Copy OK

Track 11

Filename D:\_Post\Amlin\11 - Sonata No. 2 for Flute and Piano - II. Adagio expressivo - Allegro perpetuo.wav

Peak level 84.4 %
Extraction speed 3.1 X
Track quality 99.9 %
Test CRC EA4FA18C
Copy CRC EA4FA18C
Track not present in AccurateRip database
Copy OK

Track 12

Filename D:\_Post\Amlin\12 - Trio Sonatina - I. Rhapsody.wav

Pre-gap length 0:00:01.00

Peak level 63.7 %
Extraction speed 3.5 X
Track quality 100.0 %
Test CRC 2A8BE610
Copy CRC 2A8BE610
Track not present in AccurateRip database
Copy OK

Track 13

Filename D:\_Post\Amlin\13 - Trio Sonatina - II. Scherzo.wav

Peak level 74.8 %
Extraction speed 3.6 X
Track quality 100.0 %
Test CRC 4F141DB7
Copy CRC 4F141DB7
Track not present in AccurateRip database
Copy OK

Track 14

Filename D:\_Post\Amlin\14 - Trio Sonatina - III. Interlude.wav

Peak level 82.1 %
Extraction speed 3.4 X
Track quality 100.0 %
Test CRC 615FD153
Copy CRC 615FD153
Track not present in AccurateRip database
Copy OK

Track 15

Filename D:\_Post\Amlin\15 - Trio Sonatina - IV. Aria.wav

Peak level 81.4 %
Extraction speed 2.8 X
Track quality 99.9 %
Test CRC 3E5F86E2
Copy CRC 3E5F86E2
Track not present in AccurateRip database
Copy OK


None of the tracks are present in the AccurateRip database

No errors occurred

End of status report

–– CUETools DB Plugin V2.1.6

[CTDB TOCID: pY6QjN9OqXKjXgeE7695kwwh1gQ-] disk not present in database
Submit result: pY6QjN9OqXKjXgeE7695kwwh1gQ- has been uploaded


==== Log checksum 5E63E38D6DECF5E5AF3D6015228508DA1DDD3A246E55C08AC2504C23F25895ED ====


Martin Amlin - Music for Flute, Clarinet & Piano (2015) {Albany Records TROY1567}



===