Subcategories

Matt Brewer - Ganymede (2019)

Posted By: Domestos
Matt Brewer - Ganymede (2019)

Matt Brewer - Ganymede (2019)
EAC Rip | FLAC (tracks+.cue, log) ~ 349.71 Mb | 59:24 | Covers
Post-Bop, Contemporary Jazz | Label: Criss Cross Jazz - Criss 1403 CD

Matt Brewer's third Criss Cross leader album, Ganymede, follows a pair of inspired ensemble recordings (Mythology. Criss 1373; Unspoken, Criss 1390), for which the master bassist convened some of the most accomplished individualists of 21st century jazz to interpret original music that showcased Brewer's sophisticated compositional skills, lyric gifts, and state of the art chops.

Here, Brewer pares down to the trio format, allowing tenor saxophone hero Mark Shim, drum virtuoso Damion Reid and himself ample room to stretch out on challenging "inside" repertoire by Ron Carter ("R.J.") and Joe Henderson ("Afro-Centric"), "outside" songs by Ornette Coleman ("Eos"), and Dewey Redman ("Willisee"), a complementary piece by Shim, and four of his own well-wrought originals.



Track List:
01. Ganymede (Brewer) - 6:30
02. Don't Wake the Violent Baby (Shim) - 5:20
03. RJ (Carter) - 4:25
04. Triton (Brewer) - 4:26
05. Afro Centric (Henderson) - 7:20
06. Io (Brewer) - 6:10
07. Eos (Coleman) - 3:00
08. Psalm (Brewer) - 7:17
09. Willisee (Redman) - 8:50
10. When Sunny Gets Blue (Fisher-Segal) - 6:06

Matt Brewer - bass
Mark Shim - tenor saxophone
Damion Reid - drums

Recorded at Systems Two Recording Studios, New York on September 11, 2018.

Matt Brewer - Ganymede (2019)

Exact Audio Copy V1.3 from 2. September 2016

EAC extraction logfile from 16. March 2020, 15:40

Matt Brewer / Ganymede

Used drive : ASUS DRW-24B1ST j Adapter: 1 ID: 0

Read mode : Secure
Utilize accurate stream : Yes
Defeat audio cache : Yes
Make use of C2 pointers : No

Read offset correction : 6
Overread into Lead-In and Lead-Out : No
Fill up missing offset samples with silence : Yes
Delete leading and trailing silent blocks : No
Null samples used in CRC calculations : Yes
Used interface : Native Win32 interface for Win NT & 2000
Gap handling : Appended to previous track

Used output format : User Defined Encoder
Selected bitrate : 1024 kBit/s
Quality : High
Add ID3 tag : No
Command line compressor : C:\Program Files\Exact Audio Copy\Flac\flac.exe
Additional command line options : -8 -V -T "ARTIST=%artist%" -T "TITLE=%title%" -T "ALBUM=%albumtitle%" -T "DATE=%year%" -T "TRACKNUMBER=%tracknr%" -T "GENRE=%genre%" -T "PERFORMER=%albuminterpret%" -T "COMPOSER=%composer%" %haslyrics%–tag-from-file=LYRICS="%lyricsfile%"%haslyrics% -T "ALBUMARTIST=%albumartist%" -T "DISCNUMBER=%cdnumber%" -T "TOTALDISCS=%totalcds%" -T "TOTALTRACKS=%numtracks%" -T "COMMENT=%comment%" %source% -o %dest%


TOC of the extracted CD

Track | Start | Length | Start sector | End sector
––––––––––––––––––––––––––––-
1 | 0:00.00 | 6:30.37 | 0 | 29286
2 | 6:30.37 | 5:19.44 | 29287 | 53255
3 | 11:50.06 | 4:24.69 | 53256 | 73124
4 | 16:15.00 | 4:26.16 | 73125 | 93090
5 | 20:41.16 | 7:19.70 | 93091 | 126085
6 | 28:01.11 | 6:09.46 | 126086 | 153806
7 | 34:10.57 | 3:00.02 | 153807 | 167308
8 | 37:10.59 | 7:17.24 | 167309 | 200107
9 | 44:28.08 | 8:50.05 | 200108 | 239862
10 | 53:18.13 | 6:05.43 | 239863 | 267280


Track 1

Filename C:\EAC\Matt Brewer - Ganymede (2019) [CD FLAC]\01 Ganymede.wav

Pre-gap length 0:00:02.00

Peak level 97.9 %
Extraction speed 5.9 X
Track quality 100.0 %
Test CRC 469A7F8C
Copy CRC 469A7F8C
Accurately ripped (confidence 1) [E1C171A2] (AR v2)
Copy OK

Track 2

Filename C:\EAC\Matt Brewer - Ganymede (2019) [CD FLAC]\02 Don't Wake the Violent Baby.wav

Peak level 97.9 %
Extraction speed 6.6 X
Track quality 100.0 %
Test CRC 41D44AB3
Copy CRC 41D44AB3
Accurately ripped (confidence 1) [DE3A8BA5] (AR v2)
Copy OK

Track 3

Filename C:\EAC\Matt Brewer - Ganymede (2019) [CD FLAC]\03 RJ.wav

Peak level 99.4 %
Extraction speed 6.0 X
Track quality 99.9 %
Test CRC 8BC4BBB5
Copy CRC 8BC4BBB5
Accurately ripped (confidence 1) [A4B8726D] (AR v2)
Copy OK

Track 4

Filename C:\EAC\Matt Brewer - Ganymede (2019) [CD FLAC]\04 Triton.wav

Peak level 98.7 %
Extraction speed 6.3 X
Track quality 99.9 %
Test CRC 80EFB989
Copy CRC 80EFB989
Accurately ripped (confidence 1) [19068DCA] (AR v2)
Copy OK

Track 5

Filename C:\EAC\Matt Brewer - Ganymede (2019) [CD FLAC]\05 Afro Centric.wav

Peak level 97.8 %
Extraction speed 8.6 X
Track quality 100.0 %
Test CRC 08188B58
Copy CRC 08188B58
Accurately ripped (confidence 1) [9DFD52E7] (AR v2)
Copy OK

Track 6

Filename C:\EAC\Matt Brewer - Ganymede (2019) [CD FLAC]\06 IO.wav

Peak level 98.0 %
Extraction speed 9.1 X
Track quality 100.0 %
Test CRC BBC84061
Copy CRC BBC84061
Accurately ripped (confidence 1) [146DD3AB] (AR v2)
Copy OK

Track 7

Filename C:\EAC\Matt Brewer - Ganymede (2019) [CD FLAC]\07 EOS.wav

Peak level 97.5 %
Extraction speed 8.7 X
Track quality 100.0 %
Test CRC 058ED042
Copy CRC 058ED042
Accurately ripped (confidence 1) [1DA44CBB] (AR v2)
Copy OK

Track 8

Filename C:\EAC\Matt Brewer - Ganymede (2019) [CD FLAC]\08 Psalm.wav

Peak level 97.8 %
Extraction speed 10.2 X
Track quality 100.0 %
Test CRC 2E6E033F
Copy CRC 2E6E033F
Accurately ripped (confidence 1) [18802E9C] (AR v2)
Copy OK

Track 9

Filename C:\EAC\Matt Brewer - Ganymede (2019) [CD FLAC]\09 Willisee.wav

Peak level 98.4 %
Extraction speed 11.0 X
Track quality 100.0 %
Test CRC B17B8B1B
Copy CRC B17B8B1B
Accurately ripped (confidence 1) [EF61A945] (AR v2)
Copy OK

Track 10

Filename C:\EAC\Matt Brewer - Ganymede (2019) [CD FLAC]\10 When Sunny Gets Blue.wav

Peak level 97.7 %
Extraction speed 9.6 X
Track quality 99.9 %
Test CRC 93D5284B
Copy CRC 93D5284B
Accurately ripped (confidence 1) [6B5F00E4] (AR v2)
Copy OK


All tracks accurately ripped

No errors occurred

End of status report

==== Log checksum C7CD3C239366230FC5EA8DB6BF3BDD6872E826C5DC97E6D9DB8A59E297368307 ====

All thanks go to the chesterjazzman

More Music in My Blog
Follow My RSS Channel