Subcategories

Matthias Lupri Group - Same Time Twice (2002)

Posted By: Domestos
Matthias Lupri Group - Same Time Twice (2002)

Matthias Lupri Group - Same Time Twice (2002)
XLD Rip | FLAC (tracks+.cue, log) ~ 460.67Mb | 69:11 | Covers
Modern Creative, Fusion | Label: Summit Records - DCD 337

Vibraphonist Matthias Lupri has gained international attention because of his mastery of this percussion instrument, a rare one in the jazz idiom, but one that he induces to speak in a beautiful array of musical colors and textures. On Same Time Twice, the Berklee graduate teams up with guitarist Kurt Rosenwinkel, saxophonist Mark Turner, acoustic bassist Reuben Rogers, and drummer Gregory Hutchinson, all excellent leaders in their own right. But despite the giant-sized talent of this ensemble, there are no conflicts of jazz interests here, just splendid complementing and soloing and audacious improvising.

This highly listenable straight-ahead jazz collection boasts 11 brand new songs, all written by Lupri and packed with the significant vibrato and production concepts that he has gleaned over the years from such master vibists and educators as Gary Burton and Lionel Hampton. However, this stellar set is played in the ensemble's own voice, with a variation on the typical vibraphone sound, as Lupri runs through a pickup and guitar amp. "Same Time Twice" opens the program, and includes excellent simultaneous solos from Rosenwinkel and Hutchinson over the ending vamp. Throughout the song, they set a pattern of sound replicated by the group in amplitude and pitch, even though the group's improvisations are independent of each other. The group's approach to chromatic harmony gives the impression of exotic origins on the dulcet-titled "Jade." Lupri's lyricism and modulations form its beautiful melody and sentimental tone, while Hutchinson and Rogers supply just the right tempo and emotion. "You Just Never Know" and "After Hours" are pensive ballads that are both provocative and soothing, and yet still entertain. Overall, Same Time Twice exceeds the expectations and satisfaction heard on Lupri's previous two releases, Window Up Window Down and Shadow of the Vibe, providing a continuum for Lupri's vibraphone and compositional values and creativity. ~ AllMusic Review by Paula Edelstein

Matthias Lupri - vibraphone
Mark Turner - tenor saxophone, soprano saxophone
Kurt Rosenwinkel - acoustic guitar, electric guitar
Reuben Rogers - acoustic bass
Gregory Hutchinson - drums

Recorded at Acoustic Studios, New York on September 19-20, 2000.

Track List:
01. Same Time Twice (Lupri) - 7:22
02. Song of Change (Lupri) - 8:35
03. Jade (Lupri) - 7:48
04. You Just Never Know (Lupri) - 6:54
05. Saucey (Lupri) - 7:53
06. Wish Song (prelude) (Lupri) - 2:35
07. The Wish Song (Lupri) - 7:31
08. Cathy's Tune (Lupri) - 5:27
09. After Hours (Lupri) - 6:41
10. Release (Lupri) - 6:41
11. After Hours (reprise) (Lupri) - 1:44

Matthias Lupri Group - Same Time Twice (2002)

X Lossless Decoder version 20170729 (150.3)

XLD extraction logfile from 2017-12-02 15:48:23 -0500

Matthias Lupri Group / Same Time Twice

Used drive : MATSHITA DVD-R UJ-8A8 (revision HA13)
Media type : Pressed CD

Ripper mode : XLD Secure Ripper
Disable audio cache : OK for the drive with a cache less than 1375KiB
Make use of C2 pointers : NO
Read offset correction : 102
Max retry count : 100
Gap status : Analyzed, Appended (except HTOA)

TOC of the extracted CD
Track | Start | Length | Start sector | End sector
––––––––––––––––––––––––––––-
1 | 00:00:00 | 07:22:07 | 0 | 33156
2 | 07:22:07 | 08:34:60 | 33157 | 71766
3 | 15:56:67 | 07:48:08 | 71767 | 106874
4 | 23:45:00 | 06:53:60 | 106875 | 137909
5 | 30:38:60 | 07:53:20 | 137910 | 173404
6 | 38:32:05 | 02:34:70 | 173405 | 185024
7 | 41:07:00 | 07:30:67 | 185025 | 218841
8 | 48:37:67 | 05:27:30 | 218842 | 243396
9 | 54:05:22 | 06:40:53 | 243397 | 273449
10 | 60:46:00 | 06:41:27 | 273450 | 303551
11 | 67:27:27 | 01:44:30 | 303552 | 311381

AccurateRip Summary (DiscID: 001f6a0a-010acfa8-a910370b)
Track 01 : OK (v2, confidence 4/4)
Track 02 : OK (v2, confidence 4/4)
Track 03 : OK (v2, confidence 4/4)
Track 04 : OK (v2, confidence 4/4)
Track 05 : OK (v2, confidence 4/4)
Track 06 : OK (v2, confidence 4/4)
Track 07 : OK (v2, confidence 3/3)
Track 08 : OK (v2, confidence 4/4)
Track 09 : OK (v2, confidence 4/4)
Track 10 : OK (v2, confidence 4/4)
Track 11 : OK (v2, confidence 4/4)
->All tracks accurately ripped.

All Tracks
Album gain : -7.15 dB
Peak : 1.000000
Statistics
Read error : 0
Jitter error (maybe fixed) : 0
Retry sector count : 0
Damaged sector count : 0

Track 01
Filename : /Users/ianwolff/Downloads/torrent seeding/Matthias Lupri Group - Same Time Twice (2002) [FLAC]/01 Same Time Twice.flac
Pre-gap length : 00:02:00

Track gain : -8.05 dB
Peak : 0.998932
CRC32 hash (test run) : 2994FB25
CRC32 hash : 2994FB25
CRC32 hash (skip zero) : 4487CEFC
AccurateRip v1 signature : 1F547D37
AccurateRip v2 signature : 1D10A6C2
->Accurately ripped (v2, confidence 4/4)
Statistics
Read error : 0
Jitter error (maybe fixed) : 0
Retry sector count : 0
Damaged sector count : 0

Track 02
Filename : /Users/ianwolff/Downloads/torrent seeding/Matthias Lupri Group - Same Time Twice (2002) [FLAC]/02 Song of Change.flac

Track gain : -8.03 dB
Peak : 1.000000
CRC32 hash (test run) : F4BD008D
CRC32 hash : F4BD008D
CRC32 hash (skip zero) : DE9880E3
AccurateRip v1 signature : DFAEC405
AccurateRip v2 signature : 72D65178
->Accurately ripped (v2, confidence 4/4)
Statistics
Read error : 0
Jitter error (maybe fixed) : 0
Retry sector count : 0
Damaged sector count : 0

Track 03
Filename : /Users/ianwolff/Downloads/torrent seeding/Matthias Lupri Group - Same Time Twice (2002) [FLAC]/03 Jade.flac

Track gain : -6.96 dB
Peak : 0.998901
CRC32 hash (test run) : 0AC43091
CRC32 hash : 0AC43091
CRC32 hash (skip zero) : 0ACFFFFD
AccurateRip v1 signature : A4AC1049
AccurateRip v2 signature : 2194CBD4
->Accurately ripped (v2, confidence 4/4)
Statistics
Read error : 0
Jitter error (maybe fixed) : 0
Retry sector count : 0
Damaged sector count : 0

Track 04
Filename : /Users/ianwolff/Downloads/torrent seeding/Matthias Lupri Group - Same Time Twice (2002) [FLAC]/04 You Just Never Know.flac
Pre-gap length : 00:02:25

Track gain : -6.68 dB
Peak : 0.998932
CRC32 hash (test run) : A1269D0B
CRC32 hash : A1269D0B
CRC32 hash (skip zero) : 1CED9BE1
AccurateRip v1 signature : 2DD72359
AccurateRip v2 signature : CA43FF30
->Accurately ripped (v2, confidence 4/4)
Statistics
Read error : 0
Jitter error (maybe fixed) : 0
Retry sector count : 0
Damaged sector count : 0

Track 05
Filename : /Users/ianwolff/Downloads/torrent seeding/Matthias Lupri Group - Same Time Twice (2002) [FLAC]/05 Saucey.flac

Track gain : -6.23 dB
Peak : 1.000000
CRC32 hash (test run) : D8FD7D61
CRC32 hash : D8FD7D61
CRC32 hash (skip zero) : 0F951FC4
AccurateRip v1 signature : 7D3B4582
AccurateRip v2 signature : 017F9FC6
->Accurately ripped (v2, confidence 4/4)
Statistics
Read error : 0
Jitter error (maybe fixed) : 0
Retry sector count : 0
Damaged sector count : 0

Track 06
Filename : /Users/ianwolff/Downloads/torrent seeding/Matthias Lupri Group - Same Time Twice (2002) [FLAC]/06 Wish Song (prelude).flac
Pre-gap length : 00:03:10

Track gain : -3.26 dB
Peak : 0.943054
CRC32 hash (test run) : 4E577F9E
CRC32 hash : 4E577F9E
CRC32 hash (skip zero) : 2A2A32BE
AccurateRip v1 signature : 5FB68627
AccurateRip v2 signature : 660D1077
->Accurately ripped (v2, confidence 4/4)
Statistics
Read error : 0
Jitter error (maybe fixed) : 0
Retry sector count : 0
Damaged sector count : 0

Track 07
Filename : /Users/ianwolff/Downloads/torrent seeding/Matthias Lupri Group - Same Time Twice (2002) [FLAC]/07 The Wish Song.flac

Track gain : -6.95 dB
Peak : 0.943054
CRC32 hash (test run) : BB7C91EC
CRC32 hash : BB7C91EC
CRC32 hash (skip zero) : 1BEF7E35
AccurateRip v1 signature : 53641351
AccurateRip v2 signature : 17666F43
->Accurately ripped (v2, confidence 3/3)
Statistics
Read error : 0
Jitter error (maybe fixed) : 0
Retry sector count : 0
Damaged sector count : 0

Track 08
Filename : /Users/ianwolff/Downloads/torrent seeding/Matthias Lupri Group - Same Time Twice (2002) [FLAC]/08 Cathy's Tune.flac

Track gain : -7.39 dB
Peak : 0.998932
CRC32 hash (test run) : 43A1892A
CRC32 hash : 43A1892A
CRC32 hash (skip zero) : A11896F9
AccurateRip v1 signature : C63F9B2F
AccurateRip v2 signature : FD6A54BA
->Accurately ripped (v2, confidence 4/4)
Statistics
Read error : 0
Jitter error (maybe fixed) : 0
Retry sector count : 0
Damaged sector count : 0

Track 09
Filename : /Users/ianwolff/Downloads/torrent seeding/Matthias Lupri Group - Same Time Twice (2002) [FLAC]/09 After Hours.flac
Pre-gap length : 00:02:47

Track gain : -4.65 dB
Peak : 0.911011
CRC32 hash (test run) : 3C8B938A
CRC32 hash : 3C8B938A
CRC32 hash (skip zero) : D9B4E0DF
AccurateRip v1 signature : E25C10CF
AccurateRip v2 signature : E3EBF68B
->Accurately ripped (v2, confidence 4/4)
Statistics
Read error : 0
Jitter error (maybe fixed) : 0
Retry sector count : 0
Damaged sector count : 0

Track 10
Filename : /Users/ianwolff/Downloads/torrent seeding/Matthias Lupri Group - Same Time Twice (2002) [FLAC]/10 Release.flac

Track gain : -7.36 dB
Peak : 0.998932
CRC32 hash (test run) : 0E81FE14
CRC32 hash : 0E81FE14
CRC32 hash (skip zero) : D418CE1C
AccurateRip v1 signature : C5FC6102
AccurateRip v2 signature : DBCA742D
->Accurately ripped (v2, confidence 4/4)
Statistics
Read error : 0
Jitter error (maybe fixed) : 0
Retry sector count : 0
Damaged sector count : 0

Track 11
Filename : /Users/ianwolff/Downloads/torrent seeding/Matthias Lupri Group - Same Time Twice (2002) [FLAC]/11 After Hours (reprise).flac
Pre-gap length : 00:04:27

Track gain : -3.21 dB
Peak : 0.998932
CRC32 hash (test run) : CE650671
CRC32 hash : CE650671
CRC32 hash (skip zero) : 2DF87314
AccurateRip v1 signature : 3921C800
AccurateRip v2 signature : 4CE3BFAC
->Accurately ripped (v2, confidence 4/4)
Statistics
Read error : 0
Jitter error (maybe fixed) : 0
Retry sector count : 0
Damaged sector count : 0

No errors occurred

End of status report

––-BEGIN XLD SIGNATURE––-
EUZDgULbOMdhJYyah_5ILf7kgOI4ZMo01WdVOhXFM4BiZbVsOyxEanH9zi_zzHQGupfefftNZae3GXVhHhnIZML1U3AYGFGUu5Nb_y8
––-END XLD SIGNATURE––-

All thanks go to the CmdrChesticle

More Music in My Blog
Follow My RSS Channel