Subcategories

Miles Davis - The Original Jacket Collection (2006) [30 Albums, 37 CDs] {DSD Japan Mini LP Analog Collection} (part 2of6)

Posted By: ruskaval
Miles Davis - The Original Jacket Collection (2006) [30 Albums, 37 CDs] {DSD Japan Mini LP Analog Collection} (part 2of6)

Miles Davis - The Original Jacket Collection (2006) [30 Albums, 37 CDs] {DSD Japan Mini LP Analog Collection} (part 2of6)
EAC rip (secure mode) | FLAC (tracks)+CUE+LOG -> 1.23 Gb | MP3 @320 -> 555 Mb | Artwork
© 2006 Sony Music Japan / Columbia | SICP 1206~10 | DSD | HQD High Quality Disc
Jazz / Hard Bop / Modal Music / Trumpet

Kind of Blue isn't merely an artistic highlight for Miles Davis, it's an album that towers above its peers, a record generally considered as the definitive jazz album, a universally acknowledged standard of excellence. Why does Kind of Blue posses such a mystique? Perhaps because this music never flaunts its genius. It lures listeners in with the slow, luxurious bassline and gentle piano chords of "So What." From that moment on, the record never really changes pace – each tune has a similar relaxed feel, as the music flows easily. Yet Kind of Blue is more than easy listening. It's the pinnacle of modal jazz – tonality and solos build from the overall key, not chord changes, giving the music a subtly shifting quality. All of this doesn't quite explain why seasoned jazz fans return to this record even after they've memorized every nuance.
Miles Davis - The Original Jacket Collection (2006) [30 Albums, 37 CDs] {DSD Japan Mini LP Analog Collection} (part 2of6)


––––––––––––––––––––
Miles Davis - The Original Jacket Collection (2006) [30 Albums, 37 CDs] {DSD Japan Mini LP Analog Collection} (part 2of6)

Miles Davis - Kind Of Blue (1959) {2006 DSD Japan Mini LP Edition}
EAC rip (secure mode) | FLAC (tracks)+CUE+LOG -> 276 Mb | MP3 @320 -> 110 Mb | Artwork
© 2006 Sony Music Japan / Columbia | SICP 1206 | DSD | HQD High Quality Disc

They return because this is an exceptional band – Miles, Coltrane, Bill Evans, Cannonball Adderley, Paul Chambers, Jimmy Cobb – one of the greatest in history, playing at the peak of its power. As Evans said in the original liner notes for the record, the band did not play through any of these pieces prior to recording. Davis laid out the themes before the tape rolled, and then the band improvised. The end results were wondrous and still crackle with vitality. Kind of Blue works on many different levels. It can be played as background music, yet it amply rewards close listening. It is advanced music that is extraordinarily enjoyable. It may be a stretch to say that if you don't like Kind of Blue, you don't like jazz – but it's hard to imagine it as anything other than a cornerstone of any jazz collection.

Personnel: Miles Davis (trumpet); Cannonball Adderley (alto saxophone); Paul Chambers (double bass); John Coltrane (tenor saxophone); Wynton Kelly, Bill Evans (piano); Jimmy Cobb (drums).

tracklist:
01. So What (take 3) (speed-corrected, slow fade)
02. Freddie Freeloader (take 4) (speed-corrected)
03. Blue in Green (take 5) (speed-corrected)
04. All Blues (take 1)
05. Flamenco Sketches (take 6)

Exact Audio Copy V0.99 prebeta 5 from 4. May 2009

EAC extraction logfile from 3. January 2013, 20:49

Miles Davis / Kind Of Blue

Used drive : PLEXTOR DVDR PX-L890SA Adapter: 6 ID: 0

Read mode : Secure
Utilize accurate stream : Yes
Defeat audio cache : Yes
Make use of C2 pointers : No

Read offset correction : 6
Overread into Lead-In and Lead-Out : No
Fill up missing offset samples with silence : Yes
Delete leading and trailing silent blocks : No
Null samples used in CRC calculations : Yes
Used interface : Native Win32 interface for Win NT & 2000
Gap handling : Appended to previous track

Used output format : User Defined Encoder
Selected bitrate : 1024 kBit/s
Quality : High
Add ID3 tag : No
Command line compressor : C:\Program Files (x86)\FLAC\flac.exe
Additional command line options : -8 -V -T "ARTIST=%a" -T "TITLE=%t" -T "ALBUM=%g" -T "DATE=%y" -T "TRACKNUMBER=%n" -T "GENRE=%m" -T "COMMENT=EAC FLAC -8" %s


TOC of the extracted CD

Track | Start | Length | Start sector | End sector
––––––––––––––––––––––––––––-
1 | 0:00.00 | 9:25.06 | 0 | 42380
2 | 9:25.06 | 9:47.07 | 42381 | 86412
3 | 19:12.13 | 5:37.69 | 86413 | 111756
4 | 24:50.07 | 11:35.53 | 111757 | 163934
5 | 36:25.60 | 9:24.24 | 163935 | 206258


Track 1

Filename C:\EAC\Miles Davis - The Original Jacket Collection (2006) [37CD]\06. Miles Davis - Kind Of Blue (1959) {2006 DSD Japan Mini LP Edition, SICP 1206}\01 - So What.wav

Pre-gap length 0:00:02.00

Peak level 100.0 %
Track quality 100.0 %
Test CRC 0D29172D
Copy CRC 0D29172D
Accurately ripped (confidence 32) [E2DCC0B3]
Copy OK

Track 2

Filename C:\EAC\Miles Davis - The Original Jacket Collection (2006) [37CD]\06. Miles Davis - Kind Of Blue (1959) {2006 DSD Japan Mini LP Edition, SICP 1206}\02 - Freddie Freeloader.wav

Pre-gap length 0:00:01.92

Peak level 100.0 %
Track quality 99.9 %
Test CRC B52DB237
Copy CRC B52DB237
Accurately ripped (confidence 31) [46D34927]
Copy OK

Track 3

Filename C:\EAC\Miles Davis - The Original Jacket Collection (2006) [37CD]\06. Miles Davis - Kind Of Blue (1959) {2006 DSD Japan Mini LP Edition, SICP 1206}\03 - Blue In Green.wav

Pre-gap length 0:00:01.72

Peak level 86.2 %
Track quality 100.0 %
Test CRC 52327532
Copy CRC 52327532
Accurately ripped (confidence 31) [E3A56638]
Copy OK

Track 4

Filename C:\EAC\Miles Davis - The Original Jacket Collection (2006) [37CD]\06. Miles Davis - Kind Of Blue (1959) {2006 DSD Japan Mini LP Edition, SICP 1206}\04 - All Blues.wav

Pre-gap length 0:00:02.18

Peak level 100.0 %
Track quality 100.0 %
Test CRC D7CBA58F
Copy CRC D7CBA58F
Accurately ripped (confidence 31) [8F8575BF]
Copy OK

Track 5

Filename C:\EAC\Miles Davis - The Original Jacket Collection (2006) [37CD]\06. Miles Davis - Kind Of Blue (1959) {2006 DSD Japan Mini LP Edition, SICP 1206}\05 - Flamenco Sketches.wav

Pre-gap length 0:00:01.98

Peak level 96.9 %
Track quality 100.0 %
Test CRC 55B0E6D1
Copy CRC 55B0E6D1
Accurately ripped (confidence 32) [6ED92609]
Copy OK


All tracks accurately ripped

No errors occurred

End of status report


Miles Davis - The Original Jacket Collection (2006) [30 Albums, 37 CDs] {DSD Japan Mini LP Analog Collection} (part 2of6)



–––––––––––––––––––––––––-
Miles Davis - The Original Jacket Collection (2006) [30 Albums, 37 CDs] {DSD Japan Mini LP Analog Collection} (part 2of6)

Miles Davis - Sketches Of Spain (1960) {2006 DSD Japan Mini LP Edition}
EAC rip (secure mode) | FLAC (tracks)+CUE+LOG -> 255 Mb | MP3 @320 -> 100 Mb | Artwork
© 2006 Sony Music Japan / Columbia | SICP 1207 | DSD | HQD High Quality Disc

Along with Kind of Blue, In a Silent Way, and Round About Midnight, Sketches of Spain is one of Miles Davis' most enduring and innovative achievements. Recorded between November 1959 and March 1960 – after Coltrane and Cannonball Adderley had left the band – Davis teamed with Canadian arranger Gil Evans for the third time. Davis brought Evans the album's signature piece, "Concierto de Aranjuez," after hearing a classical version of it at bassist Joe Mondragon's house. Evans was as taken with it as Davis was, and set about to create an entire album of material around it. The result is a masterpiece of modern art. On the "Concierto," Evans' arrangement provided an orchestra and jazz band – Paul Chambers, Jimmy Cobb, and Elvin Jones – the opportunity to record a classical work as it was. The piece, with its stunning colors and intricate yet transcendent adagio, played by Davis on a flügelhorn with a Harmon mute, is one of the most memorable works to come from popular culture in the 20th century. Davis' control over his instrument is singular, and Evans' conducting is flawless. Also notable are "Saeta," with one of the most amazing technical solos of Davis' career, and the album's closer, "Solea," which is conceptually a narrative piece, based on an Andalusian folk song, about a woman who encounters the procession taking Christ to Calvary. She sings the narrative of his passion and the procession – or parade – with full brass accompaniment moving along. Cobb and Jones, with flamenco-flavored percussion, are particularly wonderful here, as they allow the orchestra to indulge in the lushly passionate arrangement Evans provided to accompany Davis, who was clearly at his most challenged here, though he delivers with grace and verve. Sketches of Spain is the most luxuriant and stridently romantic recording Davis ever made. To listen to it in the 21st century is still a spine-tingling experience, as one encounters a multitude of timbres, tonalities, and harmonic structures seldom found in the music called jazz.

tracklist:
01. Concierto de Aranjuez
02. Will O' The Wisp
03. The Pan Piper
04. Saeta
05. Solea

Exact Audio Copy V0.99 prebeta 5 from 4. May 2009

EAC extraction logfile from 3. January 2013, 22:20

Miles Davis / Sketches Of Spain

Used drive : PLEXTOR DVDR PX-L890SA Adapter: 6 ID: 0

Read mode : Secure
Utilize accurate stream : Yes
Defeat audio cache : Yes
Make use of C2 pointers : No

Read offset correction : 6
Overread into Lead-In and Lead-Out : No
Fill up missing offset samples with silence : Yes
Delete leading and trailing silent blocks : No
Null samples used in CRC calculations : Yes
Used interface : Native Win32 interface for Win NT & 2000
Gap handling : Appended to previous track

Used output format : User Defined Encoder
Selected bitrate : 1024 kBit/s
Quality : High
Add ID3 tag : No
Command line compressor : C:\Program Files (x86)\FLAC\flac.exe
Additional command line options : -8 -V -T "ARTIST=%a" -T "TITLE=%t" -T "ALBUM=%g" -T "DATE=%y" -T "TRACKNUMBER=%n" -T "GENRE=%m" -T "COMMENT=EAC FLAC -8" %s


TOC of the extracted CD

Track | Start | Length | Start sector | End sector
––––––––––––––––––––––––––––-
1 | 0:00.00 | 16:23.40 | 0 | 73764
2 | 16:23.40 | 3:49.54 | 73765 | 90993
3 | 20:13.19 | 4:07.10 | 90994 | 109528
4 | 24:20.29 | 5:01.70 | 109529 | 132173
5 | 29:22.24 | 12:16.21 | 132174 | 187394


Track 1

Filename C:\EAC\Miles Davis - The Original Jacket Collection (2006) [37CD]\07. Miles Davis - Sketches Of Spain (1960) {2006 DSD Japan Mini LP Edition, SICP 1207}\01 - Concierto De Aranjuez.wav

Pre-gap length 0:00:02.00

Peak level 98.4 %
Track quality 100.0 %
Test CRC C032AFCA
Copy CRC C032AFCA
Accurately ripped (confidence 11) [96F28798]
Copy OK

Track 2

Filename C:\EAC\Miles Davis - The Original Jacket Collection (2006) [37CD]\07. Miles Davis - Sketches Of Spain (1960) {2006 DSD Japan Mini LP Edition, SICP 1207}\02 - Will O' The Wisp.wav

Pre-gap length 0:00:03.73

Peak level 61.0 %
Track quality 100.0 %
Test CRC 60D60520
Copy CRC 60D60520
Accurately ripped (confidence 11) [52E27BC1]
Copy OK

Track 3

Filename C:\EAC\Miles Davis - The Original Jacket Collection (2006) [37CD]\07. Miles Davis - Sketches Of Spain (1960) {2006 DSD Japan Mini LP Edition, SICP 1207}\03 - The Pan Piper.wav

Pre-gap length 0:00:01.20

Peak level 87.3 %
Track quality 100.0 %
Test CRC A38A7BAA
Copy CRC A38A7BAA
Accurately ripped (confidence 11) [DC46BB4C]
Copy OK

Track 4

Filename C:\EAC\Miles Davis - The Original Jacket Collection (2006) [37CD]\07. Miles Davis - Sketches Of Spain (1960) {2006 DSD Japan Mini LP Edition, SICP 1207}\04 - Saeta.wav

Pre-gap length 0:00:01.82

Peak level 76.2 %
Track quality 100.0 %
Test CRC 792E834D
Copy CRC 792E834D
Accurately ripped (confidence 11) [5950CF89]
Copy OK

Track 5

Filename C:\EAC\Miles Davis - The Original Jacket Collection (2006) [37CD]\07. Miles Davis - Sketches Of Spain (1960) {2006 DSD Japan Mini LP Edition, SICP 1207}\05 - Solea.wav

Peak level 100.0 %
Track quality 100.0 %
Test CRC 181997C7
Copy CRC 181997C7
Accurately ripped (confidence 11) [4A628F8B]
Copy OK


All tracks accurately ripped

No errors occurred

End of status report


Miles Davis - The Original Jacket Collection (2006) [30 Albums, 37 CDs] {DSD Japan Mini LP Analog Collection} (part 2of6)



––––––––––––––––––––––––––––-
Miles Davis - The Original Jacket Collection (2006) [30 Albums, 37 CDs] {DSD Japan Mini LP Analog Collection} (part 2of6)

Miles Davis - Someday My Prince Will Come (1961) {2006 DSD Japan Mini LP Edition}
EAC rip (secure mode) | FLAC (tracks)+CUE+LOG -> 252 Mb | MP3 @320 -> 100 Mb | Artwork
© 2006 Sony Music Japan / Columbia | SICP 1208 | DSD | HQD High Quality Disc

After both John Coltrane and Cannonball Adderley left Miles Davis' quintet, he was caught in the web of seeking suitable replacements. It was a period of trial and error for him that nonetheless yielded some legendary recordings (Sketches of Spain, for one). One of those is Someday My Prince Will Come. The lineup is Davis, pianist Wynton Kelly, bassist Paul Chambers, and alternating drummers Jimmy Cobb and Philly Jo Jones. The saxophonist was Hank Mobley on all but two tracks. John Coltrane returns for the title track and "Teo." The set opens with the title, a lilting waltz that nonetheless gets an original treatment here, despite having been recorded by Dave Brubeck. Kelly is in keen form, playing a bit sprightlier than the tempo would allow, and slips flourishes in the high register inside the melody for an "elfin" feel. Davis waxes light and lyrical with his Harmon mute, playing glissando throughout. Mobley plays a strictly journeyman solo, and then Coltrane blows the pack away with a solo so deep inside the harmony it sounds like it's coming from somewhere else. Mobley's real moment on the album is on the next track, "Old Folks," when he doesn't have Coltrane breathing down his neck. Mobley's soul-stationed lyricism is well-suited to his soloing here, and is for the rest of the album except, of course, on "Teo," where Coltrane takes him out again. The closer on the set, "Blues No. 2," is a vamp on "All Blues," from Kind of Blue, and features Kelly and Chambers playing counterpoint around an eight bar figure then transposing it to 12. Jones collapses the beat, strides it out, and then erects it again for the solos of Davis and Mobley. This is relaxed session; there are no burning tracks here, but there is much in the way of precision playing and a fine exposition of Miles' expansive lyricism.

Personnel: Miles Davis (trumpet); Hank Mobley, John Coltrane (tenor saxophone); Wynton Kelly (piano); Paul Chambers (bass); Jimmy Cobb, Philly Joe Jones (drums).

tracklist:
01. Someday My Prince Will Come
02. Old Folks
03. Pfrancing
04. Drad-Dog
05. Teo
06. I Thought About You

Exact Audio Copy V0.99 prebeta 5 from 4. May 2009

EAC extraction logfile from 3. January 2013, 23:52

Miles Davis / Someday My Prince Will Come

Used drive : PLEXTOR DVDR PX-L890SA Adapter: 6 ID: 0

Read mode : Secure
Utilize accurate stream : Yes
Defeat audio cache : Yes
Make use of C2 pointers : No

Read offset correction : 6
Overread into Lead-In and Lead-Out : No
Fill up missing offset samples with silence : Yes
Delete leading and trailing silent blocks : No
Null samples used in CRC calculations : Yes
Used interface : Native Win32 interface for Win NT & 2000
Gap handling : Appended to previous track

Used output format : User Defined Encoder
Selected bitrate : 1024 kBit/s
Quality : High
Add ID3 tag : No
Command line compressor : C:\Program Files (x86)\FLAC\flac.exe
Additional command line options : -8 -V -T "ARTIST=%a" -T "TITLE=%t" -T "ALBUM=%g" -T "DATE=%y" -T "TRACKNUMBER=%n" -T "GENRE=%m" -T "COMMENT=EAC FLAC -8" %s


TOC of the extracted CD

Track | Start | Length | Start sector | End sector
––––––––––––––––––––––––––––-
1 | 0:00.00 | 9:05.50 | 0 | 40924
2 | 9:05.50 | 5:17.01 | 40925 | 64700
3 | 14:22.51 | 8:33.39 | 64701 | 103214
4 | 22:56.15 | 4:31.15 | 103215 | 123554
5 | 27:27.30 | 9:35.47 | 123555 | 166726
6 | 37:03.02 | 4:53.51 | 166727 | 188752


Track 1

Filename C:\EAC\Miles Davis - The Original Jacket Collection (2006) [37CD]\08. Miles Davis - Someday My Prince Will Come (1961) {2006 DSD Japan Mini LP Edition, SICP 1208}\01 - Someday My Prince Will Come.wav

Pre-gap length 0:00:02.00

Peak level 85.7 %
Track quality 100.0 %
Test CRC 9834B3F8
Copy CRC 9834B3F8
Accurately ripped (confidence 8) [F9557380]
Copy OK

Track 2

Filename C:\EAC\Miles Davis - The Original Jacket Collection (2006) [37CD]\08. Miles Davis - Someday My Prince Will Come (1961) {2006 DSD Japan Mini LP Edition, SICP 1208}\02 - Old Folks.wav

Pre-gap length 0:00:01.58

Peak level 65.9 %
Track quality 100.0 %
Test CRC 487A5D01
Copy CRC 487A5D01
Accurately ripped (confidence 8) [B57A2011]
Copy OK

Track 3

Filename C:\EAC\Miles Davis - The Original Jacket Collection (2006) [37CD]\08. Miles Davis - Someday My Prince Will Come (1961) {2006 DSD Japan Mini LP Edition, SICP 1208}\03 - Pfrancing.wav

Pre-gap length 0:00:01.70

Peak level 100.0 %
Track quality 100.0 %
Test CRC 6760AD1C
Copy CRC 6760AD1C
Accurately ripped (confidence 8) [35E15BA0]
Copy OK

Track 4

Filename C:\EAC\Miles Davis - The Original Jacket Collection (2006) [37CD]\08. Miles Davis - Someday My Prince Will Come (1961) {2006 DSD Japan Mini LP Edition, SICP 1208}\04 - Drad-dog.wav

Pre-gap length 0:00:01.85

Peak level 69.8 %
Track quality 100.0 %
Test CRC ED10A42E
Copy CRC ED10A42E
Accurately ripped (confidence 8) [96669E7C]
Copy OK

Track 5

Filename C:\EAC\Miles Davis - The Original Jacket Collection (2006) [37CD]\08. Miles Davis - Someday My Prince Will Come (1961) {2006 DSD Japan Mini LP Edition, SICP 1208}\05 - Teo.wav

Peak level 100.0 %
Track quality 100.0 %
Test CRC 6AB56766
Copy CRC 6AB56766
Accurately ripped (confidence 8) [84AE0C40]
Copy OK

Track 6

Filename C:\EAC\Miles Davis - The Original Jacket Collection (2006) [37CD]\08. Miles Davis - Someday My Prince Will Come (1961) {2006 DSD Japan Mini LP Edition, SICP 1208}\06 - I Thought About You.wav

Pre-gap length 0:00:01.25

Peak level 92.5 %
Track quality 100.0 %
Test CRC CDE11F46
Copy CRC CDE11F46
Accurately ripped (confidence 8) [C4A9F1B8]
Copy OK


All tracks accurately ripped

No errors occurred

End of status report


Miles Davis - The Original Jacket Collection (2006) [30 Albums, 37 CDs] {DSD Japan Mini LP Analog Collection} (part 2of6)



–––––––––––––––––––––––
Miles Davis - The Original Jacket Collection (2006) [30 Albums, 37 CDs] {DSD Japan Mini LP Analog Collection} (part 2of6)

Miles Davis - Seven Steps To Heaven (1963) {2006 DSD Japan Mini LP Edition}
EAC rip (secure mode) | FLAC (tracks)+CUE+LOG -> 276 Mb | MP3 @320 -> 110 Mb | Artwork
© 2006 Sony Music Japan / Columbia | SICP 1209 | DSD | HQD High Quality Disc

In 1963, Miles Davis was at a transitional point in his career, without a regular group and wondering what his future musical direction would be. At the time he recorded the music heard on this CD, he was in the process of forming a new band, as can be seen from the personnel: tenor saxophonist George Coleman, Victor Feldman (who turned down the job) and Herbie Hancock on pianos, bassist Ron Carter, and Frank Butler and Tony Williams on drums. Recorded at two separate sessions, this set is highlighted by the classic "Seven Steps to Heaven," "Joshua," and slow passionate versions of "Basin Street Blues" and "Baby Won't You Please Come Home."

Personnel: Miles Davis (trumpet); George Coleman (tenor saxophone); Victor Feldman, Herbie Hancock (piano); Ron Carter (bass); Tony Williams, Frank Butler (drums).

tracklist:
01. Basin Street Blues
02. Seven Steps to Heaven
03. I Fall in Love Too Easily
04. So Near, So Far
05. Baby, Won't You Please Come Home
06. Joshua

Exact Audio Copy V0.99 prebeta 5 from 4. May 2009

EAC extraction logfile from 4. January 2013, 12:14

Miles Davis / Seven Steps To Heaven

Used drive : PLEXTOR DVDR PX-L890SA Adapter: 6 ID: 0

Read mode : Secure
Utilize accurate stream : Yes
Defeat audio cache : Yes
Make use of C2 pointers : No

Read offset correction : 6
Overread into Lead-In and Lead-Out : No
Fill up missing offset samples with silence : Yes
Delete leading and trailing silent blocks : No
Null samples used in CRC calculations : Yes
Used interface : Native Win32 interface for Win NT & 2000
Gap handling : Appended to previous track

Used output format : User Defined Encoder
Selected bitrate : 1024 kBit/s
Quality : High
Add ID3 tag : No
Command line compressor : C:\Program Files (x86)\FLAC\flac.exe
Additional command line options : -8 -V -T "ARTIST=%a" -T "TITLE=%t" -T "ALBUM=%g" -T "DATE=%y" -T "TRACKNUMBER=%n" -T "GENRE=%m" -T "COMMENT=EAC FLAC -8" %s


TOC of the extracted CD

Track | Start | Length | Start sector | End sector
––––––––––––––––––––––––––––-
1 | 0:00.00 | 10:29.70 | 0 | 47244
2 | 10:29.70 | 6:25.23 | 47245 | 76142
3 | 16:55.18 | 6:46.12 | 76143 | 106604
4 | 23:41.30 | 6:59.09 | 106605 | 138038
5 | 30:40.39 | 8:28.24 | 138039 | 176162
6 | 39:08.63 | 6:59.19 | 176163 | 207606


Track 1

Filename C:\EAC\Miles Davis - The Original Jacket Collection (2006) [37CD]\09. Miles Davis - Seven Steps To Heaven (1963) {2006 DSD Japan Mini LP Edition, SICP 1209}\01 - Basin Street Blues.wav

Pre-gap length 0:00:02.00

Peak level 95.5 %
Track quality 99.9 %
Test CRC EF49C55D
Copy CRC EF49C55D
Accurately ripped (confidence 5) [D8DB8892]
Copy OK

Track 2

Filename C:\EAC\Miles Davis - The Original Jacket Collection (2006) [37CD]\09. Miles Davis - Seven Steps To Heaven (1963) {2006 DSD Japan Mini LP Edition, SICP 1209}\02 - Seven Steps To Heaven.wav

Pre-gap length 0:00:01.74

Peak level 100.0 %
Track quality 100.0 %
Test CRC 2C85B2AB
Copy CRC 2C85B2AB
Accurately ripped (confidence 5) [A5B92129]
Copy OK

Track 3

Filename C:\EAC\Miles Davis - The Original Jacket Collection (2006) [37CD]\09. Miles Davis - Seven Steps To Heaven (1963) {2006 DSD Japan Mini LP Edition, SICP 1209}\03 - I Fall In Love Too Easily.wav

Pre-gap length 0:00:02.04

Peak level 88.8 %
Track quality 100.0 %
Test CRC ABD3877B
Copy CRC ABD3877B
Accurately ripped (confidence 5) [F48F05F9]
Copy OK

Track 4

Filename C:\EAC\Miles Davis - The Original Jacket Collection (2006) [37CD]\09. Miles Davis - Seven Steps To Heaven (1963) {2006 DSD Japan Mini LP Edition, SICP 1209}\04 - So Near, So Far.wav

Pre-gap length 0:00:01.72

Peak level 100.0 %
Track quality 100.0 %
Test CRC A91F0591
Copy CRC A91F0591
Accurately ripped (confidence 5) [7C4A2CB8]
Copy OK

Track 5

Filename C:\EAC\Miles Davis - The Original Jacket Collection (2006) [37CD]\09. Miles Davis - Seven Steps To Heaven (1963) {2006 DSD Japan Mini LP Edition, SICP 1209}\05 - Baby Won't You Please Come Home.wav

Pre-gap length 0:00:01.50

Peak level 96.5 %
Track quality 100.0 %
Test CRC C6B95226
Copy CRC C6B95226
Accurately ripped (confidence 5) [E0969289]
Copy OK

Track 6

Filename C:\EAC\Miles Davis - The Original Jacket Collection (2006) [37CD]\09. Miles Davis - Seven Steps To Heaven (1963) {2006 DSD Japan Mini LP Edition, SICP 1209}\06 - Joshua.wav

Pre-gap length 0:00:01.98

Peak level 100.0 %
Track quality 100.0 %
Test CRC 94E893D9
Copy CRC 94E893D9
Accurately ripped (confidence 5) [CF394134]
Copy OK


All tracks accurately ripped

No errors occurred

End of status report


Miles Davis - The Original Jacket Collection (2006) [30 Albums, 37 CDs] {DSD Japan Mini LP Analog Collection} (part 2of6)



––––––––––––––––––––––––-
Miles Davis - The Original Jacket Collection (2006) [30 Albums, 37 CDs] {DSD Japan Mini LP Analog Collection} (part 2of6)

Miles Davis - Miles Davis In Europe (1964) {2006 DSD Japan Mini LP Edition}
EAC rip (secure mode) | FLAC (tracks)+CUE+LOG -> 200 Mb | MP3 @320 -> 134 Mb | Artwork
© 2006 Sony Music Japan / Columbia | SICP 1210 | DSD | HQD High Quality Disc

Recorded live in France at the Festival Mondial, du Jazz Antibes, Miles Davis in Europe captures trumpeter Miles Davis in late 1963. While Four & More and My Funny Valentine – both taken from the same 1964 New York Philharmonic Hall concert – are most often cited as this lineup's essential live recording, Miles Davis in Europe is a no less exciting listen. The band, including tenor saxophonist George Coleman, pianist Herbie Hancock, bassist Ron Carter, and drummer Tony Williams had recorded Seven Steps to Heaven a few months earlier, which would turn out to be the one studio album Davis would make with the lineup. Already, the band's adventurous, avant-garde leanings are on display with the young Williams propelling Davis to scorching heights on the fast swinger "Milestones." Similarly, Hancock helps turn the standard "I Thought About You" into an impressionistic and free-flowing ballad allowing Davis to spread wide swaths of tonal color and deep note bends across the stage. Although Coleman would depart the group in less than a year, he proves himself here to be a muscular, keen improviser who deserved more attention than he got at the time.

Personnel: Miles Davis (trumpet); George Coleman (tenor saxophone); Herbie Hancock (piano); Ron Carter (bass instrument); Tony Williams (drums).

tracklist:
01. Introduction
02. Autumn Leaves (edited)
03. Milestones
04. Joshua (edited)
05. All of You (edited)
06. Walkin'

Exact Audio Copy V0.99 prebeta 5 from 4. May 2009

EAC extraction logfile from 4. January 2013, 14:57

Miles Davis / Miles Davis In Europe

Used drive : PLEXTOR DVDR PX-L890SA Adapter: 6 ID: 0

Read mode : Secure
Utilize accurate stream : Yes
Defeat audio cache : Yes
Make use of C2 pointers : No

Read offset correction : 6
Overread into Lead-In and Lead-Out : No
Fill up missing offset samples with silence : Yes
Delete leading and trailing silent blocks : No
Null samples used in CRC calculations : Yes
Used interface : Native Win32 interface for Win NT & 2000
Gap handling : Appended to previous track

Used output format : User Defined Encoder
Selected bitrate : 1024 kBit/s
Quality : High
Add ID3 tag : No
Command line compressor : C:\Program Files (x86)\FLAC\flac.exe
Additional command line options : -8 -V -T "ARTIST=%a" -T "TITLE=%t" -T "ALBUM=%g" -T "DATE=%y" -T "TRACKNUMBER=%n" -T "GENRE=%m" -T "COMMENT=EAC FLAC -8" %s


TOC of the extracted CD

Track | Start | Length | Start sector | End sector
––––––––––––––––––––––––––––-
1 | 0:00.00 | 0:51.02 | 0 | 3826
2 | 0:51.02 | 11:47.70 | 3827 | 56921
3 | 12:38.72 | 9:22.38 | 56922 | 99109
4 | 22:01.35 | 9:31.25 | 99110 | 141959
5 | 31:32.60 | 14:01.02 | 141960 | 205036
6 | 45:33.62 | 16:15.13 | 205037 | 278174


Track 1

Filename C:\EAC\Miles Davis - The Original Jacket Collection (2006) [37CD]\10. Miles Davis - Miles Davis In Europe (1964) {2006 DSD Japan Mini LP Edition, SICP 1210}\01 - Introduction.wav

Pre-gap length 0:00:02.00

Peak level 99.8 %
Track quality 100.0 %
Test CRC 55C62E58
Copy CRC 55C62E58
Accurately ripped (confidence 7) [F8AC6B23]
Copy OK

Track 2

Filename C:\EAC\Miles Davis - The Original Jacket Collection (2006) [37CD]\10. Miles Davis - Miles Davis In Europe (1964) {2006 DSD Japan Mini LP Edition, SICP 1210}\02 - Autumn Leaves.wav

Peak level 99.8 %
Track quality 99.9 %
Test CRC C49F78B2
Copy CRC C49F78B2
Accurately ripped (confidence 7) [F22B1708]
Copy OK

Track 3

Filename C:\EAC\Miles Davis - The Original Jacket Collection (2006) [37CD]\10. Miles Davis - Miles Davis In Europe (1964) {2006 DSD Japan Mini LP Edition, SICP 1210}\03 - Milestones.wav

Peak level 99.8 %
Track quality 99.9 %
Test CRC C3D87FC3
Copy CRC C3D87FC3
Accurately ripped (confidence 7) [CA20E757]
Copy OK

Track 4

Filename C:\EAC\Miles Davis - The Original Jacket Collection (2006) [37CD]\10. Miles Davis - Miles Davis In Europe (1964) {2006 DSD Japan Mini LP Edition, SICP 1210}\04 - Joshua.wav

Peak level 99.8 %
Track quality 100.0 %
Test CRC 49AF0269
Copy CRC 49AF0269
Accurately ripped (confidence 7) [EF5C3C8A]
Copy OK

Track 5

Filename C:\EAC\Miles Davis - The Original Jacket Collection (2006) [37CD]\10. Miles Davis - Miles Davis In Europe (1964) {2006 DSD Japan Mini LP Edition, SICP 1210}\05 - All Of You.wav

Pre-gap length 0:00:02.37

Peak level 99.8 %
Track quality 100.0 %
Test CRC F9675A4D
Copy CRC F9675A4D
Accurately ripped (confidence 7) [5B724E7B]
Copy OK

Track 6

Filename C:\EAC\Miles Davis - The Original Jacket Collection (2006) [37CD]\10. Miles Davis - Miles Davis In Europe (1964) {2006 DSD Japan Mini LP Edition, SICP 1210}\06 - Walkin'.wav

Peak level 99.8 %
Track quality 100.0 %
Test CRC 43301993
Copy CRC 43301993
Accurately ripped (confidence 7) [66EB6694]
Copy OK


All tracks accurately ripped

No errors occurred

End of status report


Miles Davis - The Original Jacket Collection (2006) [30 Albums, 37 CDs] {DSD Japan Mini LP Analog Collection} (part 2of6)


See also:
Miles Davis - The Original Jacket Collection (2006) [30 Albums, 37 CDs] {DSD Japan Mini LP Analog Collection} (part 1of6)
===



Miles Davis - Kind Of Blue (1959) {2006 DSD Japan Mini LP Analog Collection SICP 1206}

Nitroflare

Miles Davis - Sketches Of Spain (1960) {2006 DSD Japan Mini LP Analog Collection SICP 1207}

Nitroflare

Miles Davis - Someday My Prince Will Come (1961) {2006 DSD Japan Mini LP Analog Collection SICP 1208}

Nitroflare

Miles Davis - Seven Steps To Heaven (1963) {2006 DSD Japan Mini LP Analog Collection SICP 1209}

Nitroflare

Miles Davis - Miles Davis In Europe (1964) {2006 DSD Japan Mini LP Analog Collection SICP 1210}

Nitroflare