Subcategories

Merle Haggard - Hag: The Capitol Recordings 1968-1976 - Concepts, Live & The Strangers (2008) {6CD Set Bear Family Records}

Posted By: ruskaval
Merle Haggard - Hag: The Capitol Recordings 1968-1976 - Concepts, Live & The Strangers (2008) {6CD Set Bear Family Records}

Merle Haggard - Hag: The Capitol Recordings 1968-1976 - Concepts, Live & The Strangers (2008) {6CD Set Bear Family Records}
EAC rip (secure mode) | FLAC (tracks)+CUE+LOG -> 2.78 Gb | MP3 @320 -> 1.00 Gb | Artwork | 5% repair rar
© 1968-76, 2008 Capitol / EMI / Bear Family Records | BCD 16782 FK
Country / Bakersfield Sound / Honky Tonk / Folk Rock / Progressive Country / Traditional Country / Western Swing Revival

Twelve years after they released their first Merle Haggard box, The Untamed Hawk, Bear Family delivered the sequel, Hag: The Studio Recordings 1969-1976. This picks up where The Untamed Hawk left off, which is more of a musical dividing point than it initially seems. If The Untamed Hawk caught Haggard as he was reaching full flight, Hag captures him in his prime, as every single he released reached the Country Top Ten – often capturing the number one slot – and as he sometimes crossed over into the pop Top 40. Hag was without a doubt the biggest star in country music but the remarkable thing about his reign at the top was that he never played it safe. During this eight-year span, he recorded few songs as iconic as "Strangers," "Swinging Doors," "The Bottle Let Me Down" or "Mama Tried," but a notable exception was "Okie from Muskogee" and its ornery cousin, "The Fighting Side of Me." Both were reactionary rhetoric in the midst of the Vietnam war, but where the latter was itching for a brawl – a perfect pairing for its tough, twangy, Bakersfield sound – "Okie" was gentler in its music and sweetly nostalgic in its tone, romanticizing an America that may never have been there.

Merle Haggard - Hag: The Capitol Recordings 1968-1976 - Concepts, Live & The Strangers (2008) {6CD Set Bear Family Records}


As Hag makes clear, "Okie" provides the keystone for the last half of Haggard's Capitol recordings, as his music mellowed and deepened, and he turned toward painting a picture of his ideal America, knowing full well that the good times may already be over. The music feels different than that on Untamed Hawk – it's not as lean and tense, not as indebted to Buck. It's warmer yet more adventurous and far-ranging, at once referencing the past but sounding progressive, sounding smoother, but never turning pop. Haggard's writing also underwent a subtle evolution, as he developed a narrative eye that had songs like "Tulare Dust" and "The Seashores of Old Mexico" play like short stories. With their spare, vivid lyrical detail, these songs created a mythic image of America that the music matched with its blend of country, folk, blues, and jazz, so thoroughly integrated it was often impossible to discern where the styles began…unless it was on the genre exercises that Hag and the Strangers tore into with thrilling abandon. Merle wrote a bunch of these himself, notably the spectacular Western swing of "Living with the Shades Pulled Down" and "Old Man from the Mountain," songs that illustrated his debt to Lefty Frizzell and Bob Wills. It's possible to hear the influence of his idols here but all of Hag's full-length tributes, such as his timeless Wills and Jimmie Rodgers salutes, aren't here – they, along with the Strangers albums, are bundled on a third Bear Family box, out in 2008 – but his knack for finding great material is wholly evident, whether he's cutting his old friend Tommy Collins' "Carolyn" or cherry-picking Dolly Parton's "Kentucky Gambler."

Merle Haggard - Hag: The Capitol Recordings 1968-1976 - Concepts, Live & The Strangers (2008) {6CD Set Bear Family Records}


Much of this variety can be heard on the many, many individual albums Haggard released during the first half of the '70s – most of the best of which have been reissued on CD, including great two-fers from both Capitol and BGO – but hearing it all in this six CD box, the depth and consistency of his music is stunning. Perhaps there are no revelations here aside from the political – almost immediately after "Okie from Muskogee" became a smash, he began recording songs that backed away from the curmudgeonly conservative bent of that hit, explaining that he's in the divide between the left and right, returning to that sentiment again and again during this stretch at Capitol – yet there doesn't need to be, as Hag offers the richest, fullest portrait of Merle's America, a world that only grows more alluring with each passing year.
Merle Haggard - Hag: The Capitol Recordings 1968-1976 - Concepts, Live & The Strangers (2008) {6CD Set Bear Family Records}


Bear Family INFO

tracklist:
CD1

1. Jimmie The Kid
2. My Rough And Rowdy Ways
3. California Blues (Blue Yodel #4)
4. Narration #1: Hobo's Meditation
5. Waitin' For A Train
6. Mother, The Queen Of My Heart
7. My Carolina Sunshine Girl
8. Narration #2: Train Whistle Blues
9. Why Should I Be Lonely?
10. Jimmie's Texas Blues
11. Blue Yodel, #6
12. Narration #3: Mule Skinner Blues (Blue Yodel #8)
13. Peach Pickin' Time Down In Georgia
14. Down The Old Road To Home
15. Travelin' Blues
16. Miss The Mississippi And You
17. Frankie And Johnny
18. No Hard Times
19. Narration #4: Hobo Bill's Last Ride
20. My Old Pal
21. Nobody Knows But Me
22. Narration #5: Jimmie's Rodgers' Last Blue Yodel
23. Mississippi Delta Blues
24. Gamblin' Polka Dot Blues

CD2
1. Right Or Wrong
2. Brown Skinned Gal
3. Roly Poly
4. Corrine, Corrina
5. I Knew The Moment I Lost You
6. Trouble In Mind
7. Time Changes Everything
8. San Antonio Rose
9. Brain Cloudy Blues
10. Take Me Back To Tulsa
11. Spanish Two-Step
12. Old Fashioned Love In My Heart
13. Stay A Little Longer
14. Misery
15. Overture, Introduction & Theme
16. Mama Tried
17. No Hard Times
18. Silver Wings
19. Medley:Swinging Doors/Sing Me Back Home/I'm A Lonesome Fugitive/Branded Man
20. In The Arms Of Love
21. Workin' Man Blues
22. Introduction To 'Hobo Bill'
23. Hobo Bill's Last Ride
24. Billy Overcame His Size
25. If I Had Left It Up To You
26. White Line Fever
27. Blue Rock
28. Intro & Okie From Muskogee

CD3
1. Theme
2. Hammin' It Up
3. I Take A Lot Of Pride In What I Am
4. Corrine, Corrina
5. Every Fool Has A Rainbow
6. T. B. Blues
7. When Did Right Become Wrong
8. Philadelphia Lawyer (Bonnie Owens)
9. Stealin' Corn
10. Harold's Super Service
11. Medley: Devil Woman/I'm Movin' On/Folsom Prison Blues/Jackson/Orange Blossom Special/Love's Gonna Live Here
12. Today I Started Loving You Again
13. Okie From Muskogee
14. The Fightin' Side Of Me
15. Hammin' It Up
16. Everybody's Had The Blues
17. Big Bad Bill (Is Sweet William Now)
18. I Forget You Every Day
19. I Ain't Got Nobody (And Nobody Cares For Me)
20. Carolyn
21. Champagne
22. Lovesick Blues
23. The Emptiest Arms In The World
24. Nobody Knows I'm Hurtin'
25. Intro To: Way Down Yonder In New Orleans
26. Way Down Yonder In New Orleans
27. Okie From Muskogee
28. I Wonder If They Ever Think Of Me
29. Finale

Merle Haggard - Hag: The Capitol Recordings 1968-1976 - Concepts, Live & The Strangers (2008) {6CD Set Bear Family Records}


CD4
1. Rev. Jimmy Whitlock: Introduction / Congregation: We'll Understand And Say Well Done
2. Medley:Take My Hand, Precious Lord / Jesus Hold My Hand
3. Precious Memories
4. Rev. Jimmy Whitlock: History Of Big Creek Baptist Church
5. Turn Your Radio On
6. If We Never Meet Again
7. Closing Prayer/ Congregation: Just As I Am
8. Chaplain Fran Butler: Introduction & Opening Prayer
9. Amazing Grace
10. Where Could I Go
11. Medley: Old Time Religion/Pass Me By/Sweet By And By
12. The Old Rugged Cross
13. Chaplain Fran Butler: Closing Prayer
14. Rev. J. D. Smith: Introduction / Congregation: Leaning On The Everlasting Arms (Congregation)
15. Guide Me, Lord
16. The Family Bible
17. I'll Be List'ning
18. Just A Closer Walk With Thee
19. Rev. J. D. Smith: Closing Prayer
20. Introduction
21. Life's Railway To Heaven
22. On The Jericho Road
23. Steal Away
24. I Saw The Light

CD5
1. Leaving Phoenix
2. Terri
3. Hammin' It Up
4. San Antonio Rose
5. Somebody Stole My Gal
6. Hop And A Skip
7. Don't Tell Me
8. Whooper Snooper
9. Poppin' Corn
10. The Waltz Of Enchantment
11. Tennessee Flat Top Box
12. Mama Tried
13. Stealin' Corn
14. Twinkle, Twinkle, Twinkle, Little Star
15. Blue Rock
16. Mexican Rose
17. Waltzing With A Stranger
18. Sing Me A Happy Song
19. Repeat Performance
20. Street Singer
21. Biff Bam Boom
22. Workin' Man Blues
23. Day Happy
24. Every Fool Has A Rainbow
25. Story With A Happy Indian
26. Scramble
27. California On My Mind
28. Comin' Home
29. Walkin' Through My Heart
30. Skippin'
31. Ham Boogie (Steelin' The Boogie)
32. Caravan

CD6
1. Stumbling
2. Me And Bobby McGee
3. Honky Tonk
4. Raunchy
5. Song From 'Sleep Walk'
6. Watchin' Scotty Grow
7. Just Sit Down And Cry'
8. Slow 'n' Easy
9. I Don't Love Nobody
10. Almost To Tulsa
11. Fiddle Blues
12. Champagne
13. Somewhere Over The Rainbow
14. Goes Without Saying
15. Swing High
16. Somewhere Over The Rainbow
17. When My Conscience Takes Over
18. When The Roses Die
19. Champagne
20. I'm Sittin' On Top Of The World
21. There You Go Again
22. See The Sunset
23. Roller Coaster
24. Cotton Picker
25. It's Only Love
26. Cherokee Fiddle
27. Country Gas

Exact Audio Copy V0.99 prebeta 4 from 23. January 2008

EAC extraction logfile from 14. February 2009, 18:21

Merle Haggard / Concepts, Live & The Strangers (CD 1)

Used drive : PLEXTOR DVDR PX-740A Adapter: 1 ID: 0

Read mode : Secure
Utilize accurate stream : Yes
Defeat audio cache : Yes
Make use of C2 pointers : No

Read offset correction : 618
Overread into Lead-In and Lead-Out : No
Fill up missing offset samples with silence : Yes
Delete leading and trailing silent blocks : No
Null samples used in CRC calculations : Yes
Used interface : Native Win32 interface for Win NT & 2000
Gap handling : Appended to previous track

Used output format : User Defined Encoder
Selected bitrate : 128 kBit/s
Quality : High
Add ID3 tag : No
Command line compressor : F:\Program Files\FLAC\flac.exe
Additional command line options : -8 -V -T "ARTIST=%a" -T "TITLE=%t" -T "ALBUM=%g" -T "DATE=%y" -T "TRACKNUMBER=%n" -T "GENRE=%m" -T "COMMENT=EAC FLAC -8" %s


TOC of the extracted CD

Track | Start | Length | Start sector | End sector
––––––––––––––––––––––––––––-
1 | 0:00.00 | 2:04.30 | 0 | 9329
2 | 2:04.30 | 2:24.70 | 9330 | 20199
3 | 4:29.25 | 2:51.50 | 20200 | 33074
4 | 7:21.00 | 0:49.07 | 33075 | 36756
5 | 8:10.07 | 2:45.28 | 36757 | 49159
6 | 10:55.35 | 2:52.72 | 49160 | 62131
7 | 13:48.32 | 2:42.40 | 62132 | 74321
8 | 16:30.72 | 2:53.08 | 74322 | 87304
9 | 19:24.05 | 0:38.65 | 87305 | 90219
10 | 20:02.70 | 3:16.20 | 90220 | 104939
11 | 23:19.15 | 3:21.10 | 104940 | 120024
12 | 26:40.25 | 3:38.32 | 120025 | 136406
13 | 30:18.57 | 3:14.08 | 136407 | 150964
14 | 33:32.65 | 0:54.70 | 150965 | 155084
15 | 34:27.60 | 3:26.02 | 155085 | 170536
16 | 37:53.62 | 3:00.05 | 170537 | 184041
17 | 40:53.67 | 2:04.58 | 184042 | 193399
18 | 42:58.50 | 3:18.37 | 193400 | 208286
19 | 46:17.12 | 3:17.05 | 208287 | 223066
20 | 49:34.17 | 3:47.68 | 223067 | 240159
21 | 53:22.10 | 2:50.62 | 240160 | 252971
22 | 56:12.72 | 0:55.73 | 252972 | 257169
23 | 57:08.70 | 2:50.02 | 257170 | 269921
24 | 59:58.72 | 3:03.58 | 269922 | 283704
25 | 63:02.55 | 2:47.10 | 283705 | 296239
26 | 65:49.65 | 1:34.60 | 296240 | 303349
27 | 67:24.50 | 3:09.15 | 303350 | 317539
28 | 70:33.65 | 3:35.47 | 317540 | 333711
29 | 74:09.37 | 2:37.20 | 333712 | 345506


Track 1

Filename D:\Merle Haggard - Concepts, Live & The Strangers (2008) [FLAC]\Disc 1\01 - Jimmie The Kid.wav

Pre-gap length 0:00:02.00

Peak level 90.1 %
Track quality 100.0 %
Test CRC C651BACE
Copy CRC C651BACE
Cannot be verified as accurate (confidence 2) [C8A19955], AccurateRip returned [66D50814]
Copy OK

Track 2

Filename D:\Merle Haggard - Concepts, Live & The Strangers (2008) [FLAC]\Disc 1\02 - My Rough And Rowdy Ways.wav

Pre-gap length 0:00:02.08

Peak level 93.9 %
Track quality 100.0 %
Test CRC E8B8826C
Copy CRC E8B8826C
Cannot be verified as accurate (confidence 2) [631599BF], AccurateRip returned [A8D43DAF]
Copy OK

Track 3

Filename D:\Merle Haggard - Concepts, Live & The Strangers (2008) [FLAC]\Disc 1\03 - California Blues.wav

Pre-gap length 0:00:02.72

Peak level 91.2 %
Track quality 99.9 %
Test CRC 83E0BF1C
Copy CRC 83E0BF1C
Cannot be verified as accurate (confidence 2) [A2241A62], AccurateRip returned [73BBFED2]
Copy OK

Track 4

Filename D:\Merle Haggard - Concepts, Live & The Strangers (2008) [FLAC]\Disc 1\04 - Narration #1.wav

Pre-gap length 0:00:02.18

Peak level 37.4 %
Track quality 100.0 %
Test CRC 0C476584
Copy CRC 0C476584
Cannot be verified as accurate (confidence 2) [B12F6B74], AccurateRip returned [5D28B58C]
Copy OK

Track 5

Filename D:\Merle Haggard - Concepts, Live & The Strangers (2008) [FLAC]\Disc 1\05 - Hobo's Meditation.wav

Pre-gap length 0:00:03.04

Peak level 84.7 %
Track quality 99.9 %
Test CRC F5C157B0
Copy CRC F5C157B0
Cannot be verified as accurate (confidence 2) [6A5525C5], AccurateRip returned [39FBA25D]
Copy OK

Track 6

Filename D:\Merle Haggard - Concepts, Live & The Strangers (2008) [FLAC]\Disc 1\06 - Waitin' For A Train.wav

Pre-gap length 0:00:02.04

Peak level 86.2 %
Track quality 100.0 %
Test CRC CB69BB99
Copy CRC CB69BB99
Cannot be verified as accurate (confidence 2) [B59254A9], AccurateRip returned [2012F771]
Copy OK

Track 7

Filename D:\Merle Haggard - Concepts, Live & The Strangers (2008) [FLAC]\Disc 1\07 - Mother, The Queen Of My Heart.wav

Pre-gap length 0:00:02.22

Peak level 87.1 %
Track quality 100.0 %
Test CRC BECCE467
Copy CRC BECCE467
Cannot be verified as accurate (confidence 2) [0459E7AA], AccurateRip returned [5D831CAA]
Copy OK

Track 8

Filename D:\Merle Haggard - Concepts, Live & The Strangers (2008) [FLAC]\Disc 1\08 - My Carolina Sunshine Girl.wav

Pre-gap length 0:00:01.97

Peak level 90.8 %
Track quality 100.0 %
Test CRC 663A81F5
Copy CRC 663A81F5
Cannot be verified as accurate (confidence 2) [57D4FA66], AccurateRip returned [0D6CFF16]
Copy OK

Track 9

Filename D:\Merle Haggard - Concepts, Live & The Strangers (2008) [FLAC]\Disc 1\09 - Narration #2.wav

Pre-gap length 0:00:02.22

Peak level 38.2 %
Track quality 99.7 %
Test CRC D9B56300
Copy CRC D9B56300
Cannot be verified as accurate (confidence 2) [CD687470], AccurateRip returned [EDDB3830]
Copy OK

Track 10

Filename D:\Merle Haggard - Concepts, Live & The Strangers (2008) [FLAC]\Disc 1\10 - Train Whistle Blues.wav

Pre-gap length 0:00:02.08

Peak level 90.5 %
Track quality 100.0 %
Test CRC 4D9C7561
Copy CRC 4D9C7561
Cannot be verified as accurate (confidence 2) [893D9B62], AccurateRip returned [F436674A]
Copy OK

Track 11

Filename D:\Merle Haggard - Concepts, Live & The Strangers (2008) [FLAC]\Disc 1\11 - Why Should I Be Lonely.wav

Pre-gap length 0:00:02.77

Peak level 93.1 %
Track quality 100.0 %
Test CRC 0B6EC747
Copy CRC 0B6EC747
Cannot be verified as accurate (confidence 2) [CAD3A4EF], AccurateRip returned [455ED4DF]
Copy OK

Track 12

Filename D:\Merle Haggard - Concepts, Live & The Strangers (2008) [FLAC]\Disc 1\12 - Jimmie's Texas Blues.wav

Pre-gap length 0:00:02.88

Peak level 92.2 %
Track quality 100.0 %
Test CRC 7ACDC19F
Copy CRC 7ACDC19F
Cannot be verified as accurate (confidence 2) [602CDE72], AccurateRip returned [8B08132A]
Copy OK

Track 13

Filename D:\Merle Haggard - Concepts, Live & The Strangers (2008) [FLAC]\Disc 1\13 - Blue Yodel #6.wav

Pre-gap length 0:00:03.28

Peak level 92.5 %
Track quality 100.0 %
Test CRC C88ED284
Copy CRC C88ED284
Cannot be verified as accurate (confidence 2) [980E5103], AccurateRip returned [2D10996B]
Copy OK

Track 14

Filename D:\Merle Haggard - Concepts, Live & The Strangers (2008) [FLAC]\Disc 1\14 - Narration #3.wav

Pre-gap length 0:00:02.70

Peak level 46.9 %
Track quality 100.0 %
Test CRC DE5ABB51
Copy CRC DE5ABB51
Cannot be verified as accurate (confidence 2) [2E6C22E2], AccurateRip returned [241ED85A]
Copy OK

Track 15

Filename D:\Merle Haggard - Concepts, Live & The Strangers (2008) [FLAC]\Disc 1\15 - Mule Skinner Blues.wav

Pre-gap length 0:00:03.58

Peak level 90.2 %
Track quality 100.0 %
Test CRC 78338445
Copy CRC 78338445
Cannot be verified as accurate (confidence 2) [7BB15E19], AccurateRip returned [8829D4C1]
Copy OK

Track 16

Filename D:\Merle Haggard - Concepts, Live & The Strangers (2008) [FLAC]\Disc 1\16 - Peach Picking Time In Georgia.wav

Pre-gap length 0:00:02.98

Peak level 89.0 %
Track quality 100.0 %
Test CRC 6345718F
Copy CRC 6345718F
Cannot be verified as accurate (confidence 2) [83275C70], AccurateRip returned [F2AF9078]
Copy OK

Track 17

Filename D:\Merle Haggard - Concepts, Live & The Strangers (2008) [FLAC]\Disc 1\17 - Down The Old Road To Home.wav

Pre-gap length 0:00:02.38

Peak level 71.4 %
Track quality 100.0 %
Test CRC 4A2B4CF6
Copy CRC 4A2B4CF6
Cannot be verified as accurate (confidence 2) [76B6A25C], AccurateRip returned [AC0CB044]
Copy OK

Track 18

Filename D:\Merle Haggard - Concepts, Live & The Strangers (2008) [FLAC]\Disc 1\18 - Travellin' Blues.wav

Pre-gap length 0:00:02.09

Peak level 91.5 %
Track quality 100.0 %
Test CRC 5001C87E
Copy CRC 5001C87E
Cannot be verified as accurate (confidence 2) [44E82CD5], AccurateRip returned [AF72547D]
Copy OK

Track 19

Filename D:\Merle Haggard - Concepts, Live & The Strangers (2008) [FLAC]\Disc 1\19 - Miss The Mississippi And You.wav

Pre-gap length 0:00:02.82

Peak level 74.5 %
Track quality 100.0 %
Test CRC 5FE8A115
Copy CRC 5FE8A115
Cannot be verified as accurate (confidence 2) [C7F19C18], AccurateRip returned [9188B8B0]
Copy OK

Track 20

Filename D:\Merle Haggard - Concepts, Live & The Strangers (2008) [FLAC]\Disc 1\20 - Frankie And Johnny.wav

Pre-gap length 0:00:02.78

Peak level 87.1 %
Track quality 100.0 %
Test CRC 8088522F
Copy CRC 8088522F
Cannot be verified as accurate (confidence 2) [A44AF297], AccurateRip returned [FA31839F]
Copy OK

Track 21

Filename D:\Merle Haggard - Concepts, Live & The Strangers (2008) [FLAC]\Disc 1\21 - No Hard Times.wav

Pre-gap length 0:00:03.50

Peak level 93.9 %
Track quality 100.0 %
Test CRC B309155D
Copy CRC B309155D
Track not present in AccurateRip database
Copy OK

Track 22

Filename D:\Merle Haggard - Concepts, Live & The Strangers (2008) [FLAC]\Disc 1\22 - Narration #4.wav

Pre-gap length 0:00:02.17

Peak level 45.2 %
Track quality 100.0 %
Test CRC FC0617E1
Copy CRC FC0617E1
Cannot be verified as accurate (confidence 2) [168466CE], AccurateRip returned [D4F7908E]
Copy OK

Track 23

Filename D:\Merle Haggard - Concepts, Live & The Strangers (2008) [FLAC]\Disc 1\23 - Hobo Bill's Last Ride.wav

Pre-gap length 0:00:03.68

Peak level 85.4 %
Track quality 99.9 %
Test CRC 668CC0F2
Copy CRC 668CC0F2
Cannot be verified as accurate (confidence 2) [00B652DA], AccurateRip returned [186D4E42]
Copy OK

Track 24

Filename D:\Merle Haggard - Concepts, Live & The Strangers (2008) [FLAC]\Disc 1\24 - My Old Pal.wav

Pre-gap length 0:00:02.14

Peak level 89.9 %
Track quality 100.0 %
Test CRC 087754C0
Copy CRC 087754C0
Cannot be verified as accurate (confidence 2) [225C7152], AccurateRip returned [423BD5D2]
Copy OK

Track 25

Filename D:\Merle Haggard - Concepts, Live & The Strangers (2008) [FLAC]\Disc 1\25 - Nobody Knows But Me.wav

Pre-gap length 0:00:02.46

Peak level 93.1 %
Track quality 100.0 %
Test CRC A745AC1B
Copy CRC A745AC1B
Cannot be verified as accurate (confidence 2) [8A8FB29D], AccurateRip returned [F7091B7D]
Copy OK

Track 26

Filename D:\Merle Haggard - Concepts, Live & The Strangers (2008) [FLAC]\Disc 1\26 - Narration #5.wav

Pre-gap length 0:00:02.08

Peak level 50.0 %
Track quality 100.0 %
Test CRC 9CF240A8
Copy CRC 9CF240A8
Cannot be verified as accurate (confidence 2) [F1965580], AccurateRip returned [0A18AEE8]
Copy OK

Track 27

Filename D:\Merle Haggard - Concepts, Live & The Strangers (2008) [FLAC]\Disc 1\27 - Jimmie Rodgers' Last Blue Yodel.wav

Pre-gap length 0:00:02.70

Peak level 90.8 %
Track quality 100.0 %
Test CRC 2ACDACC2
Copy CRC 2ACDACC2
Cannot be verified as accurate (confidence 2) [314443DD], AccurateRip returned [E566F67D]
Copy OK

Track 28

Filename D:\Merle Haggard - Concepts, Live & The Strangers (2008) [FLAC]\Disc 1\28 - Mississippi Delta Blues.wav

Pre-gap length 0:00:02.60

Peak level 95.1 %
Track quality 100.0 %
Test CRC CDDF4047
Copy CRC CDDF4047
Cannot be verified as accurate (confidence 2) [C08E1CC3], AccurateRip returned [569E7CCD]
Copy OK

Track 29

Filename D:\Merle Haggard - Concepts, Live & The Strangers (2008) [FLAC]\Disc 1\29 - Gambling Polka Dot Blues.wav

Pre-gap length 0:00:03.22

Peak level 92.4 %
Track quality 100.0 %
Test CRC F0933FE3
Copy CRC F0933FE3
Cannot be verified as accurate (confidence 2) [C3EDE23F], AccurateRip returned [828F9CAD]
Copy OK


28 track(s) could not be verified as accurate
1 track(s) not present in the AccurateRip database

No tracks could be verified as accurate
You may have a different pressing from the one(s) in the database

No errors occurred

End of status report

Exact Audio Copy V0.99 prebeta 4 from 23. January 2008

EAC extraction logfile from 14. February 2009, 19:49

Merle Haggard / Concepts, Live & The Strangers (CD 2)

Used drive : PLEXTOR DVDR PX-740A Adapter: 1 ID: 0

Read mode : Secure
Utilize accurate stream : Yes
Defeat audio cache : Yes
Make use of C2 pointers : No

Read offset correction : 618
Overread into Lead-In and Lead-Out : No
Fill up missing offset samples with silence : Yes
Delete leading and trailing silent blocks : No
Null samples used in CRC calculations : Yes
Used interface : Native Win32 interface for Win NT & 2000
Gap handling : Appended to previous track

Used output format : User Defined Encoder
Selected bitrate : 128 kBit/s
Quality : High
Add ID3 tag : No
Command line compressor : F:\Program Files\FLAC\flac.exe
Additional command line options : -8 -V -T "ARTIST=%a" -T "TITLE=%t" -T "ALBUM=%g" -T "DATE=%y" -T "TRACKNUMBER=%n" -T "GENRE=%m" -T "COMMENT=EAC FLAC -8" %s


TOC of the extracted CD

Track | Start | Length | Start sector | End sector
––––––––––––––––––––––––––––-
1 | 0:00.00 | 2:37.60 | 0 | 11834
2 | 2:37.60 | 0:51.12 | 11835 | 15671
3 | 3:28.72 | 2:40.60 | 15672 | 27731
4 | 6:09.57 | 2:15.65 | 27732 | 37921
5 | 8:25.47 | 3:01.00 | 37922 | 51496
6 | 11:26.47 | 3:15.63 | 51497 | 66184
7 | 14:42.35 | 2:39.10 | 66185 | 78119
8 | 17:21.45 | 2:40.15 | 78120 | 90134
9 | 20:01.60 | 3:38.65 | 90135 | 106549
10 | 23:40.50 | 2:39.07 | 106550 | 118481
11 | 26:19.57 | 2:54.20 | 118482 | 131551
12 | 29:14.02 | 2:34.05 | 131552 | 143106
13 | 31:48.07 | 2:49.13 | 143107 | 155794
14 | 34:37.20 | 3:21.17 | 155795 | 170886
15 | 37:58.37 | 0:34.65 | 170887 | 173501
16 | 38:33.27 | 2:35.20 | 173502 | 185146
17 | 41:08.47 | 2:09.15 | 185147 | 194836
18 | 43:17.62 | 3:59.70 | 194837 | 212831
19 | 47:17.57 | 7:16.43 | 212832 | 245574
20 | 54:34.25 | 2:03.12 | 245575 | 254811
21 | 56:37.37 | 2:25.53 | 254812 | 265739
22 | 59:03.15 | 1:07.52 | 265740 | 270816
23 | 60:10.67 | 3:02.15 | 270817 | 284481
24 | 63:13.07 | 2:41.43 | 284482 | 296599
25 | 65:54.50 | 2:35.15 | 296600 | 308239
26 | 68:29.65 | 3:09.32 | 308240 | 322446
27 | 71:39.22 | 1:02.68 | 322447 | 327164
28 | 72:42.15 | 5:52.65 | 327165 | 353629


Track 1

Filename D:\Merle Haggard - Concepts, Live & The Strangers (2008) [FLAC]\Disc 2\01 - Right Or Wrong.wav

Pre-gap length 0:00:02.00

Peak level 97.9 %
Track quality 100.0 %
Test CRC 8A2847A1
Copy CRC 8A2847A1
Track not present in AccurateRip database
Copy OK

Track 2

Filename D:\Merle Haggard - Concepts, Live & The Strangers (2008) [FLAC]\Disc 2\02 - Brown Skinned Gal.wav

Pre-gap length 0:00:03.12

Peak level 97.9 %
Track quality 100.0 %
Test CRC 32C265F8
Copy CRC 32C265F8
Track not present in AccurateRip database
Copy OK

Track 3

Filename D:\Merle Haggard - Concepts, Live & The Strangers (2008) [FLAC]\Disc 2\03 - Roly Poly.wav

Pre-gap length 0:00:03.22

Peak level 97.9 %
Track quality 100.0 %
Test CRC 6A351A12
Copy CRC 6A351A12
Track not present in AccurateRip database
Copy OK

Track 4

Filename D:\Merle Haggard - Concepts, Live & The Strangers (2008) [FLAC]\Disc 2\04 - Corrine, Corrina.wav

Pre-gap length 0:00:03.21

Peak level 97.9 %
Track quality 100.0 %
Test CRC 762E8489
Copy CRC 762E8489
Track not present in AccurateRip database
Copy OK

Track 5

Filename D:\Merle Haggard - Concepts, Live & The Strangers (2008) [FLAC]\Disc 2\05 - I Knew The Moment I Lost You.wav

Pre-gap length 0:00:02.44

Peak level 97.9 %
Track quality 99.9 %
Test CRC 9CEBF800
Copy CRC 9CEBF800
Track not present in AccurateRip database
Copy OK

Track 6

Filename D:\Merle Haggard - Concepts, Live & The Strangers (2008) [FLAC]\Disc 2\06 - Trouble In Mind.wav

Pre-gap length 0:00:02.41

Peak level 89.3 %
Track quality 100.0 %
Test CRC AB6542B5
Copy CRC AB6542B5
Track not present in AccurateRip database
Copy OK

Track 7

Filename D:\Merle Haggard - Concepts, Live & The Strangers (2008) [FLAC]\Disc 2\07 - Time Changes Everything.wav

Pre-gap length 0:00:02.76

Peak level 97.9 %
Track quality 100.0 %
Test CRC BA293F1B
Copy CRC BA293F1B
Track not present in AccurateRip database
Copy OK

Track 8

Filename D:\Merle Haggard - Concepts, Live & The Strangers (2008) [FLAC]\Disc 2\08 - San Antonio Rose.wav

Pre-gap length 0:00:03.17

Peak level 97.9 %
Track quality 100.0 %
Test CRC C9D8F6A4
Copy CRC C9D8F6A4
Track not present in AccurateRip database
Copy OK

Track 9

Filename D:\Merle Haggard - Concepts, Live & The Strangers (2008) [FLAC]\Disc 2\09 - Brain Cloudy Blues.wav

Pre-gap length 0:00:03.20

Peak level 97.9 %
Track quality 100.0 %
Test CRC 53BE499C
Copy CRC 53BE499C
Track not present in AccurateRip database
Copy OK

Track 10

Filename D:\Merle Haggard - Concepts, Live & The Strangers (2008) [FLAC]\Disc 2\10 - Take Me Back To Tulsa.wav

Pre-gap length 0:00:03.30

Peak level 97.9 %
Track quality 100.0 %
Test CRC 31638043
Copy CRC 31638043
Track not present in AccurateRip database
Copy OK

Track 11

Filename D:\Merle Haggard - Concepts, Live & The Strangers (2008) [FLAC]\Disc 2\11 - Spanish Two-step.wav

Pre-gap length 0:00:03.16

Peak level 98.9 %
Track quality 100.0 %
Test CRC DD32D0DE
Copy CRC DD32D0DE
Track not present in AccurateRip database
Copy OK

Track 12

Filename D:\Merle Haggard - Concepts, Live & The Strangers (2008) [FLAC]\Disc 2\12 - Old Fashioned Love In My Heart.wav

Pre-gap length 0:00:02.25

Peak level 97.9 %
Track quality 99.9 %
Test CRC 5EF844C3
Copy CRC 5EF844C3
Track not present in AccurateRip database
Copy OK

Track 13

Filename D:\Merle Haggard - Concepts, Live & The Strangers (2008) [FLAC]\Disc 2\13 - Stay A Little Longer.wav

Pre-gap length 0:00:03.01

Peak level 97.9 %
Track quality 100.0 %
Test CRC D392B283
Copy CRC D392B283
Track not present in AccurateRip database
Copy OK

Track 14

Filename D:\Merle Haggard - Concepts, Live & The Strangers (2008) [FLAC]\Disc 2\14 - Misery.wav

Pre-gap length 0:00:02.13

Peak level 97.9 %
Track quality 99.9 %
Test CRC AEE56907
Copy CRC AEE56907
Track not present in AccurateRip database
Copy OK

Track 15

Filename D:\Merle Haggard - Concepts, Live & The Strangers (2008) [FLAC]\Disc 2\15 - Overture, Introduction & Theme.wav

Pre-gap length 0:00:02.88

Peak level 97.9 %
Track quality 99.6 %
Test CRC B36E1ACA
Copy CRC B36E1ACA
Track not present in AccurateRip database
Copy OK

Track 16

Filename D:\Merle Haggard - Concepts, Live & The Strangers (2008) [FLAC]\Disc 2\16 - Mama Tried.wav

Pre-gap length 0:00:02.92

Peak level 97.9 %
Track quality 100.0 %
Test CRC 895561FF
Copy CRC 895561FF
Track not present in AccurateRip database
Copy OK

Track 17

Filename D:\Merle Haggard - Concepts, Live & The Strangers (2008) [FLAC]\Disc 2\17 - No Hard Times.wav

Pre-gap length 0:00:03.04

Peak level 97.9 %
Track quality 100.0 %
Test CRC 7CB14E20
Copy CRC 7CB14E20
Track not present in AccurateRip database
Copy OK

Track 18

Filename D:\Merle Haggard - Concepts, Live & The Strangers (2008) [FLAC]\Disc 2\18 - Silver Wings.wav

Pre-gap length 0:00:02.22

Peak level 97.9 %
Track quality 100.0 %
Test CRC E56FA5DD
Copy CRC E56FA5DD
Track not present in AccurateRip database
Copy OK

Track 19

Filename D:\Merle Haggard - Concepts, Live & The Strangers (2008) [FLAC]\Disc 2\19 - Medley-Swinging Doors, Sing Me Back Home, I'm A Lonesome Fugitive, Branded Man.wav

Pre-gap length 0:00:03.78

Peak level 97.9 %
Track quality 100.0 %
Test CRC 9F13A015
Copy CRC 9F13A015
Track not present in AccurateRip database
Copy OK

Track 20

Filename D:\Merle Haggard - Concepts, Live & The Strangers (2008) [FLAC]\Disc 2\20 - In The Arms Of Love.wav

Pre-gap length 0:00:03.24

Peak level 97.9 %
Track quality 100.0 %
Test CRC 58FF1267
Copy CRC 58FF1267
Track not present in AccurateRip database
Copy OK

Track 21

Filename D:\Merle Haggard - Concepts, Live & The Strangers (2008) [FLAC]\Disc 2\21 - Workin' Man Blues.wav

Pre-gap length 0:00:02.04

Peak level 97.9 %
Track quality 100.0 %
Test CRC CAFB12EB
Copy CRC CAFB12EB
Track not present in AccurateRip database
Copy OK

Track 22

Filename D:\Merle Haggard - Concepts, Live & The Strangers (2008) [FLAC]\Disc 2\22 - Intoduction to 'Hobo Bill'.wav

Pre-gap length 0:00:02.74

Peak level 97.9 %
Track quality 100.0 %
Test CRC B9D145E7
Copy CRC B9D145E7
Track not present in AccurateRip database
Copy OK

Track 23

Filename D:\Merle Haggard - Concepts, Live & The Strangers (2008) [FLAC]\Disc 2\23 - Hobo Bill's Last Ride.wav

Pre-gap length 0:00:02.54

Peak level 97.9 %
Track quality 100.0 %
Test CRC D637F75E
Copy CRC D637F75E
Track not present in AccurateRip database
Copy OK

Track 24

Filename D:\Merle Haggard - Concepts, Live & The Strangers (2008) [FLAC]\Disc 2\24 - Bill Overcame His Size.wav

Pre-gap length 0:00:02.44

Peak level 97.9 %
Track quality 100.0 %
Test CRC C42494DE
Copy CRC C42494DE
Track not present in AccurateRip database
Copy OK

Track 25

Filename D:\Merle Haggard - Concepts, Live & The Strangers (2008) [FLAC]\Disc 2\25 - If I Had Left It Up To You.wav

Pre-gap length 0:00:01.94

Peak level 97.9 %
Track quality 100.0 %
Test CRC 7FF16A03
Copy CRC 7FF16A03
Track not present in AccurateRip database
Copy OK

Track 26

Filename D:\Merle Haggard - Concepts, Live & The Strangers (2008) [FLAC]\Disc 2\26 - White Line Fever.wav

Pre-gap length 0:00:03.04

Peak level 97.9 %
Track quality 100.0 %
Test CRC 36400851
Copy CRC 36400851
Track not present in AccurateRip database
Copy OK

Track 27

Filename D:\Merle Haggard - Concepts, Live & The Strangers (2008) [FLAC]\Disc 2\27 - Blue Rock.wav

Pre-gap length 0:00:02.61

Peak level 97.9 %
Track quality 100.0 %
Test CRC B9703DAF
Copy CRC B9703DAF
Track not present in AccurateRip database
Copy OK

Track 28

Filename D:\Merle Haggard - Concepts, Live & The Strangers (2008) [FLAC]\Disc 2\28 - Intro & Okie From Muskogee.wav

Pre-gap length 0:00:02.24

Peak level 97.9 %
Track quality 100.0 %
Test CRC 67C3FBF1
Copy CRC 67C3FBF1
Track not present in AccurateRip database
Copy OK


None of the tracks are present in the AccurateRip database

No errors occurred

End of status report

Exact Audio Copy V0.99 prebeta 4 from 23. January 2008

EAC extraction logfile from 2. March 2009, 11:02

Merle Haggard / Concepts, Live & The Strangers (CD 3)

Used drive : PLEXTOR DVDR PX-740A Adapter: 1 ID: 0

Read mode : Secure
Utilize accurate stream : Yes
Defeat audio cache : Yes
Make use of C2 pointers : No

Read offset correction : 618
Overread into Lead-In and Lead-Out : No
Fill up missing offset samples with silence : Yes
Delete leading and trailing silent blocks : No
Null samples used in CRC calculations : Yes
Used interface : Native Win32 interface for Win NT & 2000
Gap handling : Appended to previous track

Used output format : User Defined Encoder
Selected bitrate : 128 kBit/s
Quality : High
Add ID3 tag : No
Command line compressor : F:\Program Files\FLAC\flac.exe
Additional command line options : -8 -V -T "ARTIST=%a" -T "TITLE=%t" -T "ALBUM=%g" -T "DATE=%y" -T "TRACKNUMBER=%n" -T "GENRE=%m" -T "COMMENT=EAC FLAC -8" %s


TOC of the extracted CD

Track | Start | Length | Start sector | End sector
––––––––––––––––––––––––––––-
1 | 0:00.00 | 1:24.67 | 0 | 6366
2 | 1:24.67 | 2:32.33 | 6367 | 17799
3 | 3:57.25 | 2:38.02 | 17800 | 29651
4 | 6:35.27 | 3:16.38 | 29652 | 44389
5 | 9:51.65 | 2:48.22 | 44390 | 57011
6 | 12:40.12 | 3:44.60 | 57012 | 73871
7 | 16:24.72 | 4:03.40 | 73872 | 92136
8 | 20:28.37 | 2:02.33 | 92137 | 101319
9 | 22:30.70 | 2:42.42 | 101320 | 113511
10 | 25:13.37 | 5:35.23 | 113512 | 138659
11 | 30:48.60 | 2:03.27 | 138660 | 147911
12 | 32:52.12 | 3:27.65 | 147912 | 163501
13 | 36:20.02 | 3:11.73 | 163502 | 177899
14 | 39:32.00 | 1:59.15 | 177900 | 186839
15 | 41:31.15 | 3:38.60 | 186840 | 203249
16 | 45:10.00 | 2:45.32 | 203250 | 215656
17 | 47:55.32 | 2:51.55 | 215657 | 228536
18 | 50:47.12 | 2:53.65 | 228537 | 241576
19 | 53:41.02 | 2:44.30 | 241577 | 253906
20 | 56:25.32 | 1:49.55 | 253907 | 262136
21 | 58:15.12 | 3:05.33 | 262137 | 276044
22 | 61:20.45 | 3:19.02 | 276045 | 290971
23 | 64:39.47 | 1:50.43 | 290972 | 299264
24 | 66:30.15 | 0:54.37 | 299265 | 303351
25 | 67:24.52 | 2:01.18 | 303352 | 312444
26 | 69:25.70 | 3:01.40 | 312445 | 326059
27 | 72:27.35 | 2:42.10 | 326060 | 338219
28 | 75:09.45 | 1:05.12 | 338220 | 343106


Track 1

Filename D:\Disc 3\01 - Theme - Hammin' It Up.wav

Pre-gap length 0:00:02.00

Peak level 95.8 %
Track quality 100.0 %
Test CRC 7A3356D9
Copy CRC 7A3356D9
Track not present in AccurateRip database
Copy OK

Track 2

Filename D:\Disc 3\02 - I Take A Lot Of Pride In What I Am.wav

Pre-gap length 0:00:05.01

Peak level 97.9 %
Track quality 99.9 %
Test CRC 5FB0C274
Copy CRC 5FB0C274
Track not present in AccurateRip database
Copy OK

Track 3

Filename D:\Disc 3\03 - Corrine, Corrina.wav

Pre-gap length 0:00:05.40

Peak level 97.9 %
Track quality 100.0 %
Test CRC BF5AA035
Copy CRC BF5AA035
Track not present in AccurateRip database
Copy OK

Track 4

Filename D:\Disc 3\04 - Every Fool Has A Rainbow.wav

Pre-gap length 0:00:05.66

Peak level 97.9 %
Track quality 100.0 %
Test CRC 04C4EF81
Copy CRC 04C4EF81
Track not present in AccurateRip database
Copy OK

Track 5

Filename D:\Disc 3\05 - T.B. Blues.wav

Pre-gap length 0:00:05.90

Peak level 97.9 %
Track quality 100.0 %
Test CRC 1D11CD91
Copy CRC 1D11CD91
Track not present in AccurateRip database
Copy OK

Track 6

Filename D:\Disc 3\06 - When Did Right Become Wrong.wav

Pre-gap length 0:00:04.80

Peak level 97.9 %
Track quality 99.9 %
Test CRC E4973925
Copy CRC E4973925
Track not present in AccurateRip database
Copy OK

Track 7

Filename D:\Disc 3\07 - Philadelphia Lawyer.wav

Pre-gap length 0:00:07.00

Peak level 100.0 %
Track quality 100.0 %
Test CRC 45FD0CCA
Copy CRC 45FD0CCA
Track not present in AccurateRip database
Copy OK

Track 8

Filename D:\Disc 3\08 - Stealin' Corn.wav

Pre-gap length 0:00:05.80

Peak level 97.9 %
Track quality 100.0 %
Test CRC 8E4ABA7C
Copy CRC 8E4ABA7C
Track not present in AccurateRip database
Copy OK

Track 9

Filename D:\Disc 3\09 - Harold's Super Service.wav

Pre-gap length 0:00:04.00

Peak level 97.9 %
Track quality 100.0 %
Test CRC 678F4F26
Copy CRC 678F4F26
Track not present in AccurateRip database
Copy OK

Track 10

Filename D:\Disc 3\10 - Medley-Devil Woman, I'm Movin' On, Folsom Prison Blues.wav

Pre-gap length 0:00:04.58

Peak level 97.9 %
Track quality 100.0 %
Test CRC 6B3C0CC9
Copy CRC 6B3C0CC9
Track not present in AccurateRip database
Copy OK

Track 11

Filename D:\Disc 3\11 - Today I Started Loving You Again.wav

Pre-gap length 0:00:04.70

Peak level 97.9 %
Track quality 100.0 %
Test CRC 4F8911C3
Copy CRC 4F8911C3
Track not present in AccurateRip database
Copy OK

Track 12

Filename D:\Disc 3\12 - Okie From Muskogee.wav

Pre-gap length 0:00:04.04

Peak level 97.9 %
Track quality 99.9 %
Test CRC 7723EC84
Copy CRC 7723EC84
Track not present in AccurateRip database
Copy OK

Track 13

Filename D:\Disc 3\13 - The Fightin' Side Of Me.wav

Pre-gap length 0:00:06.34

Peak level 97.9 %
Track quality 100.0 %
Test CRC F67B2398
Copy CRC F67B2398
Track not present in AccurateRip database
Copy OK

Track 14

Filename D:\Disc 3\14 - Hammin' It Up.wav

Pre-gap length 0:00:05.72

Peak level 97.9 %
Track quality 99.9 %
Test CRC AE3A25D4
Copy CRC AE3A25D4
Track not present in AccurateRip database
Copy OK

Track 15

Filename D:\Disc 3\15 - Everybody's Had The Blues.wav

Pre-gap length 0:00:05.76

Peak level 97.9 %
Track quality 99.9 %
Test CRC EAFF4BAF
Copy CRC EAFF4BAF
Track not present in AccurateRip database
Copy OK

Track 16

Filename D:\Disc 3\16 - Big Bad Bill (Is Sweet William Now).wav

Pre-gap length 0:00:06.77

Peak level 97.9 %
Track quality 100.0 %
Test CRC 9FEC524D
Copy CRC 9FEC524D
Track not present in AccurateRip database
Copy OK

Track 17

Filename D:\Disc 3\17 - I Forget You Every Day.wav

Pre-gap length 0:00:04.69

Peak level 97.9 %
Track quality 100.0 %
Test CRC 6572DC3E
Copy CRC 6572DC3E
Track not present in AccurateRip database
Copy OK

Track 18

Filename D:\Disc 3\18 - I Ain't Got Nobody (And Nobody Cares For Me).wav

Pre-gap length 0:00:04.93

Peak level 97.9 %
Track quality 100.0 %
Test CRC E570A18E
Copy CRC E570A18E
Track not present in AccurateRip database
Copy OK

Track 19

Filename D:\Disc 3\19 - Carolyn.wav

Pre-gap length 0:00:05.02

Peak level 97.9 %
Track quality 100.0 %
Test CRC 08D1CC5C
Copy CRC 08D1CC5C
Track not present in AccurateRip database
Copy OK

Track 20

Filename D:\Disc 3\20 - Champagne.wav

Pre-gap length 0:00:04.65

Peak level 100.0 %
Track quality 100.0 %
Test CRC 5C9BE586
Copy CRC 5C9BE586
Track not present in AccurateRip database
Copy OK

Track 21

Filename D:\Disc 3\21 - Lovesick Blues.wav

Pre-gap length 0:00:06.94

Peak level 98.2 %
Track quality 100.0 %
Test CRC 6F33A28F
Copy CRC 6F33A28F
Track not present in AccurateRip database
Copy OK

Track 22

Filename D:\Disc 3\22 - The Emptiest Arms In The World.wav

Pre-gap length 0:00:05.46

Peak level 97.9 %
Track quality 100.0 %
Test CRC F2ACECC9
Copy CRC F2ACECC9
Track not present in AccurateRip database
Copy OK

Track 23

Filename D:\Disc 3\23 - Nobody Knows I'm Hurtin'.wav

Pre-gap length 0:00:06.00

Peak level 100.0 %
Track quality 99.9 %
Test CRC 89C5C832
Copy CRC 89C5C832
Track not present in AccurateRip database
Copy OK

Track 24

Filename D:\Disc 3\24 - Intro to Way Down Yonder In New Orleans.wav

Pre-gap length 0:00:07.01

Peak level 97.8 %
Track quality 100.0 %
Test CRC 3D423677
Copy CRC 3D423677
Track not present in AccurateRip database
Copy OK

Track 25

Filename D:\Disc 3\25 - Way Down Yonder In New Orleans.wav

Pre-gap length 0:00:07.20

Peak level 97.9 %
Track quality 100.0 %
Test CRC FF38B114
Copy CRC FF38B114
Track not present in AccurateRip database
Copy OK

Track 26

Filename D:\Disc 3\26 - Okie From Muskogee.wav

Pre-gap length 0:00:03.94

Peak level 97.9 %
Track quality 100.0 %
Test CRC F602C93E
Copy CRC F602C93E
Track not present in AccurateRip database
Copy OK

Track 27

Filename D:\Disc 3\27 - I Wonder If They Ever Think Of Me.wav

Pre-gap length 0:00:05.32

Peak level 97.9 %
Track quality 100.0 %
Test CRC E4FC15AB
Copy CRC E4FC15AB
Track not present in AccurateRip database
Copy OK

Track 28

Filename D:\Disc 3\28 - Finale.wav

Pre-gap length 0:00:04.57

Peak level 97.9 %
Track quality 100.0 %
Test CRC 997A4E99
Copy CRC 997A4E99
Track not present in AccurateRip database
Copy OK


None of the tracks are present in the AccurateRip database

No errors occurred

End of status report

Exact Audio Copy V0.99 prebeta 4 from 23. January 2008

EAC extraction logfile from 19. February 2009, 21:46

Merle Haggard / Concepts, Live & The Strangers (CD 4)

Used drive : PLEXTOR DVDR PX-740A Adapter: 1 ID: 0

Read mode : Secure
Utilize accurate stream : Yes
Defeat audio cache : Yes
Make use of C2 pointers : No

Read offset correction : 618
Overread into Lead-In and Lead-Out : No
Fill up missing offset samples with silence : Yes
Delete leading and trailing silent blocks : No
Null samples used in CRC calculations : Yes
Used interface : Native Win32 interface for Win NT & 2000
Gap handling : Appended to previous track

Used output format : User Defined Encoder
Selected bitrate : 128 kBit/s
Quality : High
Add ID3 tag : No
Command line compressor : F:\Program Files\FLAC\flac.exe
Additional command line options : -8 -V -T "ARTIST=%a" -T "TITLE=%t" -T "ALBUM=%g" -T "DATE=%y" -T "TRACKNUMBER=%n" -T "GENRE=%m" -T "COMMENT=EAC FLAC -8" %s


TOC of the extracted CD

Track | Start | Length | Start sector | End sector
––––––––––––––––––––––––––––-
1 | 0:00.00 | 4:40.32 | 0 | 21031
2 | 4:40.32 | 3:26.53 | 21032 | 36534
3 | 8:07.10 | 3:27.35 | 36535 | 52094
4 | 11:34.45 | 2:26.72 | 52095 | 63116
5 | 14:01.42 | 2:09.50 | 63117 | 72841
6 | 16:11.17 | 2:56.08 | 72842 | 86049
7 | 19:07.25 | 1:23.15 | 86050 | 92289
8 | 20:30.40 | 2:10.05 | 92290 | 102044
9 | 22:40.45 | 3:33.67 | 102045 | 118086
10 | 26:14.37 | 2:25.58 | 118087 | 129019
11 | 28:40.20 | 3:15.72 | 129020 | 143716
12 | 31:56.17 | 4:03.65 | 143717 | 162006
13 | 36:00.07 | 1:00.63 | 162007 | 166569
14 | 37:00.70 | 5:02.70 | 166570 | 189289
15 | 42:03.65 | 2:51.05 | 189290 | 202119
16 | 44:54.70 | 3:38.52 | 202120 | 218521
17 | 48:33.47 | 2:30.45 | 218522 | 229816
18 | 51:04.17 | 3:43.03 | 229817 | 246544
19 | 54:47.20 | 0:43.70 | 246545 | 249839
20 | 55:31.15 | 1:28.35 | 249840 | 256474
21 | 56:59.50 | 2:59.10 | 256475 | 269909
22 | 59:58.60 | 3:02.70 | 269910 | 283629
23 | 63:01.55 | 4:13.55 | 283630 | 302659
24 | 67:15.35 | 2:45.52 | 302660 | 315086


Track 1

Filename D:\Merle Haggard - Concepts, Live & The Strangers (2008) [FLAC]\Disc 4\01 - Rev. Jimmy Whitlock- Introduction - Congregation - We'll Understand And Say Well Done.wav

Pre-gap length 0:00:02.00

Peak level 97.9 %
Track quality 100.0 %
Test CRC F38056B3
Copy CRC F38056B3
Track not present in AccurateRip database
Copy OK

Track 2

Filename D:\Merle Haggard - Concepts, Live & The Strangers (2008) [FLAC]\Disc 4\02 - Medley- Take My Hand, Precious Lord - Jesus Hold My Hand.wav

Pre-gap length 0:00:02.52

Peak level 97.9 %
Track quality 100.0 %
Test CRC CE8E2976
Copy CRC CE8E2976
Track not present in AccurateRip database
Copy OK

Track 3

Filename D:\Merle Haggard - Concepts, Live & The Strangers (2008) [FLAC]\Disc 4\03 - Precious Memories.wav

Pre-gap length 0:00:03.01

Peak level 97.9 %
Track quality 100.0 %
Test CRC C59AB79A
Copy CRC C59AB79A
Track not present in AccurateRip database
Copy OK

Track 4

Filename D:\Merle Haggard - Concepts, Live & The Strangers (2008) [FLAC]\Disc 4\04 - Rev. Jimmy Whitlock- History Of Big Creek Baptist Church.wav

Pre-gap length 0:00:03.02

Peak level 92.9 %
Track quality 100.0 %
Test CRC 1A9AD9A0
Copy CRC 1A9AD9A0
Track not present in AccurateRip database
Copy OK

Track 5

Filename D:\Merle Haggard - Concepts, Live & The Strangers (2008) [FLAC]\Disc 4\05 - Turn Your Radio On.wav

Pre-gap length 0:00:02.78

Peak level 97.9 %
Track quality 100.0 %
Test CRC B79F68C0
Copy CRC B79F68C0
Track not present in AccurateRip database
Copy OK

Track 6

Filename D:\Merle Haggard - Concepts, Live & The Strangers (2008) [FLAC]\Disc 4\06 - If We Never Meet Again.wav

Pre-gap length 0:00:02.24

Peak level 97.9 %
Track quality 100.0 %
Test CRC 76752F8F
Copy CRC 76752F8F
Track not present in AccurateRip database
Copy OK

Track 7

Filename D:\Merle Haggard - Concepts, Live & The Strangers (2008) [FLAC]\Disc 4\07 - Closing Prayer - Congregation- Just As I Am.wav

Pre-gap length 0:00:02.29

Peak level 97.9 %
Track quality 100.0 %
Test CRC F44D2C51
Copy CRC F44D2C51
Track not present in AccurateRip database
Copy OK

Track 8

Filename D:\Merle Haggard - Concepts, Live & The Strangers (2008) [FLAC]\Disc 4\08 - Chaplain Fran Butler- Introduction & Opening Prayer.wav

Pre-gap length 0:00:02.16

Peak level 97.9 %
Track quality 100.0 %
Test CRC ED0ECD9F
Copy CRC ED0ECD9F
Track not present in AccurateRip database
Copy OK

Track 9

Filename D:\Merle Haggard - Concepts, Live & The Strangers (2008) [FLAC]\Disc 4\09 - Amazing Grace.wav

Pre-gap length 0:00:02.25

Peak level 97.9 %
Track quality 100.0 %
Test CRC 0D9BF125
Copy CRC 0D9BF125
Track not present in AccurateRip database
Copy OK

Track 10

Filename D:\Merle Haggard - Concepts, Live & The Strangers (2008) [FLAC]\Disc 4\10 - Where Could I Go.wav

Pre-gap length 0:00:03.18

Peak level 97.9 %
Track quality 99.9 %
Test CRC BDDBEAA6
Copy CRC BDDBEAA6
Track not present in AccurateRip database
Copy OK

Track 11

Filename D:\Merle Haggard - Concepts, Live & The Strangers (2008) [FLAC]\Disc 4\11 - Medley- Old Time Religion-Pass Me By-Sweet By And By.wav

Pre-gap length 0:00:02.74

Peak level 97.9 %
Track quality 100.0 %
Test CRC F13E529C
Copy CRC F13E529C
Track not present in AccurateRip database
Copy OK

Track 12

Filename D:\Merle Haggard - Concepts, Live & The Strangers (2008) [FLAC]\Disc 4\12 - The Old Rugged Cross.wav

Pre-gap length 0:00:02.76

Peak level 97.9 %
Track quality 100.0 %
Test CRC D60D58FD
Copy CRC D60D58FD
Track not present in AccurateRip database
Copy OK

Track 13

Filename D:\Merle Haggard - Concepts, Live & The Strangers (2008) [FLAC]\Disc 4\13 - Chaplain Fran Butler- Closing Prayer.wav

Pre-gap length 0:00:01.94

Peak level 97.9 %
Track quality 100.0 %
Test CRC 0FBE5550
Copy CRC 0FBE5550
Track not present in AccurateRip database
Copy OK

Track 14

Filename D:\Merle Haggard - Concepts, Live & The Strangers (2008) [FLAC]\Disc 4\14 - Rev. J. D. Smith- Introduction - Congregation- Leaning On The Everlasting Arms.wav

Pre-gap length 0:00:02.12

Peak level 97.9 %
Track quality 100.0 %
Test CRC 594B93CA
Copy CRC 594B93CA
Track not present in AccurateRip database
Copy OK

Track 15

Filename D:\Merle Haggard - Concepts, Live & The Strangers (2008) [FLAC]\Disc 4\15 - Guide Me, Lord.wav

Pre-gap length 0:00:02.86

Peak level 97.9 %
Track quality 100.0 %
Test CRC AA4C6356
Copy CRC AA4C6356
Track not present in AccurateRip database
Copy OK

Track 16

Filename D:\Merle Haggard - Concepts, Live & The Strangers (2008) [FLAC]\Disc 4\16 - The Family Bible.wav

Pre-gap length 0:00:02.17

Peak level 97.9 %
Track quality 100.0 %
Test CRC 6A92E6E6
Copy CRC 6A92E6E6
Track not present in AccurateRip database
Copy OK

Track 17

Filename D:\Merle Haggard - Concepts, Live & The Strangers (2008) [FLAC]\Disc 4\17 - I'll Be List'ning.wav

Pre-gap length 0:00:03.29

Peak level 97.9 %
Track quality 100.0 %
Test CRC 485829A0
Copy CRC 485829A0
Track not present in AccurateRip database
Copy OK

Track 18

Filename D:\Merle Haggard - Concepts, Live & The Strangers (2008) [FLAC]\Disc 4\18 - Just A Closer Walk With Thee.wav

Pre-gap length 0:00:02.90

Peak level 97.9 %
Track quality 100.0 %
Test CRC 1D0AF073
Copy CRC 1D0AF073
Track not present in AccurateRip database
Copy OK

Track 19

Filename D:\Merle Haggard - Concepts, Live & The Strangers (2008) [FLAC]\Disc 4\19 - Rev. J.D. Smith- Closing Prayer.wav

Pre-gap length 0:00:03.38

Peak level 91.6 %
Track quality 100.0 %
Test CRC E4920934
Copy CRC E4920934
Track not present in AccurateRip database
Copy OK

Track 20

Filename D:\Merle Haggard - Concepts, Live & The Strangers (2008) [FLAC]\Disc 4\20 - Introduction.wav

Pre-gap length 0:00:02.56

Peak level 97.9 %
Track quality 100.0 %
Test CRC 8AE15D39
Copy CRC 8AE15D39
Track not present in AccurateRip database
Copy OK

Track 21

Filename D:\Merle Haggard - Concepts, Live & The Strangers (2008) [FLAC]\Disc 4\21 - Life's Railway To Heaven.wav

Pre-gap length 0:00:02.40

Peak level 97.9 %
Track quality 100.0 %
Test CRC B9F8D593
Copy CRC B9F8D593
Track not present in AccurateRip database
Copy OK

Track 22

Filename D:\Merle Haggard - Concepts, Live & The Strangers (2008) [FLAC]\Disc 4\22 - On The Jericho Road.wav

Pre-gap length 0:00:02.36

Peak level 97.9 %
Track quality 99.9 %
Test CRC 5F04BC9D
Copy CRC 5F04BC9D
Track not present in AccurateRip database
Copy OK

Track 23

Filename D:\Merle Haggard - Concepts, Live & The Strangers (2008) [FLAC]\Disc 4\23 - Steal Away.wav

Pre-gap length 0:00:02.45

Peak level 97.9 %
Track quality 100.0 %
Test CRC BBA6AF1F
Copy CRC BBA6AF1F
Track not present in AccurateRip database
Copy OK

Track 24

Filename D:\Merle Haggard - Concepts, Live & The Strangers (2008) [FLAC]\Disc 4\24 - I Saw The Light.wav

Pre-gap length 0:00:02.09

Peak level 97.9 %
Track quality 100.0 %
Test CRC 08D368CE
Copy CRC 08D368CE
Track not present in AccurateRip database
Copy OK


None of the tracks are present in the AccurateRip database

No errors occurred

End of status report

Exact Audio Copy V0.99 prebeta 4 from 23. January 2008

EAC extraction logfile from 19. February 2009, 18:50

Merle Haggard / Concepts, Live & The Strangers (CD 5)

Used drive : PLEXTOR DVDR PX-740A Adapter: 1 ID: 0

Read mode : Secure
Utilize accurate stream : Yes
Defeat audio cache : Yes
Make use of C2 pointers : No

Read offset correction : 618
Overread into Lead-In and Lead-Out : No
Fill up missing offset samples with silence : Yes
Delete leading and trailing silent blocks : No
Null samples used in CRC calculations : Yes
Used interface : Native Win32 interface for Win NT & 2000
Gap handling : Appended to previous track

Used output format : User Defined Encoder
Selected bitrate : 128 kBit/s
Quality : High
Add ID3 tag : No
Command line compressor : F:\Program Files\FLAC\flac.exe
Additional command line options : -8 -V -T "ARTIST=%a" -T "TITLE=%t" -T "ALBUM=%g" -T "DATE=%y" -T "TRACKNUMBER=%n" -T "GENRE=%m" -T "COMMENT=EAC FLAC -8" %s


TOC of the extracted CD

Track | Start | Length | Start sector | End sector
––––––––––––––––––––––––––––-
1 | 0:00.00 | 2:44.15 | 0 | 12314
2 | 2:44.15 | 2:30.57 | 12315 | 23621
3 | 5:14.72 | 2:32.05 | 23622 | 35026
4 | 7:47.02 | 2:07.38 | 35027 | 44589
5 | 9:54.40 | 2:08.02 | 44590 | 54191
6 | 12:02.42 | 1:59.50 | 54192 | 63166
7 | 14:02.17 | 2:23.10 | 63167 | 73901
8 | 16:25.27 | 2:05.48 | 73902 | 83324
9 | 18:31.00 | 2:02.62 | 83325 | 92536
10 | 20:33.62 | 2:58.20 | 92537 | 105906
11 | 23:32.07 | 1:43.25 | 105907 | 113656
12 | 25:15.32 | 2:14.20 | 113657 | 123726
13 | 27:29.52 | 2:02.15 | 123727 | 132891
14 | 29:31.67 | 1:33.33 | 132892 | 139899
15 | 31:05.25 | 2:04.52 | 139900 | 149251
16 | 33:10.02 | 2:10.33 | 149252 | 159034
17 | 35:20.35 | 1:41.55 | 159035 | 166664
18 | 37:02.15 | 2:05.12 | 166665 | 176051
19 | 39:07.27 | 2:19.68 | 176052 | 186544
20 | 41:27.20 | 2:24.62 | 186545 | 197406
21 | 43:52.07 | 1:55.45 | 197407 | 206076
22 | 45:47.52 | 1:45.48 | 206077 | 213999
23 | 47:33.25 | 2:05.20 | 214000 | 223394
24 | 49:38.45 | 2:48.65 | 223395 | 236059
25 | 52:27.35 | 2:10.02 | 236060 | 245811
26 | 54:37.37 | 1:50.05 | 245812 | 254066
27 | 56:27.42 | 2:45.48 | 254067 | 266489
28 | 59:13.15 | 2:12.30 | 266490 | 276419
29 | 61:25.45 | 2:06.40 | 276420 | 285909
30 | 63:32.10 | 1:37.15 | 285910 | 293199
31 | 65:09.25 | 2:30.50 | 293200 | 304499
32 | 67:40.00 | 3:15.05 | 304500 | 319129


Track 1

Filename D:\Merle Haggard - Concepts, Live & The Strangers (2008) [FLAC]\Disc 5\01 - Leaving Phoenix.wav

Pre-gap length 0:00:02.00

Peak level 97.9 %
Track quality 100.0 %
Test CRC D515E57F
Copy CRC D515E57F
Track not present in AccurateRip database
Copy OK

Track 2

Filename D:\Merle Haggard - Concepts, Live & The Strangers (2008) [FLAC]\Disc 5\02 - Terri.wav

Pre-gap length 0:00:02.01

Peak level 97.9 %
Track quality 99.9 %
Test CRC 8256C291
Copy CRC 8256C291
Track not present in AccurateRip database
Copy OK

Track 3

Filename D:\Merle Haggard - Concepts, Live & The Strangers (2008) [FLAC]\Disc 5\03 - Hammin' It Up.wav

Pre-gap length 0:00:02.90

Peak level 97.9 %
Track quality 99.9 %
Test CRC 01F2833C
Copy CRC 01F2833C
Track not present in AccurateRip database
Copy OK

Track 4

Filename D:\Merle Haggard - Concepts, Live & The Strangers (2008) [FLAC]\Disc 5\04 - San Antonio Rose.wav

Pre-gap length 0:00:02.94

Peak level 97.9 %
Track quality 99.9 %
Test CRC 40FFE192
Copy CRC 40FFE192
Track not present in AccurateRip database
Copy OK

Track 5

Filename D:\Merle Haggard - Concepts, Live & The Strangers (2008) [FLAC]\Disc 5\05 - Somebody Stole My Gal.wav

Pre-gap length 0:00:02.17

Peak level 97.9 %
Track quality 100.0 %
Test CRC 4D575C4C
Copy CRC 4D575C4C
Track not present in AccurateRip database
Copy OK

Track 6

Filename D:\Merle Haggard - Concepts, Live & The Strangers (2008) [FLAC]\Disc 5\06 - Hop And A Skip.wav

Pre-gap length 0:00:02.20

Peak level 97.9 %
Track quality 100.0 %
Test CRC 36A38EBB
Copy CRC 36A38EBB
Track not present in AccurateRip database
Copy OK

Track 7

Filename D:\Merle Haggard - Concepts, Live & The Strangers (2008) [FLAC]\Disc 5\07 - Don't Tell Me.wav

Pre-gap length 0:00:03.86

Peak level 97.9 %
Track quality 99.9 %
Test CRC 34DFB343
Copy CRC 34DFB343
Track not present in AccurateRip database
Copy OK

Track 8

Filename D:\Merle Haggard - Concepts, Live & The Strangers (2008) [FLAC]\Disc 5\08 - Whooper Snooper.wav

Pre-gap length 0:00:02.66

Peak level 97.9 %
Track quality 100.0 %
Test CRC A6A4E02B
Copy CRC A6A4E02B
Track not present in AccurateRip database
Copy OK

Track 9

Filename D:\Merle Haggard - Concepts, Live & The Strangers (2008) [FLAC]\Disc 5\09 - Poppin' Corn.wav

Pre-gap length 0:00:02.12

Peak level 89.3 %
Track quality 100.0 %
Test CRC CA68F94D
Copy CRC CA68F94D
Track not present in AccurateRip database
Copy OK

Track 10

Filename D:\Merle Haggard - Concepts, Live & The Strangers (2008) [FLAC]\Disc 5\10 - The Waltz Of Enchantment.wav

Pre-gap length 0:00:02.02

Peak level 97.9 %
Track quality 100.0 %
Test CRC 8FDFE14C
Copy CRC 8FDFE14C
Track not present in AccurateRip database
Copy OK

Track 11

Filename D:\Merle Haggard - Concepts, Live & The Strangers (2008) [FLAC]\Disc 5\11 - Tennessee Flat Top Box.wav

Pre-gap length 0:00:02.34

Peak level 97.9 %
Track quality 100.0 %
Test CRC 2E537481
Copy CRC 2E537481
Track not present in AccurateRip database
Copy OK

Track 12

Filename D:\Merle Haggard - Concepts, Live & The Strangers (2008) [FLAC]\Disc 5\12 - Mama Tried.wav

Pre-gap length 0:00:03.10

Peak level 97.9 %
Track quality 100.0 %
Test CRC A68E29BD
Copy CRC A68E29BD
Track not present in AccurateRip database
Copy OK

Track 13

Filename D:\Merle Haggard - Concepts, Live & The Strangers (2008) [FLAC]\Disc 5\13 - Stealin' Corn.wav

Pre-gap length 0:00:02.38

Peak level 97.9 %
Track quality 99.9 %
Test CRC 32E7031F
Copy CRC 32E7031F
Track not present in AccurateRip database
Copy OK

Track 14

Filename D:\Merle Haggard - Concepts, Live & The Strangers (2008) [FLAC]\Disc 5\14 - Twinkle, Twinkle, Twinkle, Little Star.wav

Pre-gap length 0:00:02.01

Peak level 97.9 %
Track quality 100.0 %
Test CRC F2470CE6
Copy CRC F2470CE6
Track not present in AccurateRip database
Copy OK

Track 15

Filename D:\Merle Haggard - Concepts, Live & The Strangers (2008) [FLAC]\Disc 5\15 - Blue Rock.wav

Pre-gap length 0:00:02.64

Peak level 98.0 %
Track quality 100.0 %
Test CRC 4325EF48
Copy CRC 4325EF48
Track not present in AccurateRip database
Copy OK

Track 16

Filename D:\Merle Haggard - Concepts, Live & The Strangers (2008) [FLAC]\Disc 5\16 - Mexican Rose.wav

Pre-gap length 0:00:02.09

Peak level 97.9 %
Track quality 100.0 %
Test CRC 0E34C8C8
Copy CRC 0E34C8C8
Track not present in AccurateRip database
Copy OK

Track 17

Filename D:\Merle Haggard - Concepts, Live & The Strangers (2008) [FLAC]\Disc 5\17 - Waltzing With A Stranger.wav

Pre-gap length 0:00:02.26

Peak level 97.9 %
Track quality 100.0 %
Test CRC 508B5680
Copy CRC 508B5680
Track not present in AccurateRip database
Copy OK

Track 18

Filename D:\Merle Haggard - Concepts, Live & The Strangers (2008) [FLAC]\Disc 5\18 - Sing Me A Happy Song.wav

Pre-gap length 0:00:03.02

Peak level 97.9 %
Track quality 100.0 %
Test CRC 0AB1ADBE
Copy CRC 0AB1ADBE
Track not present in AccurateRip database
Copy OK

Track 19

Filename D:\Merle Haggard - Concepts, Live & The Strangers (2008) [FLAC]\Disc 5\19 - Repeat Performance.wav

Pre-gap length 0:00:02.10

Peak level 97.9 %
Track quality 100.0 %
Test CRC B3F9E1D6
Copy CRC B3F9E1D6
Track not present in AccurateRip database
Copy OK

Track 20

Filename D:\Merle Haggard - Concepts, Live & The Strangers (2008) [FLAC]\Disc 5\20 - Street Singer.wav

Pre-gap length 0:00:02.56

Peak level 97.9 %
Track quality 100.0 %
Test CRC A3295A10
Copy CRC A3295A10
Track not present in AccurateRip database
Copy OK

Track 21

Filename D:\Merle Haggard - Concepts, Live & The Strangers (2008) [FLAC]\Disc 5\21 - Biff Bam Boom.wav

Pre-gap length 0:00:02.72

Peak level 98.0 %
Track quality 100.0 %
Test CRC B07851BA
Copy CRC B07851BA
Track not present in AccurateRip database
Copy OK

Track 22

Filename D:\Merle Haggard - Concepts, Live & The Strangers (2008) [FLAC]\Disc 5\22 - Workin' Man Blues.wav

Pre-gap length 0:00:03.66

Peak level 97.9 %
Track quality 100.0 %
Test CRC 0979342B
Copy CRC 0979342B
Track not present in AccurateRip database
Copy OK

Track 23

Filename D:\Merle Haggard - Concepts, Live & The Strangers (2008) [FLAC]\Disc 5\23 - Day Happy.wav

Pre-gap length 0:00:03.21

Peak level 97.9 %
Track quality 100.0 %
Test CRC 0A946D0F
Copy CRC 0A946D0F
Track not present in AccurateRip database
Copy OK

Track 24

Filename D:\Merle Haggard - Concepts, Live & The Strangers (2008) [FLAC]\Disc 5\24 - Every Fool Has A Rainbow.wav

Pre-gap length 0:00:02.10

Peak level 97.9 %
Track quality 100.0 %
Test CRC 9CCF0DA3
Copy CRC 9CCF0DA3
Track not present in AccurateRip database
Copy OK

Track 25

Filename D:\Merle Haggard - Concepts, Live & The Strangers (2008) [FLAC]\Disc 5\25 - Story With A Happy Indian.wav

Pre-gap length 0:00:02.12

Peak level 97.9 %
Track quality 100.0 %
Test CRC B38A3D3C
Copy CRC B38A3D3C
Track not present in AccurateRip database
Copy OK

Track 26

Filename D:\Merle Haggard - Concepts, Live & The Strangers (2008) [FLAC]\Disc 5\26 - Scramble.wav

Pre-gap length 0:00:02.25

Peak level 97.9 %
Track quality 100.0 %
Test CRC 7436345D
Copy CRC 7436345D
Track not present in AccurateRip database
Copy OK

Track 27

Filename D:\Merle Haggard - Concepts, Live & The Strangers (2008) [FLAC]\Disc 5\27 - California On My Mind.wav

Pre-gap length 0:00:03.42

Peak level 97.9 %
Track quality 100.0 %
Test CRC 99EA8A87
Copy CRC 99EA8A87
Track not present in AccurateRip database
Copy OK

Track 28

Filename D:\Merle Haggard - Concepts, Live & The Strangers (2008) [FLAC]\Disc 5\28 - Comin' Home.wav

Pre-gap length 0:00:02.05

Peak level 97.9 %
Track quality 100.0 %
Test CRC 3674F11A
Copy CRC 3674F11A
Track not present in AccurateRip database
Copy OK

Track 29

Filename D:\Merle Haggard - Concepts, Live & The Strangers (2008) [FLAC]\Disc 5\29 - Walkin' Through My Heart.wav

Pre-gap length 0:00:02.33

Peak level 97.9 %
Track quality 100.0 %
Test CRC 2857D2B5
Copy CRC 2857D2B5
Track not present in AccurateRip database
Copy OK

Track 30

Filename D:\Merle Haggard - Concepts, Live & The Strangers (2008) [FLAC]\Disc 5\30 - Skippin'.wav

Pre-gap length 0:00:02.14

Peak level 97.9 %
Track quality 100.0 %
Test CRC ECE6354F
Copy CRC ECE6354F
Track not present in AccurateRip database
Copy OK

Track 31

Filename D:\Merle Haggard - Concepts, Live & The Strangers (2008) [FLAC]\Disc 5\31 - Ham Boogie (Steelin' The Boogie).wav

Pre-gap length 0:00:02.81

Peak level 97.9 %
Track quality 100.0 %
Test CRC FE9E43DF
Copy CRC FE9E43DF
Track not present in AccurateRip database
Copy OK

Track 32

Filename D:\Merle Haggard - Concepts, Live & The Strangers (2008) [FLAC]\Disc 5\32 - Caravan.wav

Pre-gap length 0:00:02.90

Peak level 97.9 %
Track quality 100.0 %
Test CRC 29A2692A
Copy CRC 29A2692A
Track not present in AccurateRip database
Copy OK


None of the tracks are present in the AccurateRip database

No errors occurred

End of status report

Exact Audio Copy V0.99 prebeta 4 from 23. January 2008

EAC extraction logfile from 19. February 2009, 19:26

Merle Haggard / Concepts, Live & The Strangers (CD 6)

Used drive : PLEXTOR DVDR PX-740A Adapter: 1 ID: 0

Read mode : Secure
Utilize accurate stream : Yes
Defeat audio cache : Yes
Make use of C2 pointers : No

Read offset correction : 618
Overread into Lead-In and Lead-Out : No
Fill up missing offset samples with silence : Yes
Delete leading and trailing silent blocks : No
Null samples used in CRC calculations : Yes
Used interface : Native Win32 interface for Win NT & 2000
Gap handling : Appended to previous track

Used output format : User Defined Encoder
Selected bitrate : 128 kBit/s
Quality : High
Add ID3 tag : No
Command line compressor : F:\Program Files\FLAC\flac.exe
Additional command line options : -8 -V -T "ARTIST=%a" -T "TITLE=%t" -T "ALBUM=%g" -T "DATE=%y" -T "TRACKNUMBER=%n" -T "GENRE=%m" -T "COMMENT=EAC FLAC -8" %s


TOC of the extracted CD

Track | Start | Length | Start sector | End sector
––––––––––––––––––––––––––––-
1 | 0:00.00 | 3:27.52 | 0 | 15576
2 | 3:27.52 | 3:11.18 | 15577 | 29919
3 | 6:38.70 | 3:09.05 | 29920 | 44099
4 | 9:48.00 | 2:56.55 | 44100 | 57354
5 | 12:44.55 | 2:43.67 | 57355 | 69646
6 | 15:28.47 | 2:48.28 | 69647 | 82274
7 | 18:17.00 | 2:51.12 | 82275 | 95111
8 | 21:08.12 | 3:00.55 | 95112 | 108666
9 | 24:08.67 | 2:18.13 | 108667 | 119029
10 | 26:27.05 | 2:21.55 | 119030 | 129659
11 | 28:48.60 | 2:30.72 | 129660 | 140981
12 | 31:19.57 | 2:03.65 | 140982 | 150271
13 | 33:23.47 | 1:53.13 | 150272 | 158759
14 | 35:16.60 | 2:14.27 | 158760 | 168836
15 | 37:31.12 | 2:23.45 | 168837 | 179606
16 | 39:54.57 | 1:52.35 | 179607 | 188041
17 | 41:47.17 | 2:13.65 | 188042 | 198081
18 | 44:01.07 | 2:22.33 | 198082 | 208764
19 | 46:23.40 | 1:57.10 | 208765 | 217549
20 | 48:20.50 | 2:15.00 | 217550 | 227674
21 | 50:35.50 | 2:30.12 | 227675 | 238936
22 | 53:05.62 | 2:34.18 | 238937 | 250504
23 | 55:40.05 | 1:55.42 | 250505 | 259171
24 | 57:35.47 | 3:29.58 | 259172 | 274904
25 | 61:05.30 | 2:22.47 | 274905 | 285601
26 | 63:28.02 | 1:57.08 | 285602 | 294384
27 | 65:25.10 | 1:40.70 | 294385 | 301954


Track 1

Filename D:\Merle Haggard - Concepts, Live & The Strangers (2008) [FLAC]\Disc 6\01 - Stumbling.wav

Pre-gap length 0:00:02.00

Peak level 90.3 %
Track quality 100.0 %
Test CRC BF97B39A
Copy CRC BF97B39A
Track not present in AccurateRip database
Copy OK

Track 2

Filename D:\Merle Haggard - Concepts, Live & The Strangers (2008) [FLAC]\Disc 6\02 - Me And Bobby McGee.wav

Pre-gap length 0:00:03.02

Peak level 92.5 %
Track quality 99.9 %
Test CRC CCEBDCA5
Copy CRC CCEBDCA5
Track not present in AccurateRip database
Copy OK

Track 3

Filename D:\Merle Haggard - Concepts, Live & The Strangers (2008) [FLAC]\Disc 6\03 - Honky Tonk.wav

Pre-gap length 0:00:02.65

Peak level 97.9 %
Track quality 100.0 %
Test CRC A5E7A622
Copy CRC A5E7A622
Track not present in AccurateRip database
Copy OK

Track 4

Filename D:\Merle Haggard - Concepts, Live & The Strangers (2008) [FLAC]\Disc 6\04 - Raunchy.wav

Pre-gap length 0:00:02.60

Peak level 98.0 %
Track quality 100.0 %
Test CRC 5F9C9A6B
Copy CRC 5F9C9A6B
Track not present in AccurateRip database
Copy OK

Track 5

Filename D:\Merle Haggard - Concepts, Live & The Strangers (2008) [FLAC]\Disc 6\05 - Song From 'Sleep Walk'.wav

Pre-gap length 0:00:02.30

Peak level 97.9 %
Track quality 100.0 %
Test CRC 8F7CF176
Copy CRC 8F7CF176
Track not present in AccurateRip database
Copy OK

Track 6

Filename D:\Merle Haggard - Concepts, Live & The Strangers (2008) [FLAC]\Disc 6\06 - Watchin' Scotty Grow.wav

Pre-gap length 0:00:02.01

Peak level 97.9 %
Track quality 100.0 %
Test CRC 6436B503
Copy CRC 6436B503
Track not present in AccurateRip database
Copy OK

Track 7

Filename D:\Merle Haggard - Concepts, Live & The Strangers (2008) [FLAC]\Disc 6\07 - Just Sit Down And Cry.wav

Pre-gap length 0:00:02.10

Peak level 97.9 %
Track quality 100.0 %
Test CRC 248F4E48
Copy CRC 248F4E48
Track not present in AccurateRip database
Copy OK

Track 8

Filename D:\Merle Haggard - Concepts, Live & The Strangers (2008) [FLAC]\Disc 6\08 - Slow 'n' Easy.wav

Pre-gap length 0:00:02.18

Peak level 97.9 %
Track quality 100.0 %
Test CRC 433F593A
Copy CRC 433F593A
Track not present in AccurateRip database
Copy OK

Track 9

Filename D:\Merle Haggard - Concepts, Live & The Strangers (2008) [FLAC]\Disc 6\09 - I Don't Love Nobody.wav

Pre-gap length 0:00:02.40

Peak level 97.9 %
Track quality 100.0 %
Test CRC B7DD7906
Copy CRC B7DD7906
Track not present in AccurateRip database
Copy OK

Track 10

Filename D:\Merle Haggard - Concepts, Live & The Strangers (2008) [FLAC]\Disc 6\10 - Almost To Tulsa.wav

Pre-gap length 0:00:02.50

Peak level 97.9 %
Track quality 100.0 %
Test CRC 6B92220C
Copy CRC 6B92220C
Track not present in AccurateRip database
Copy OK

Track 11

Filename D:\Merle Haggard - Concepts, Live & The Strangers (2008) [FLAC]\Disc 6\11 - Fiddle Blues.wav

Pre-gap length 0:00:02.62

Peak level 97.9 %
Track quality 100.0 %
Test CRC B87314CA
Copy CRC B87314CA
Track not present in AccurateRip database
Copy OK

Track 12

Filename D:\Merle Haggard - Concepts, Live & The Strangers (2008) [FLAC]\Disc 6\12 - Champagne.wav

Pre-gap length 0:00:02.90

Peak level 97.9 %
Track quality 99.9 %
Test CRC 0A849884
Copy CRC 0A849884
Track not present in AccurateRip database
Copy OK

Track 13

Filename D:\Merle Haggard - Concepts, Live & The Strangers (2008) [FLAC]\Disc 6\13 - Somewhere Over The Rainbow.wav

Pre-gap length 0:00:02.06

Peak level 97.9 %
Track quality 100.0 %
Test CRC E6E280CA
Copy CRC E6E280CA
Track not present in AccurateRip database
Copy OK

Track 14

Filename D:\Merle Haggard - Concepts, Live & The Strangers (2008) [FLAC]\Disc 6\14 - Goes Without Saying.wav

Pre-gap length 0:00:03.56

Peak level 97.9 %
Track quality 100.0 %
Test CRC 6E750242
Copy CRC 6E750242
Track not present in AccurateRip database
Copy OK

Track 15

Filename D:\Merle Haggard - Concepts, Live & The Strangers (2008) [FLAC]\Disc 6\15 - Swing High.wav

Pre-gap length 0:00:02.38

Peak level 97.9 %
Track quality 100.0 %
Test CRC 8597D4F4
Copy CRC 8597D4F4
Track not present in AccurateRip database
Copy OK

Track 16

Filename D:\Merle Haggard - Concepts, Live & The Strangers (2008) [FLAC]\Disc 6\16 - Somewhere Over The Rainbow.wav

Pre-gap length 0:00:02.68

Peak level 97.9 %
Track quality 100.0 %
Test CRC 5E52007F
Copy CRC 5E52007F
Track not present in AccurateRip database
Copy OK

Track 17

Filename D:\Merle Haggard - Concepts, Live & The Strangers (2008) [FLAC]\Disc 6\17 - When My Conscience Takes Over.wav

Pre-gap length 0:00:03.53

Peak level 97.9 %
Track quality 100.0 %
Test CRC 8402CF02
Copy CRC 8402CF02
Track not present in AccurateRip database
Copy OK

Track 18

Filename D:\Merle Haggard - Concepts, Live & The Strangers (2008) [FLAC]\Disc 6\18 - When THe Roses Die.wav

Pre-gap length 0:00:02.37

Peak level 97.9 %
Track quality 99.9 %
Test CRC B0090291
Copy CRC B0090291
Track not present in AccurateRip database
Copy OK

Track 19

Filename D:\Merle Haggard - Concepts, Live & The Strangers (2008) [FLAC]\Disc 6\19 - Champagne.wav

Pre-gap length 0:00:02.64

Peak level 97.9 %
Track quality 100.0 %
Test CRC FCEA028D
Copy CRC FCEA028D
Track not present in AccurateRip database
Copy OK

Track 20

Filename D:\Merle Haggard - Concepts, Live & The Strangers (2008) [FLAC]\Disc 6\20 - I'm Sittin' On Top Of The World.wav

Pre-gap length 0:00:03.74

Peak level 97.9 %
Track quality 100.0 %
Test CRC 88842E2A
Copy CRC 88842E2A
Track not present in AccurateRip database
Copy OK

Track 21

Filename D:\Merle Haggard - Concepts, Live & The Strangers (2008) [FLAC]\Disc 6\21 - There You Go Again.wav

Pre-gap length 0:00:02.41

Peak level 98.0 %
Track quality 100.0 %
Test CRC 6AF28748
Copy CRC 6AF28748
Track not present in AccurateRip database
Copy OK

Track 22

Filename D:\Merle Haggard - Concepts, Live & The Strangers (2008) [FLAC]\Disc 6\22 - See The Sunset.wav

Pre-gap length 0:00:02.88

Peak level 97.9 %
Track quality 100.0 %
Test CRC E7609496
Copy CRC E7609496
Track not present in AccurateRip database
Copy OK

Track 23

Filename D:\Merle Haggard - Concepts, Live & The Strangers (2008) [FLAC]\Disc 6\23 - Roller Coaster.wav

Pre-gap length 0:00:03.01

Peak level 97.9 %
Track quality 99.9 %
Test CRC 2D1F2793
Copy CRC 2D1F2793
Track not present in AccurateRip database
Copy OK

Track 24

Filename D:\Merle Haggard - Concepts, Live & The Strangers (2008) [FLAC]\Disc 6\24 - Cotton Picker.wav

Pre-gap length 0:00:03.66

Peak level 97.9 %
Track quality 100.0 %
Test CRC 88792AA8
Copy CRC 88792AA8
Track not present in AccurateRip database
Copy OK

Track 25

Filename D:\Merle Haggard - Concepts, Live & The Strangers (2008) [FLAC]\Disc 6\25 - It's Only Love.wav

Pre-gap length 0:00:03.08

Peak level 98.0 %
Track quality 100.0 %
Test CRC 1172A640
Copy CRC 1172A640
Track not present in AccurateRip database
Copy OK

Track 26

Filename D:\Merle Haggard - Concepts, Live & The Strangers (2008) [FLAC]\Disc 6\26 - Cherokee Fiddle.wav

Pre-gap length 0:00:02.65

Peak level 97.9 %
Track quality 100.0 %
Test CRC 4E244637
Copy CRC 4E244637
Track not present in AccurateRip database
Copy OK

Track 27

Filename D:\Merle Haggard - Concepts, Live & The Strangers (2008) [FLAC]\Disc 6\27 - Country Gas.wav

Pre-gap length 0:00:03.74

Peak level 97.9 %
Track quality 100.0 %
Test CRC 649CFDE1
Copy CRC 649CFDE1
Track not present in AccurateRip database
Copy OK


None of the tracks are present in the AccurateRip database

No errors occurred

End of status report


Merle Haggard - Hag: The Capitol Recordings 1968-1976 - Concepts, Live & The Strangers (2008) {6CD Set Bear Family Records}


All thanks goes to the original releaser!



===