Subcategories

Michael Kiwanuka - KIWANUKA (2019)

Posted By: delpotro
Michael Kiwanuka - KIWANUKA (2019)

Michael Kiwanuka - KIWANUKA (2019)
EAC Rip | FLAC (tracks+log+.cue) | 00:51:15 | 292 Mb
Soul, Singer-Songwriter | Label: Polydor Records

Michael Kiwanuka releases his third studio album. KIWANUKA was recorded in New York, LA and London. Michael returned to the studio with Danger Mouse and Inflo, the same production team that combined so magnificently on Love & Hate, KIWANUKA finds a new assuredness in Michael’s writing, and takes the basic sonic blueprint of that last record to a dizzying new realm.

Michael will tell you of his love for records that entwine their songs with incidental skits and shape-shifting spiralling outros, so the listener experience is almost that of listening to one long, dramatic song. KIWANUKA fulfils that winding, dream-like haze, unhurried.

KIWANUKA is Michael serving from the heart, from the mind, and from the soul.

On the album title, Michael explains “This album, it’s kind of a defiant thing; I’m engaging with who I am and I’m not going to have an alter ego, or become Sasha Fierce or Ziggy Stardust, even through everyone’s telling me I need to be this, that or the other. I can just be Michael Kiwanuka.”
Tracklist:
1. You Ain't the Problem (04:09)
2. Rolling (02:51)
3. I've Been Dazed (04:25)
4. Piano Joint (This Kind of Love) [Intro] (02:18)
5. Piano Joint (This Kind of Love) (03:51)
6. Another Human Being (01:51)
7. Living In Denial (03:31)
8. Hero (Intro) (01:20)
9. Hero (03:19)
10. Hard to Say Goodbye (07:05)
11. Final Days (04:10)
12. Interlude (Loving the People) (02:42)
13. Solid Ground (03:53)
14. Light (05:48)

Exact Audio Copy V1.3 from 2. September 2016

EAC extraction logfile from 31. October 2019, 17:50

Michael Kiwanuka / KIWANUKA

Used drive : HL-DT-STBD-RE WH16NS40 Adapter: 1 ID: 1

Read mode : Secure
Utilize accurate stream : Yes
Defeat audio cache : Yes
Make use of C2 pointers : No

Read offset correction : 6
Overread into Lead-In and Lead-Out : No
Fill up missing offset samples with silence : Yes
Delete leading and trailing silent blocks : No
Null samples used in CRC calculations : Yes
Used interface : Native Win32 interface for Win NT & 2000
Gap handling : Appended to previous track

Used output format : User Defined Encoder
Selected bitrate : 1024 kBit/s
Quality : High
Add ID3 tag : No
Command line compressor : C:\Program Files (x86)\Exact Audio Copy\Flac\flac.exe
Additional command line options : -8 -V -T "ARTIST=%artist%" -T "TITLE=%title%" -T "ALBUM=%albumtitle%" -T "DATE=%year%" -T "TRACKNUMBER=%tracknr%" -T "GENRE=%genre%" -T "PERFORMER=%albuminterpret%" -T "COMPOSER=%composer%" %haslyrics%–tag-from-file=LYRICS="%lyricsfile%"%haslyrics% -T "ALBUMARTIST=%albumartist%" -T "DISCNUMBER=%cdnumber%" -T "TOTALDISCS=%totalcds%" -T "TOTALTRACKS=%numtracks%" -T "COMMENT=%comment%" %source% -o %dest%


TOC of the extracted CD

Track | Start | Length | Start sector | End sector
––––––––––––––––––––––––––––-
1 | 0:00.00 | 4:09.25 | 0 | 18699
2 | 4:09.25 | 2:51.56 | 18700 | 31580
3 | 7:01.06 | 4:25.09 | 31581 | 51464
4 | 11:26.15 | 2:18.06 | 51465 | 61820
5 | 13:44.21 | 3:51.44 | 61821 | 79189
6 | 17:35.65 | 1:51.42 | 79190 | 87556
7 | 19:27.32 | 3:31.20 | 87557 | 103401
8 | 22:58.52 | 4:39.14 | 103402 | 124340
9 | 27:37.66 | 7:05.52 | 124341 | 156267
10 | 34:43.43 | 4:10.70 | 156268 | 175087
11 | 38:54.38 | 2:42.36 | 175088 | 187273
12 | 41:36.74 | 3:53.04 | 187274 | 204752
13 | 45:30.03 | 5:45.32 | 204753 | 230659


Track 1

Filename C:\New Rips\Michael Kiwanuka - 2019 - KIWANUKA (B0031124-02)\01 You Ain't the Problem.wav

Pre-gap length 0:00:02.00

Peak level 96.6 %
Extraction speed 0.9 X
Track quality 99.9 %
Test CRC D0540497
Copy CRC D0540497
Track not present in AccurateRip database
Copy OK

Track 2

Filename C:\New Rips\Michael Kiwanuka - 2019 - KIWANUKA (B0031124-02)\02 Rolling.wav

Peak level 96.6 %
Extraction speed 1.1 X
Track quality 100.0 %
Test CRC 02000F52
Copy CRC 02000F52
Track not present in AccurateRip database
Copy OK

Track 3

Filename C:\New Rips\Michael Kiwanuka - 2019 - KIWANUKA (B0031124-02)\03 I've Been Dazed.wav

Peak level 96.6 %
Extraction speed 1.2 X
Track quality 100.0 %
Test CRC 8659CE04
Copy CRC 8659CE04
Track not present in AccurateRip database
Copy OK

Track 4

Filename C:\New Rips\Michael Kiwanuka - 2019 - KIWANUKA (B0031124-02)\04 Piano Joint (This Kind of Love) Intro.wav

Peak level 96.6 %
Extraction speed 0.9 X
Track quality 99.9 %
Test CRC B30C5833
Copy CRC B30C5833
Track not present in AccurateRip database
Copy OK

Track 5

Filename C:\New Rips\Michael Kiwanuka - 2019 - KIWANUKA (B0031124-02)\05 Piano Joint (This Kind of Love).wav

Peak level 96.6 %
Extraction speed 1.4 X
Track quality 100.0 %
Test CRC B2C8E61E
Copy CRC B2C8E61E
Track not present in AccurateRip database
Copy OK

Track 6

Filename C:\New Rips\Michael Kiwanuka - 2019 - KIWANUKA (B0031124-02)\06 Another Human Being (Interlude).wav

Peak level 96.6 %
Extraction speed 0.9 X
Track quality 99.9 %
Test CRC 6AB2811E
Copy CRC 6AB2811E
Track not present in AccurateRip database
Copy OK

Track 7

Filename C:\New Rips\Michael Kiwanuka - 2019 - KIWANUKA (B0031124-02)\07 Living in Denial.wav

Peak level 96.6 %
Extraction speed 1.3 X
Track quality 100.0 %
Test CRC 7BC2796C
Copy CRC 7BC2796C
Track not present in AccurateRip database
Copy OK

Track 8

Filename C:\New Rips\Michael Kiwanuka - 2019 - KIWANUKA (B0031124-02)\08 Hero.wav

Peak level 96.6 %
Extraction speed 1.0 X
Track quality 99.9 %
Test CRC 41C777B8
Copy CRC 41C777B8
Track not present in AccurateRip database
Copy OK

Track 9

Filename C:\New Rips\Michael Kiwanuka - 2019 - KIWANUKA (B0031124-02)\09 Hard to Say Goodbye.wav

Peak level 96.6 %
Extraction speed 1.4 X
Track quality 100.0 %
Test CRC 2FB3AC26
Copy CRC 2FB3AC26
Track not present in AccurateRip database
Copy OK

Track 10

Filename C:\New Rips\Michael Kiwanuka - 2019 - KIWANUKA (B0031124-02)\10 Final Days.wav

Peak level 96.6 %
Extraction speed 1.4 X
Track quality 100.0 %
Test CRC E1D8CA43
Copy CRC E1D8CA43
Track not present in AccurateRip database
Copy OK

Track 11

Filename C:\New Rips\Michael Kiwanuka - 2019 - KIWANUKA (B0031124-02)\11 Interlude (Loving The People).wav

Peak level 96.6 %
Extraction speed 1.5 X
Track quality 100.0 %
Test CRC 8F549F05
Copy CRC 8F549F05
Track not present in AccurateRip database
Copy OK

Track 12

Filename C:\New Rips\Michael Kiwanuka - 2019 - KIWANUKA (B0031124-02)\12 Solid Ground.wav

Peak level 96.6 %
Extraction speed 1.3 X
Track quality 99.9 %
Test CRC F80FDDB8
Copy CRC F80FDDB8
Track not present in AccurateRip database
Copy OK

Track 13

Filename C:\New Rips\Michael Kiwanuka - 2019 - KIWANUKA (B0031124-02)\13 Light.wav

Peak level 96.6 %
Extraction speed 1.8 X
Track quality 100.0 %
Test CRC 6F241BA1
Copy CRC 6F241BA1
Track not present in AccurateRip database
Copy OK


None of the tracks are present in the AccurateRip database

No errors occurred

End of status report

–– CUETools DB Plugin V2.1.6

[CTDB TOCID: 6ROpcodQ0eiKheQRL8bMfh2AYU0-] disk not present in database
Submit result: 6ROpcodQ0eiKheQRL8bMfh2AYU0- has been uploaded


==== Log checksum 56ECE63AB3E5211A60298B859B9CD9B1D94135669A6D0691FA20126C1D374ED4 ====

Thanks to the Original ripper !