Subcategories

Michel Godard - Archangelica (2008)

Posted By: Domestos
Michel Godard - Archangelica (2008)

Michel Godard - Archangelica (2008)
EAC Rip | FLAC (image+.cue, log) ~ 313.89 Mb | 54:48 | Cover
Contemporary Jazz | Label: CAM Jazz - 7806-2

La commistione, anzi la collaborazione tra musica classica e jazz è sempre stata al centro del lavoro di Michel Godard e aveva già trovato momenti di realizzazione esemplare - ad esempio, nello splendido Castel del Monte, uscito per la Enja nel 2000. Ecco, con questo Archangelica, un altro capitolo della ricerca godardiana, stavolta scaturente da una curiosa combinazione di elementi: l’invito a collaborare con un ensemble barocco, sulla base delle Leçons des ténèbres di Marc-Antoine Charpentier, in occasione di uno spettacolo tratto da un romanzo fantastico di Nancy Huston. Come racconta suggestivamente la stessa Huston nel libretto del CD, la collaborazione, inizialmente difficile e distante, è rapidamente cresciuta fino a veder l’ensemble suonare jazz e i jazzisti suonare barocco. Il disco ne è la logica conseguenza.

E il disco è bello, con momenti davvero esaltanti e altri un po’ meno convincenti. Godard vi suona solo il serpente, con l’abilità che gli è nota, ma anche con una liricità sorprendente. L’interazione ora con il clavicembalo di Freddy Eichelberger, ora con la marimba di Franck Tortiller, ora con le chitarre elettriche di Gérard Marais è sempre perfetta, esaltata dall’accompagnamento dell’ensemble barocco, l’Atelier des Musicens du Louvre di Grenoble, diretti da Mirella Girardelli (autrice dell’“invito” a Godard).

Un po’ meno persuasivo il ruolo di Maria Pia De Vito, che eccelle nella bella “Senza Tremmore” e svolge un compito suggestivo in “In tenebrosis”, ma i cui vocalizzi paiono altrove un po’ ridondanti.

Splendide l’iniziale “L’or des tenèbres” e la conclusiva “Entrelacs et tours de bras”; notevole “Archangelica”; di grande fascino tutta l’operazione, fatta di suoni splendidi e arcane alchimie che legano benissimo mondi molto diversi, senza nessuna concessione all’esotismo e al manierismo: solo, radicale improvvisazione di stili. ~ Review By AAJ ITALY STAFF

Michel Godard serpent
Maria Pia De Vito vocals
Freddy Eichelberger harpsichord
Gérard Marais electric guitar
Franck Tortiller marimba
Patrice Heral percussion

L'Atelier Des Musiciens Du Louvre·Grenoble conducted by Mirella Giardelli.
Recorded in February 2007 in Grenoble (France) at the Salle Olivier Messiaen.

Track List:
1. L'Or des Ténèbres
2. Enfant Trouvée
3. Archangelica
4. Les Couleurs du Désir
5. Comme une Pluie
6. L'Ombre d'Or
7. Three Together
8. Senza Tremmore
9. In Tenebrosis
10. Entrelacs et Tours de Bras

Exact Audio Copy V0.99 prebeta 4 from 23. January 2008

EAC extraction logfile from 10. April 2009, 21:05

Michel Godard / Archangelica

Used drive : TSSTcorpCD/DVDW SH-S182M Adapter: 2 ID: 1

Read mode : Secure
Utilize accurate stream : Yes
Defeat audio cache : Yes
Make use of C2 pointers : No

Read offset correction : 6
Overread into Lead-In and Lead-Out : No
Fill up missing offset samples with silence : Yes
Delete leading and trailing silent blocks : No
Null samples used in CRC calculations : Yes
Used interface : Installed external ASPI interface

Used output format : User Defined Encoder
Selected bitrate : 1024 kBit/s
Quality : High
Add ID3 tag : No
Command line compressor : C:\Program Files\Exact Audio Copy\FLAC\FLAC.EXE
Additional command line options : -8 -V -T "ARTIST=%a" -T "TITLE=%t" -T "ALBUM=%g" -T "DATE=%y" -T "TRACKNUMBER=%n" -T "GENRE=%m" -T "COMMENT=%e" %s -o %d

TOC of the extracted CD

Track | Start | Length | Start sector | End sector
––––––––––––––––––––––––––––-
1 | 0:00.00 | 4:30.57 | 0 | 20306
2 | 4:30.57 | 5:22.59 | 20307 | 44515
3 | 9:53.41 | 7:22.52 | 44516 | 77717
4 | 17:16.18 | 5:37.63 | 77718 | 103055
5 | 22:54.06 | 4:17.03 | 103056 | 122333
6 | 27:11.09 | 5:37.17 | 122334 | 147625
7 | 32:48.26 | 7:17.64 | 147626 | 180464
8 | 40:06.15 | 5:53.40 | 180465 | 206979
9 | 45:59.55 | 3:38.26 | 206980 | 223355
10 | 49:38.06 | 5:09.44 | 223356 | 246574

Range status and errors

Selected range

Filename C:\Documents and Settings\Igor\My Documents\My Music\eac\Michel Godard - Archangelica.wav

Peak level 100.0 %
Range quality 100.0 %
Test CRC C7EB702C
Copy CRC C7EB702C
Copy OK

No errors occurred

AccurateRip summary

Track 1 not present in database
Track 2 not present in database
Track 3 not present in database
Track 4 not present in database
Track 5 not present in database
Track 6 not present in database
Track 7 not present in database
Track 8 not present in database
Track 9 not present in database
Track 10 not present in database

None of the tracks are present in the AccurateRip database

End of status report

All thanks go to the ivoronen

More Music in My Blog
Follow My RSS Channel