Subcategories

Mick Harvey - Intoxicated Man & Pink Elephants (2014) {2CD Set Mute Records CDSTUMM331 rel 1995, 1997}

Posted By: ruskaval
Mick Harvey - Intoxicated Man & Pink Elephants (2014) {2CD Set Mute Records CDSTUMM331 rel 1995, 1997}

Mick Harvey - Intoxicated Man & Pink Elephants (2014) {2CD Set Mute Records CDSTUMM331 rel 1995, 1997}
EAC rip (secure mode) | FLAC (tracks)+CUE+LOG -> 658 Mb | MP3 @320 -> 233 Mb
Full Artwork @ 300 dpi (png) -> 114 Mb | 5% repair rar
© 1995, 1997, 2014 Mute Records | CDSTUMM33
Rock / Alternative / Chanson / Blues Rock / Experimental

Mick Harvey released Intoxicated Man and Pink Elephants in 1995 and 1997, respectively. They were two of his first three solo albums apart from being musical director for Nick Cave & the Bad Seeds, and they are both tribute albums to Serge Gainsbourg. Harvey was among the first native English musicians – if not the first – to delve so deeply into the vast catalog of songs from France's great musical icon (who was Belgian by birth). Both titles feature well-known Gainsbourg tunes, done in English with their French titles placed in italics side by side.

The reason this is important is that Harvey paid close attention to the French lyrics, and with Alan Chamberlain's help in translation, he retains much of their poetry. The songs on the initial volume were marginally more familiar at the time, but nearly all have since become part of his canon. Harvey recorded far more than the 16 tracks that appeared on Intoxicated Man. After its release, he set about finishing tracks from those sessions and recording more Gainsbourg songs for Pink Elephants. Though he played many instruments himself and did all the male lead vocals, he did have some assistance from singer Anita Lane (who suggested the project in the first place), David McClymont, and Chris Hughes as well as some strings in some places. Both recordings are provocative, inventive, and great fun. This double-disc reissue contains two bonus recordings that were never included on Pink Elephants.
Mick Harvey - Intoxicated Man & Pink Elephants (2014) {2CD Set Mute Records CDSTUMM331 rel 1995, 1997}


mute.com INFO

Tracklist

INTOXICATED MAN (CD1)


1-1. 69 Erotic Year (69 Annee Erotique)
English Lyrics – K. Beale, M. Harvey
Vibraphone, String Arrangement – Bertrand Burgalat
Vocals – Anita Lane
Vocals, Piano, Guitar, Bass, Drums – Mick Harvey

1-2. Harley Davidson
Bass – David McClymont
Drums – Chris Hughes
Guitar – Mick Harvey
English Lyrics – M. Harvey
Vocals – Anita Lane

1-3. Intoxicated Man
Bass – David McClymont
Drums – Chris Hughes
English Lyrics – M. Harvey
Organ – James Cruickshank
Piano – Robin Casinader
Vocals, Bongos – Mick Harvey

1-4. The Sun Directly Overhead (Sous le Soleil Exactement)
English Lyrics – A. Chamberlain, M. Harvey
Organ – James Cruickshank
Vibraphone, String Arrangement – Bertrand Burgalat
Vocals, Guitar, Bass, Drums – Mick Harvey

1-5. Sex Shop
String Arrangement – Bertrand Burgalat
English Lyrics – M. Harvey
Vocals, Organ, Bass, Drums – Mick Harvey

1-6. The Barrel Of My 45 (Quand Mon 6.35 me Fait les Yeux Doux)
English Lyrics – A. Chamberlain, M. Harvey
Organ [Solo Organ] – James Cruickshank
Vocals, Instruments – Mick Harvey

1-7. Ford Mustang
String Arrangement – Bertrand Burgalat
Bass – David McClymont
Drums – Chris Hughes
English Lyrics – M. Harvey
Piano – Robin Casinader
Vocals – Anita Lane
Vocals, Organ, Guitar, Tambourine – Mick Harvey

1-8. Overseas Telegram
English Lyrics – M. Harvey, S. Owen
Organ, Bass – Mick Harvey
Piano, String Arrangement – Bertrand Burgalat
Vocals – Anita Lane

1-9. New York USA
Backing Vocals – Loenne Carmen, Monica McMahon
English Lyrics – A. Chamberlain
Vocals, Bass, Percussion – Mick Harvey

1-10. Bonnie & Clyde
String Arrangement – Bertrand Burgalat
English Lyrics – A. Chamberlain, M. Harvey
Violin [Looped Violin] – Warren Ellis
Vocals – Anita Lane
Vocals, Guitar, Bass – Mick Harvey

1-11. Chatterton
Bass – David McClymont
Drums – Chris Hughes
English Lyrics – A. Chamberlain
Organ – James Cruickshank
Vocals, Guitar, Tambourine – Mick Harvey

1-12. The Song Of Slurs (La Chanson de Slogan)
String Arrangement – Bertrand Burgalat
English Lyrics – K. Beale, M. Harvey
Vocals, Guitar, Keyboards, Bass, Drums – Mick Harvey

1-13. Jazz In The Ravine (Du Jazz Dans Le Ravin)
Bass – David McClymont
English Lyrics – A. Chamberlain, M. Harvey
Organ – James Cruickshank
Rhythm Guitar – Hugo Race
Vocals, Piano, Guitar, Drums – Mick Harvey

1-14. I Have Come To Tell You I'm Going (Je Suis Venu Te Dire Que Je m'en Vais)
All Instruments – Mick Harvey
English Lyrics – A. Chamberlain, M. Harvey

1-15. Lemon Incest
English Lyrics – A. Chamberlain, M. Harvey
Vocals, Piano – Mick Harvey

1-16. Initials B. B.
Backing Vocals – Loenne Carmen, Monica McMahon
Bass – David McClymont
Drums – Chris Hughes
English Lyrics – M. Harvey
Piano – Robin Casinader
Vocals, Guitar – Mick Harvey

Mick Harvey - Intoxicated Man & Pink Elephants (2014) {2CD Set Mute Records CDSTUMM331 rel 1995, 1997}


PINK ELEPHANTS (CD2)

2-1. Pink Elephants
String Arrangement – Bertrand Burgalat
Organ, Piano, Bass, Drums – Mick Harvey
Written-By – B. Burgalat, M. Harvey

2-2. Requiem… (Le Requiem Pour un Con)
Vocals, Organ, Bass, Loops – Mick Harvey

2-3. The Javanaise (La Javanaise)
Accordion – Kiernan Box
English Lyrics – Mick Harvey
Vocals, Guitar, Bass, Drums – Mick Harvey

2-4. Black Seaweed (Les Goemons)
All Instruments – Mick Harvey
English Lyrics – Lulu Norman, Mick Harvey, PG Imhof

2-5. Comic Strip
All Instruments – Mick Harvey
English Lyrics – Bill Solly

2-6. The Ticket Puncher Of Lilas (Les Poinconneur des Lilas)
All Instruments – Mick Harvey
English Lyrics – Alain Chamberlain, Mick Harvey

2-7. Non Affair (L'Anamour)
All Instruments – Mick Harvey
English Lyrics – Lulu Norman, Mick Harvey, PG Imhof

2-8. Scenic Railway
All Instruments – Mick Harvey
English Lyrics – Lulu Norman, Mick Harvey, PG Imhof

2-9. To All The Lucky Kids (Aux Enfants de la Chance)
All Instruments – Mick Harvey
English Lyrics – Lulu Norman, Mick Harvey, PG Imhof

2-10. Anthracite
All Instruments – Mick Harvey
English Lyrics – Lulu Norman, Mick Harvey, PG Imhof

2-11. Manon
All Instruments – Mick Harvey
English Lyrics – Mick Harvey

2-12. I Love You … Nor Do I (Je Time … Moi Non Plus)
All Instruments – Mick Harvey
English Lyrics – Mick Harvey
Vocals – Anita Lane, Nick Cave

2-13. The Ballad Of Melody Nelson (Ballade de Melody Nelson)
String Arrangement – Bertrand Burgalat
English Lyrics – Mick Harvey, Sarah Owen
Vocals – Anita Lane
Vocals, Guitar, Bass, Drums – Mick Harvey

2-14. Torrey Canyon
Backing Vocals – Loenne Carmen, Monica McMahon
Bass – David McClymont
English Lyrics – Mick Harvey, Sarah Owen
Vocals, Guitar, Organ, Drums – Mick Harvey

2-15. Who Is "In" Who Is "Out" (Qui est "In", Qui est "Out")
Backing Vocals – Loenne Carmen, Monica McMahon
Bass – David McClymont
Drums – Chris Hughes
English Lyrics – Alain Chamberlain, Mick Harvey
Organ – James Cruickshank
Vocals, Guitar, Organ – Mick Harvey

2-16. Hotel Specific (Hotel Particulier)
String Arrangement – Bertrand Burgalat
Bass – David McClymont
Drums – Chris Hughes
English Lyrics – Alain Chamberlain, Katy Beale, Mick Harvey
Vocals, Guitar, Piano – Mick Harvey

2-17. Dr. Jeckyll
All instruments – Mick Harvey
English Lyrics – Mick Harvey

2-18. Run From Happiness (Fuir Le Bonheur De Peur Qu'il Ne Se Sauve)
String Arrangement – Bertrand Burgalat
English Lyrics – Mick Harvey, Sarah Owen
Vocals – Anita Lane
Vocals, Guitar, Bass, Drums – Mick Harvey

Mick Harvey - Intoxicated Man & Pink Elephants (2014) {2CD Set Mute Records CDSTUMM331 rel 1995, 1997}


Exact Audio Copy V1.0 beta 3 from 29. August 2011

EAC extraction logfile from 1. April 2015, 13:56

Mick Harvey / Serge Gainsbourg Remastered - Intoxicated Man

Used drive : TSSTcorpCDDVDW SH-222BB Adapter: 2 ID: 0

Read mode : Secure
Utilize accurate stream : Yes
Defeat audio cache : Yes
Make use of C2 pointers : No

Read offset correction : 6
Overread into Lead-In and Lead-Out : No
Fill up missing offset samples with silence : Yes
Delete leading and trailing silent blocks : No
Null samples used in CRC calculations : Yes
Used interface : Native Win32 interface for Win NT & 2000
Gap handling : Appended to previous track

Used output format : User Defined Encoder
Selected bitrate : 128 kBit/s
Quality : High
Add ID3 tag : No
Command line compressor : C:\Program Files\Exact Audio Copy\Flac\flac.exe
Additional command line options : -8 -V -T "ARTIST=%artist%" -T "TITLE=%title%" -T "ALBUM=%albumtitle%" -T "DATE=%year%" -T "TRACKNUMBER=%tracknr%" -T "TOTALTRACKS=%numtracks%" -T "GENRE=%genre%" -T "ALBUMARTIST=%albumartist%" -T "ALBUM ARTIST=%albumartist%" -T "COMMENT=EAC Secure Mode, Test & Copy, AccurateRip, FLAC -8" %source%


TOC of the extracted CD

Track | Start | Length | Start sector | End sector
––––––––––––––––––––––––––––-
1 | 0:00.00 | 3:25.25 | 0 | 15399
2 | 3:25.25 | 2:44.15 | 15400 | 27714
3 | 6:09.40 | 2:36.52 | 27715 | 39466
4 | 8:46.17 | 2:53.63 | 39467 | 52504
5 | 11:40.05 | 3:18.32 | 52505 | 67386
6 | 14:58.37 | 2:11.45 | 67387 | 77256
7 | 17:10.07 | 2:17.38 | 77257 | 87569
8 | 19:27.45 | 3:43.55 | 87570 | 104349
9 | 23:11.25 | 2:22.55 | 104350 | 115054
10 | 25:34.05 | 3:57.50 | 115055 | 132879
11 | 29:31.55 | 2:02.27 | 132880 | 142056
12 | 31:34.07 | 2:38.58 | 142057 | 153964
13 | 34:12.65 | 2:00.05 | 153965 | 162969
14 | 36:12.70 | 2:53.57 | 162970 | 176001
15 | 39:06.52 | 1:51.30 | 176002 | 184356
16 | 40:58.07 | 3:48.33 | 184357 | 201489


Track 1

Filename C:\Vl\Mick Harvey ‎– Intoxicated Man + Pink Elephants (2014) [FLAC] {Mute Records ‎– CDSTUMM331, 2xCD Compilation}\CD1\01 - 69 Erotic Year.wav

Pre-gap length 0:00:02.00

Peak level 92.2 %
Extraction speed 1.7 X
Track quality 100.0 %
Test CRC 8FF3F566
Copy CRC 8FF3F566
Accurately ripped (confidence 4) [AEC1144B] (AR v2)
Copy OK

Track 2

Filename C:\Vl\Mick Harvey ‎– Intoxicated Man + Pink Elephants (2014) [FLAC] {Mute Records ‎– CDSTUMM331, 2xCD Compilation}\CD1\02 - Harley Davidson.wav

Peak level 90.8 %
Extraction speed 1.8 X
Track quality 100.0 %
Test CRC 5B76DB0E
Copy CRC 5B76DB0E
Accurately ripped (confidence 4) [66A49479] (AR v2)
Copy OK

Track 3

Filename C:\Vl\Mick Harvey ‎– Intoxicated Man + Pink Elephants (2014) [FLAC] {Mute Records ‎– CDSTUMM331, 2xCD Compilation}\CD1\03 - Intoxicated Man.wav

Peak level 90.8 %
Extraction speed 1.5 X
Track quality 99.9 %
Test CRC A5EDE24A
Copy CRC A5EDE24A
Accurately ripped (confidence 4) [13FF844F] (AR v2)
Copy OK

Track 4

Filename C:\Vl\Mick Harvey ‎– Intoxicated Man + Pink Elephants (2014) [FLAC] {Mute Records ‎– CDSTUMM331, 2xCD Compilation}\CD1\04 - The Sun Directly Overheard.wav

Peak level 92.2 %
Extraction speed 2.0 X
Track quality 100.0 %
Test CRC 378B95F3
Copy CRC 378B95F3
Accurately ripped (confidence 4) [AE5A80E9] (AR v2)
Copy OK

Track 5

Filename C:\Vl\Mick Harvey ‎– Intoxicated Man + Pink Elephants (2014) [FLAC] {Mute Records ‎– CDSTUMM331, 2xCD Compilation}\CD1\05 - Sex Shop.wav

Peak level 92.2 %
Extraction speed 2.2 X
Track quality 100.0 %
Test CRC 0107E06E
Copy CRC 0107E06E
Accurately ripped (confidence 4) [B677FC80] (AR v2)
Copy OK

Track 6

Filename C:\Vl\Mick Harvey ‎– Intoxicated Man + Pink Elephants (2014) [FLAC] {Mute Records ‎– CDSTUMM331, 2xCD Compilation}\CD1\06 - The Barrel Of My 45.wav

Peak level 91.3 %
Extraction speed 2.1 X
Track quality 100.0 %
Test CRC A3DD4B98
Copy CRC A3DD4B98
Accurately ripped (confidence 4) [F0A71394] (AR v2)
Copy OK

Track 7

Filename C:\Vl\Mick Harvey ‎– Intoxicated Man + Pink Elephants (2014) [FLAC] {Mute Records ‎– CDSTUMM331, 2xCD Compilation}\CD1\07 - Ford Mustang.wav

Peak level 90.3 %
Extraction speed 2.2 X
Track quality 100.0 %
Test CRC 94503D6D
Copy CRC 94503D6D
Accurately ripped (confidence 4) [533C1FF4] (AR v2)
Copy OK

Track 8

Filename C:\Vl\Mick Harvey ‎– Intoxicated Man + Pink Elephants (2014) [FLAC] {Mute Records ‎– CDSTUMM331, 2xCD Compilation}\CD1\08 - Overseas Telegram.wav

Peak level 86.5 %
Extraction speed 2.0 X
Track quality 99.9 %
Test CRC 949CCE9B
Copy CRC 949CCE9B
Accurately ripped (confidence 4) [342C5213] (AR v2)
Copy OK

Track 9

Filename C:\Vl\Mick Harvey ‎– Intoxicated Man + Pink Elephants (2014) [FLAC] {Mute Records ‎– CDSTUMM331, 2xCD Compilation}\CD1\09 - New York USA.wav

Peak level 85.6 %
Extraction speed 1.8 X
Track quality 99.9 %
Test CRC 9DB8EFC0
Copy CRC 9DB8EFC0
Accurately ripped (confidence 4) [73E2DC02] (AR v2)
Copy OK

Track 10

Filename C:\Vl\Mick Harvey ‎– Intoxicated Man + Pink Elephants (2014) [FLAC] {Mute Records ‎– CDSTUMM331, 2xCD Compilation}\CD1\10 - Bonnie And Clyde.wav

Peak level 92.2 %
Extraction speed 2.7 X
Track quality 100.0 %
Test CRC 6CA98E7D
Copy CRC 6CA98E7D
Accurately ripped (confidence 4) [0A2D8277] (AR v2)
Copy OK

Track 11

Filename C:\Vl\Mick Harvey ‎– Intoxicated Man + Pink Elephants (2014) [FLAC] {Mute Records ‎– CDSTUMM331, 2xCD Compilation}\CD1\11 - Chatterton.wav

Peak level 92.2 %
Extraction speed 2.5 X
Track quality 100.0 %
Test CRC E102DAEB
Copy CRC E102DAEB
Accurately ripped (confidence 4) [9CA05160] (AR v2)
Copy OK

Track 12

Filename C:\Vl\Mick Harvey ‎– Intoxicated Man + Pink Elephants (2014) [FLAC] {Mute Records ‎– CDSTUMM331, 2xCD Compilation}\CD1\12 - Song Of Slurs.wav

Peak level 92.0 %
Extraction speed 2.7 X
Track quality 100.0 %
Test CRC E5D61296
Copy CRC E5D61296
Accurately ripped (confidence 4) [1D87CEC5] (AR v2)
Copy OK

Track 13

Filename C:\Vl\Mick Harvey ‎– Intoxicated Man + Pink Elephants (2014) [FLAC] {Mute Records ‎– CDSTUMM331, 2xCD Compilation}\CD1\13 - Jazz In The Ravine.wav

Peak level 86.8 %
Extraction speed 2.5 X
Track quality 100.0 %
Test CRC 342DA0B6
Copy CRC 342DA0B6
Accurately ripped (confidence 4) [8C8F7EDA] (AR v2)
Copy OK

Track 14

Filename C:\Vl\Mick Harvey ‎– Intoxicated Man + Pink Elephants (2014) [FLAC] {Mute Records ‎– CDSTUMM331, 2xCD Compilation}\CD1\14 - I Have Come To Tell You I'm Going.wav

Peak level 92.2 %
Extraction speed 2.8 X
Track quality 100.0 %
Test CRC 6BAABFBE
Copy CRC 6BAABFBE
Accurately ripped (confidence 4) [E0B52065] (AR v2)
Copy OK

Track 15

Filename C:\Vl\Mick Harvey ‎– Intoxicated Man + Pink Elephants (2014) [FLAC] {Mute Records ‎– CDSTUMM331, 2xCD Compilation}\CD1\15 - Lemon Incest.wav

Peak level 91.9 %
Extraction speed 2.6 X
Track quality 100.0 %
Test CRC 061536A6
Copy CRC 061536A6
Accurately ripped (confidence 4) [71490BA4] (AR v2)
Copy OK

Track 16

Filename C:\Vl\Mick Harvey ‎– Intoxicated Man + Pink Elephants (2014) [FLAC] {Mute Records ‎– CDSTUMM331, 2xCD Compilation}\CD1\16 - Initials BB.wav

Peak level 92.1 %
Extraction speed 2.4 X
Track quality 99.9 %
Test CRC EA8FE010
Copy CRC EA8FE010
Accurately ripped (confidence 4) [D467CFF4] (AR v2)
Copy OK


All tracks accurately ripped

No errors occurred

End of status report

==== Log checksum 00333342623F9FE464B31F10BE247E30E8F42319F5ACCC2325B470EDA13EE7AC ====
Exact Audio Copy V1.0 beta 3 from 29. August 2011

EAC extraction logfile from 1. April 2015, 17:01

Mick Harvey / Serg Gainsbourg Remastered - Pink Elephants

Used drive : TSSTcorpCDDVDW SH-222BB Adapter: 2 ID: 0

Read mode : Secure
Utilize accurate stream : Yes
Defeat audio cache : Yes
Make use of C2 pointers : No

Read offset correction : 6
Overread into Lead-In and Lead-Out : No
Fill up missing offset samples with silence : Yes
Delete leading and trailing silent blocks : No
Null samples used in CRC calculations : Yes
Used interface : Native Win32 interface for Win NT & 2000
Gap handling : Appended to previous track

Used output format : User Defined Encoder
Selected bitrate : 128 kBit/s
Quality : High
Add ID3 tag : No
Command line compressor : C:\Program Files\Exact Audio Copy\Flac\flac.exe
Additional command line options : -8 -V -T "ARTIST=%artist%" -T "TITLE=%title%" -T "ALBUM=%albumtitle%" -T "DATE=%year%" -T "TRACKNUMBER=%tracknr%" -T "TOTALTRACKS=%numtracks%" -T "GENRE=%genre%" -T "ALBUMARTIST=%albumartist%" -T "ALBUM ARTIST=%albumartist%" -T "COMMENT=EAC Secure Mode, Test & Copy, AccurateRip, FLAC -8" %source%


TOC of the extracted CD

Track | Start | Length | Start sector | End sector
––––––––––––––––––––––––––––-
1 | 0:00.00 | 2:35.71 | 0 | 11695
2 | 2:35.71 | 2:35.34 | 11696 | 23354
3 | 5:11.30 | 2:30.50 | 23355 | 34654
4 | 7:42.05 | 2:21.13 | 34655 | 45242
5 | 10:03.18 | 2:41.64 | 45243 | 57381
6 | 12:45.07 | 2:51.27 | 57382 | 70233
7 | 15:36.34 | 2:30.10 | 70234 | 81493
8 | 18:06.44 | 2:52.55 | 81494 | 94448
9 | 20:59.24 | 3:53.00 | 94449 | 111923
10 | 24:52.24 | 2:55.52 | 111924 | 125100
11 | 27:48.01 | 2:20.17 | 125101 | 135617
12 | 30:08.18 | 4:37.73 | 135618 | 156465
13 | 34:46.16 | 1:56.14 | 156466 | 165179
14 | 36:42.30 | 3:12.60 | 165180 | 179639
15 | 39:55.15 | 3:14.06 | 179640 | 194195
16 | 43:09.21 | 3:43.28 | 194196 | 210948
17 | 46:52.49 | 2:28.34 | 210949 | 222082
18 | 49:21.08 | 3:05.04 | 222083 | 235961


Track 1

Filename C:\Vl\Mick Harvey ‎– Intoxicated Man + Pink Elephants (2014) [FLAC] {Mute Records ‎– CDSTUMM331, 2xCD Compilation}\CD2\01 - Pink Elephants.wav

Pre-gap length 0:00:02.00

Peak level 98.9 %
Extraction speed 1.6 X
Track quality 100.0 %
Test CRC 27287D1A
Copy CRC 27287D1A
Accurately ripped (confidence 4) [9770399A] (AR v2)
Copy OK

Track 2

Filename C:\Vl\Mick Harvey ‎– Intoxicated Man + Pink Elephants (2014) [FLAC] {Mute Records ‎– CDSTUMM331, 2xCD Compilation}\CD2\02 - Requiem.wav

Peak level 94.4 %
Extraction speed 1.7 X
Track quality 100.0 %
Test CRC 1468A41F
Copy CRC 1468A41F
Accurately ripped (confidence 4) [3290AB7E] (AR v2)
Copy OK

Track 3

Filename C:\Vl\Mick Harvey ‎– Intoxicated Man + Pink Elephants (2014) [FLAC] {Mute Records ‎– CDSTUMM331, 2xCD Compilation}\CD2\03 - The Javanaise.wav

Peak level 94.4 %
Extraction speed 1.8 X
Track quality 100.0 %
Test CRC 92919E82
Copy CRC 92919E82
Accurately ripped (confidence 4) [1ACBE4A2] (AR v2)
Copy OK

Track 4

Filename C:\Vl\Mick Harvey ‎– Intoxicated Man + Pink Elephants (2014) [FLAC] {Mute Records ‎– CDSTUMM331, 2xCD Compilation}\CD2\04 - Black Seaweed.wav

Peak level 98.9 %
Extraction speed 1.9 X
Track quality 100.0 %
Test CRC FC4A8EE8
Copy CRC FC4A8EE8
Accurately ripped (confidence 4) [48BE8E5D] (AR v2)
Copy OK

Track 5

Filename C:\Vl\Mick Harvey ‎– Intoxicated Man + Pink Elephants (2014) [FLAC] {Mute Records ‎– CDSTUMM331, 2xCD Compilation}\CD2\05 - Comic Strip.wav

Peak level 94.4 %
Extraction speed 2.0 X
Track quality 100.0 %
Test CRC 85F22DAC
Copy CRC 85F22DAC
Accurately ripped (confidence 4) [A6C7DBD0] (AR v2)
Copy OK

Track 6

Filename C:\Vl\Mick Harvey ‎– Intoxicated Man + Pink Elephants (2014) [FLAC] {Mute Records ‎– CDSTUMM331, 2xCD Compilation}\CD2\06 - The Ticket Puncher.wav

Peak level 94.4 %
Extraction speed 2.2 X
Track quality 100.0 %
Test CRC 5957AE3F
Copy CRC 5957AE3F
Accurately ripped (confidence 4) [5ADE5B8F] (AR v2)
Copy OK

Track 7

Filename C:\Vl\Mick Harvey ‎– Intoxicated Man + Pink Elephants (2014) [FLAC] {Mute Records ‎– CDSTUMM331, 2xCD Compilation}\CD2\07 - Non Affair.wav

Peak level 94.4 %
Extraction speed 2.2 X
Track quality 100.0 %
Test CRC ECECCBB0
Copy CRC ECECCBB0
Accurately ripped (confidence 4) [31FEE4EC] (AR v2)
Copy OK

Track 8

Filename C:\Vl\Mick Harvey ‎– Intoxicated Man + Pink Elephants (2014) [FLAC] {Mute Records ‎– CDSTUMM331, 2xCD Compilation}\CD2\08 - Scenic Railway.wav

Peak level 94.4 %
Extraction speed 2.4 X
Track quality 100.0 %
Test CRC F0052AF5
Copy CRC F0052AF5
Accurately ripped (confidence 4) [33220394] (AR v2)
Copy OK

Track 9

Filename C:\Vl\Mick Harvey ‎– Intoxicated Man + Pink Elephants (2014) [FLAC] {Mute Records ‎– CDSTUMM331, 2xCD Compilation}\CD2\09 - To All The Lucky Kids.wav

Peak level 95.8 %
Extraction speed 2.6 X
Track quality 100.0 %
Test CRC 3C10341C
Copy CRC 3C10341C
Accurately ripped (confidence 4) [036F9E35] (AR v2)
Copy OK

Track 10

Filename C:\Vl\Mick Harvey ‎– Intoxicated Man + Pink Elephants (2014) [FLAC] {Mute Records ‎– CDSTUMM331, 2xCD Compilation}\CD2\10 - Anthracite.wav

Peak level 94.4 %
Extraction speed 2.6 X
Track quality 100.0 %
Test CRC 1C0F2BB3
Copy CRC 1C0F2BB3
Accurately ripped (confidence 4) [987E47F3] (AR v2)
Copy OK

Track 11

Filename C:\Vl\Mick Harvey ‎– Intoxicated Man + Pink Elephants (2014) [FLAC] {Mute Records ‎– CDSTUMM331, 2xCD Compilation}\CD2\11 - Manon.wav

Peak level 98.9 %
Extraction speed 2.5 X
Track quality 100.0 %
Test CRC BBEC5394
Copy CRC BBEC5394
Accurately ripped (confidence 4) [544BB080] (AR v2)
Copy OK

Track 12

Filename C:\Vl\Mick Harvey ‎– Intoxicated Man + Pink Elephants (2014) [FLAC] {Mute Records ‎– CDSTUMM331, 2xCD Compilation}\CD2\12 - I Love You Nor Do I.wav

Peak level 96.8 %
Extraction speed 3.0 X
Track quality 100.0 %
Test CRC 33965641
Copy CRC 33965641
Accurately ripped (confidence 4) [31029C5C] (AR v2)
Copy OK

Track 13

Filename C:\Vl\Mick Harvey ‎– Intoxicated Man + Pink Elephants (2014) [FLAC] {Mute Records ‎– CDSTUMM331, 2xCD Compilation}\CD2\13 - The Ballad Of Melody Nelson.wav

Peak level 98.1 %
Extraction speed 1.7 X
Track quality 99.9 %
Test CRC 82350969
Copy CRC 82350969
Accurately ripped (confidence 4) [504B56A8] (AR v2)
Copy OK

Track 14

Filename C:\Vl\Mick Harvey ‎– Intoxicated Man + Pink Elephants (2014) [FLAC] {Mute Records ‎– CDSTUMM331, 2xCD Compilation}\CD2\14 - Torrey Canyon.wav

Peak level 92.7 %
Extraction speed 3.0 X
Track quality 100.0 %
Test CRC 7756F7B9
Copy CRC 7756F7B9
Accurately ripped (confidence 4) [A74E56B3] (AR v2)
Copy OK

Track 15

Filename C:\Vl\Mick Harvey ‎– Intoxicated Man + Pink Elephants (2014) [FLAC] {Mute Records ‎– CDSTUMM331, 2xCD Compilation}\CD2\15 - Who Is 'In' Who Is 'Out'.wav

Peak level 95.8 %
Extraction speed 3.0 X
Track quality 100.0 %
Test CRC C10A9517
Copy CRC C10A9517
Accurately ripped (confidence 4) [F986F872] (AR v2)
Copy OK

Track 16

Filename C:\Vl\Mick Harvey ‎– Intoxicated Man + Pink Elephants (2014) [FLAC] {Mute Records ‎– CDSTUMM331, 2xCD Compilation}\CD2\16 - Hotel Specific.wav

Peak level 98.4 %
Extraction speed 3.2 X
Track quality 100.0 %
Test CRC ED315E4D
Copy CRC ED315E4D
Accurately ripped (confidence 4) [126627B0] (AR v2)
Copy OK

Track 17

Filename C:\Vl\Mick Harvey ‎– Intoxicated Man + Pink Elephants (2014) [FLAC] {Mute Records ‎– CDSTUMM331, 2xCD Compilation}\CD2\17 - Dr. Jeckyl.wav

Peak level 100.0 %
Extraction speed 3.0 X
Track quality 100.0 %
Test CRC 4D01AC57
Copy CRC 4D01AC57
Accurately ripped (confidence 4) [235F0B9E] (AR v2)
Copy OK

Track 18

Filename C:\Vl\Mick Harvey ‎– Intoxicated Man + Pink Elephants (2014) [FLAC] {Mute Records ‎– CDSTUMM331, 2xCD Compilation}\CD2\18 - Run From Happiness.wav

Peak level 100.0 %
Extraction speed 3.3 X
Track quality 100.0 %
Test CRC 667982E5
Copy CRC 667982E5
Accurately ripped (confidence 4) [EDC1A78A] (AR v2)
Copy OK


All tracks accurately ripped

No errors occurred

End of status report

==== Log checksum 90EB0AFC6B9140F0C7EDB683ED61D0B42E5695792A52CC67CC727CE39D43455E ====


Mick Harvey - Intoxicated Man & Pink Elephants (2014) {2CD Set Mute Records CDSTUMM331 rel 1995, 1997}



===