Subcategories

Midnight Oil - Bird Noises EP (1980) [CBS650770 2]

Posted By: Down_Under
Midnight Oil - Bird Noises EP (1980) [CBS650770 2]

Midnight Oil - Bird Noises EP (1980) [CBS650770 2]
EAC/WAV/CUE/LOG | Lossless RAR 103 MB | EAC V 0.99 prebeta 4
Rock/ Alternative Rock

Bird Noises is an EP by Midnight Oil that was released in 1980 ( between the 'Head Injuries' and the 'Place Without A Postcard' albums ), under Midnight Oil's 'Sprint Music' independent label, and manufactured & distributed by the CBS record label. One of its four tracks was the surf-instrumental "Wedding Cake Island".


Rapidshare







Tracklisting:

1. No Time For Games (4:30)
2. Knife's Edge (3:40)
3. Wedding Cake Island (3:15)
4. I'm The Cure (3:50)





Exact Audio Copy V0.99 prebeta 4 from 23. January 2008

EAC extraction logfile from 19. February 2008, 23:08

Midnight Oil / Bird Noises

Used drive : MATSHITADVD-RAM UJ-852S Adapter: 0 ID: 0

Read mode : Secure
Utilize accurate stream : Yes
Defeat audio cache : No
Make use of C2 pointers : No

Read offset correction : 102
Overread into Lead-In and Lead-Out : No
Fill up missing offset samples with silence : Yes
Delete leading and trailing silent blocks : No
Null samples used in CRC calculations : No
Used interface : Native Win32 interface for Win NT & 2000

Used output format : Internal WAV Routines
Sample format : 44.100 Hz; 16 Bit; Stereo


TOC of the extracted CD

Track | Start | Length | Start sector | End sector
––––––––––––––––––––––––––––-
1 | 0:00.00 | 4:37.07 | 0 | 20781
2 | 4:37.07 | 3:35.10 | 20782 | 36916
3 | 8:12.17 | 3:14.60 | 36917 | 51526
4 | 11:27.02 | 3:52.18 | 51527 | 68944


Range status and errors

Selected range

Filename C:\Documents and Settings\User\My Documents\Lossless Music Projects\Midnight Oil - Bird Noises EP [Lossless]\Midnight Oil - Bird Noises [Lossless].wav

Peak level 99.9 %
Range quality 100.0 %
Copy CRC 47E4C215
Copy OK

No errors occurred


AccurateRip summary

Track 1 not present in database
Track 2 not present in database
Track 3 not present in database
Track 4 not present in database

None of the tracks are present in the AccurateRip database

End of status report