Subcategories

Midnight Oil - Place Without A Postcard (1981) [CBS467392 2]

Posted By: Down_Under
Midnight Oil - Place Without A Postcard (1981) [CBS467392 2]

Midnight Oil - Place Without A Postcard (1981) [CBS467392 2]
EAC/WAV/CUE/LOG | Lossless RAR 278 MB | EAC V 0.99 prebeta 4
Rock/ Alternative Rock

Place Without A Postcard is the third album by Midnight Oil, and was released in 1981 under the Columbia Records label. It gave the well-played singles - 'Don't Wanna Be The One', 'Brave Faces', and 'Armistice Day'.


Rapidshare










Track listing:

1. Don't Wanna Be the One (3:03)
2. Brave Faces (4:47)
3. Armistice Day (4:27)
4. Someone Else to Blame (2:48)
5. Basement Flat (4:33)
6. Written in the Heart (3:14)
7. Burnie (4:44)
8. Quinella Holiday (2:34)
9. Loves on Sale (2:22)
10. If Ned Kelly Was King (3:39)
11. Lucky Country (4:48)





Exact Audio Copy V0.99 prebeta 4 from 23. January 2008

EAC extraction logfile from 17. February 2008, 19:30

Midnight Oil / Place Without a Postcard

Used drive : MATSHITADVD-RAM UJ-852S Adapter: 0 ID: 0

Read mode : Secure
Utilize accurate stream : Yes
Defeat audio cache : No
Make use of C2 pointers : No

Read offset correction : 102
Overread into Lead-In and Lead-Out : No
Fill up missing offset samples with silence : Yes
Delete leading and trailing silent blocks : No
Null samples used in CRC calculations : No
Used interface : Native Win32 interface for Win NT & 2000

Used output format : Internal WAV Routines
Sample format : 44.100 Hz; 16 Bit; Stereo


TOC of the extracted CD

Track | Start | Length | Start sector | End sector
––––––––––––––––––––––––––––-
1 | 0:00.00 | 3:03.27 | 0 | 13751
2 | 3:03.27 | 4:47.58 | 13752 | 35334
3 | 7:51.10 | 4:26.65 | 35335 | 55349
4 | 12:18.00 | 2:48.35 | 55350 | 67984
5 | 15:06.35 | 4:33.40 | 67985 | 88499
6 | 19:40.00 | 3:14.22 | 88500 | 103071
7 | 22:54.22 | 4:43.70 | 103072 | 124366
8 | 27:38.17 | 2:34.45 | 124367 | 135961
9 | 30:12.62 | 2:21.60 | 135962 | 146596
10 | 32:34.47 | 3:38.45 | 146597 | 162991
11 | 36:13.17 | 4:48.25 | 162992 | 184616


Range status and errors

Selected range

Filename C:\Documents and Settings\User\My Documents\Lossless Music Projects\Midnight Oil - Place Without A Postcard [Lossless]\Midnight Oil - Place Without a Postcard [Lossless].wav

Peak level 100.0 %
Range quality 100.0 %
Copy CRC DD173764
Copy OK

No errors occurred


AccurateRip summary

Track 1 accurately ripped (confidence 6) [6F11613B]
Track 2 accurately ripped (confidence 6) [AEDFAEB3]
Track 3 accurately ripped (confidence 6) [5433D440]
Track 4 accurately ripped (confidence 6) [F9C3C2E4]
Track 5 accurately ripped (confidence 6) [FCA421AD]
Track 6 accurately ripped (confidence 5) [35DC00CC]
Track 7 accurately ripped (confidence 6) [5EDC2BDE]
Track 8 accurately ripped (confidence 6) [83B2899D]
Track 9 accurately ripped (confidence 6) [D4C5CE40]
Track 10 accurately ripped (confidence 6) [AD680FA2]
Track 11 accurately ripped (confidence 6) [94DD3278]

All tracks accurately ripped

End of status report