Subcategories

Midori Takada & Masahiko Satoh - Lunar Cruise (1990/2017)

Posted By: Domestos
Midori Takada & Masahiko Satoh - Lunar Cruise (1990/2017)

Midori Takada & Masahiko Satoh - Lunar Cruise (1990/2017)
EAC Rip | FLAC (tracks+.cue, log) ~ 258.75 Mb + 21.23 Mb (Scans) | 53:05
Experimental, Free Improvisation | Label: We Release Whatever The Fuck We Want Records (WRWTFWW020)

Following the successful reissue of Midori Takada’s Through The Looking Glass, WRWTFWW Records is delighted to announce another release from the legendary Japanese percussionist: 1990’s LUNAR CRUISE, her superb collaboration with jazz pianist, synth master, composer and arranger Masahiko Satoh. Arguably the best kept secret in Midori Takada’s fascinating discography, LUNAR CRUISE is an under the radar masterpiece that captures Takada (on marimba and minimal percussion set-up) and Satoh (on Korg M1 and Yamaha DX7II synths, Ensoniq EPS sampler, and acoustic piano) vibrantly fusing traditional African and Asian percussion with jazz, ambient, and minimalism. The album also features the great Haruomi Hosono (Yellow Magic Orchestra, Happy End…) and Kazutoki Umezu.

Points of interests
For fans of ambient, jazz, electronic, traditional Asian and African music, minimalism, Midori Takada’s Through The Looking Glass, Haruomi Hosono, percussion, Japan, experimental.
Featuring Yellow Magic Orchestra’s Haruomi Hosono (bass) and Kazutoki Umezu (saxophone, clarinet).

Midori Takada - marimba, iron, glasses, woods, gongs, bells, drums, chain
Masahiko Satoh - Korg M-1, Yamaha DX7-II, Ensoniq EPS, acoustic piano
Haruomi Hosono - bass (#4,8)
Kazutoki Umezu - soprano saxophone, bass clarinet (#4,8)

Track List:
01. Iron Paradise (Takada) - 5:07
02. Nahm (Satoh) - 4:21
03. Ancient Palace (Takada) - 5:05
04. A Vanished Illusion (Takada) - 5:20
05. Jyomuran (Takada) - 2:54
06. Monody (Takada) - 5:15
07. In "D" (Takada) - 4:58
08. Madorone (Hosono-Takada-Satoh-Umezu) - 3:47
09. Chang-Dra (Takada) - 10:44
10. Lunar Cruise (Takada) - 5:34

Midori Takada & Masahiko Satoh - Lunar Cruise (1990/2017)

Exact Audio Copy V1.3 from 2. September 2016

EAC extraction logfile from 19. September 2017, 13:06

Lunar Cruise / Midori Takada (高田みどり) & Masahiko Satoh (佐藤允彦)

Used drive : HL-DT-STDVDRAM GTA0N Adapter: 1 ID: 1

Read mode : Secure
Utilize accurate stream : Yes
Defeat audio cache : Yes
Make use of C2 pointers : No

Read offset correction : 102
Overread into Lead-In and Lead-Out : No
Fill up missing offset samples with silence : Yes
Delete leading and trailing silent blocks : No
Null samples used in CRC calculations : Yes
Used interface : Native Win32 interface for Win NT & 2000
Gap handling : Appended to previous track

Used output format : User Defined Encoder
Selected bitrate : 1024 kBit/s
Quality : High
Add ID3 tag : No
Command line compressor : C:\Program Files (x86)\Exact Audio Copy\FLAC\FLAC.EXE
Additional command line options : -8 -e -p -V -T "ARTIST=%artist%" -T "TITLE=%title%" -T "ALBUM=%albumtitle%" -T "DATE=%year%" -T "TRACKNUMBER=%tracknr%" -T "GENRE=%genre%" -T "PERFORMER=%albuminterpret%" -T "COMPOSER=%composer%" %haslyrics%–tag-from-file=LYRICS="%lyricsfile%"%haslyrics% -T "ALBUMARTIST=%albumartist%" -T "DISCNUMBER=%cdnumber%" -T "TOTALDISCS=%totalcds%" -T "TOTALTRACKS=%numtracks%" -T "COMMENT=%comment%" %source% -o %dest%

TOC of the extracted CD

Track | Start | Length | Start sector | End sector
––––––––––––––––––––––––––––-
1 | 0:00.00 | 5:07.03 | 0 | 23027
2 | 5:07.03 | 4:21.36 | 23028 | 42638
3 | 9:28.39 | 5:05.00 | 42639 | 65513
4 | 14:33.39 | 5:20.00 | 65514 | 89513
5 | 19:53.39 | 2:54.33 | 89514 | 102596
6 | 22:47.72 | 5:14.38 | 102597 | 126184
7 | 28:02.35 | 4:57.46 | 126185 | 148505
8 | 33:00.06 | 3:47.30 | 148506 | 165560
9 | 36:47.36 | 10:43.45 | 165561 | 213830
10 | 47:31.06 | 5:34.06 | 213831 | 238886

Track 1

Filename C:\EAC Rips\Midori Takada (高田みどり) & Masahiko Satoh (佐藤允彦) - (1990) Lunar Cruise {2017 WRWTWW020CD} [FLAC]\01 - Iron Paradise.wav

Pre-gap length 0:00:02.00

Peak level 81.8 %
Extraction speed 2.8 X
Track quality 100.0 %
Test CRC 1AAA74F5
Copy CRC 1AAA74F5
Track not present in AccurateRip database
Copy OK

Track 2

Filename C:\EAC Rips\Midori Takada (高田みどり) & Masahiko Satoh (佐藤允彦) - (1990) Lunar Cruise {2017 WRWTWW020CD} [FLAC]\02 - Nahm.wav

Peak level 60.7 %
Extraction speed 3.1 X
Track quality 100.0 %
Test CRC D4B16F5E
Copy CRC D4B16F5E
Track not present in AccurateRip database
Copy OK

Track 3

Filename C:\EAC Rips\Midori Takada (高田みどり) & Masahiko Satoh (佐藤允彦) - (1990) Lunar Cruise {2017 WRWTWW020CD} [FLAC]\03 - Ancient Palace.wav

Peak level 56.6 %
Extraction speed 3.4 X
Track quality 100.0 %
Test CRC C29319CD
Copy CRC C29319CD
Track not present in AccurateRip database
Copy OK

Track 4

Filename C:\EAC Rips\Midori Takada (高田みどり) & Masahiko Satoh (佐藤允彦) - (1990) Lunar Cruise {2017 WRWTWW020CD} [FLAC]\04 - A Vanished Illusion.wav

Peak level 78.8 %
Extraction speed 3.3 X
Track quality 99.9 %
Test CRC 0B96F428
Copy CRC 0B96F428
Track not present in AccurateRip database
Copy OK

Track 5

Filename C:\EAC Rips\Midori Takada (高田みどり) & Masahiko Satoh (佐藤允彦) - (1990) Lunar Cruise {2017 WRWTWW020CD} [FLAC]\05 - Jyomuran.wav

Peak level 75.6 %
Extraction speed 3.7 X
Track quality 100.0 %
Test CRC 405FF246
Copy CRC 405FF246
Track not present in AccurateRip database
Copy OK

Track 6

Filename C:\EAC Rips\Midori Takada (高田みどり) & Masahiko Satoh (佐藤允彦) - (1990) Lunar Cruise {2017 WRWTWW020CD} [FLAC]\06 - Monody.wav

Peak level 51.1 %
Extraction speed 4.2 X
Track quality 100.0 %
Test CRC EA1A369D
Copy CRC EA1A369D
Track not present in AccurateRip database
Copy OK

Track 7

Filename C:\EAC Rips\Midori Takada (高田みどり) & Masahiko Satoh (佐藤允彦) - (1990) Lunar Cruise {2017 WRWTWW020CD} [FLAC]\07 - In ''D''.wav

Peak level 61.0 %
Extraction speed 4.5 X
Track quality 100.0 %
Test CRC 2CDAC618
Copy CRC 2CDAC618
Track not present in AccurateRip database
Copy OK

Track 8

Filename C:\EAC Rips\Midori Takada (高田みどり) & Masahiko Satoh (佐藤允彦) - (1990) Lunar Cruise {2017 WRWTWW020CD} [FLAC]\08 - Madorone.wav

Peak level 42.6 %
Extraction speed 3.6 X
Track quality 99.9 %
Test CRC 68A20099
Copy CRC 68A20099
Track not present in AccurateRip database
Copy OK

Track 9

Filename C:\EAC Rips\Midori Takada (高田みどり) & Masahiko Satoh (佐藤允彦) - (1990) Lunar Cruise {2017 WRWTWW020CD} [FLAC]\09 - Chang-Dra.wav

Peak level 84.8 %
Extraction speed 5.0 X
Track quality 100.0 %
Test CRC 36DAE3E2
Copy CRC 36DAE3E2
Track not present in AccurateRip database
Copy OK

Track 10

Filename C:\EAC Rips\Midori Takada (高田みどり) & Masahiko Satoh (佐藤允彦) - (1990) Lunar Cruise {2017 WRWTWW020CD} [FLAC]\10 - Lunar Cruise.wav

Peak level 62.8 %
Extraction speed 5.0 X
Track quality 100.0 %
Test CRC C37A9EF5
Copy CRC C37A9EF5
Track not present in AccurateRip database
Copy OK

None of the tracks are present in the AccurateRip database

No errors occurred

End of status report

–– CUETools DB Plugin V2.1.6

[CTDB TOCID: pBUjm.fNeG.4QAy.pzqqAW5aGBs-] found
Submit result: pBUjm.fNeG.4QAy.pzqqAW5aGBs- has been confirmed
Track | CTDB Status
1 | (2/2) Accurately ripped
2 | (2/2) Accurately ripped
3 | (2/2) Accurately ripped
4 | (2/2) Accurately ripped
5 | (2/2) Accurately ripped
6 | (2/2) Accurately ripped
7 | (2/2) Accurately ripped
8 | (2/2) Accurately ripped
9 | (2/2) Accurately ripped
10 | (2/2) Accurately ripped

==== Log checksum AE5EFF8975228369E4C0C738CD4E6625CCBADB9FC94C9F71C458668A4DCA0D54 ====

All thanks go to the xdanguyx

More Music in My Blog
Follow My RSS Channel