Subcategories

Miles Davis - Evolution Of A Genius: 1945-1954 (1990)

Posted By: stfine
Miles Davis - Evolution Of A Genius: 1945-1954 (1990)

Miles Davis - Evolution Of A Genius: 1945-1954 (1990)
APE tracks + cue + log + scans | 01:11:12 | 350 MB (+3%)
Jazz, Cool Jazz | Label: Giants Of Jazz, CD 53009

This 16 titles compilation paints a picture over Mile's playing in 40's-50's years, from "Now's The Time" (1945) to "But Not For Me" (1954); also includes booklet with concise Mile's biography. A really nice collection. ~stfine

Listen to samples on Amazon

Tracklist

1. Now's The Time (03:15)
2. Donna Lee (02:33)
3. Milestones (02:34)
4. Jeru (03:10)
5. Boplicity (03:01)
6. Rocker (03:04)
7. Ezz-Thetic (02:53)
8. Yesterdays (03:45)
9. Compulsion (05:48)
10. Tempus Fugit (03:53)
11. Tune Up (03:51)
12. It Never Entered My Mind (04:03)
13. Old Devil Moon (03:22)
14. I'll Remember April (07:50)
15. Walkin' (13:30)
16. But Not For Me (04:40)

Total time 01:11:12

Exact Audio Copy V0.99 prebeta 4 from 23. January 2008

Отчёт EAC об извлечении, выполненном 7. сентября 2009, 21:43

Miles Davis / Evolution Of A Genius 1945 - 1954

Дисковод: PIONEER DVD-RW DVR-111D Adapter: 1 ID: 0

Режим чтения : Достоверность
Использование точного потока : Да
Отключение кэша аудио : Да
Использование указателей C2 : Нет

Коррекция смещения при чтении : 48
Способность читать области Lead-in и Lead-out : Нет
Заполнение пропущенных сэмплов тишиной : Да
Удаление блоков с тишиной в начале и конце : Да
При вычислениях CRC использовались нулевые сэмплы : Нет
Интерфейс : Установленный внешний ASPI-интерфейс
Обработка зазоров : Добавлено к предыдущему треку

Выходной формат : Monkey's Audio (без потерь)
Выбранный битрейт : Extra High Lossless Compression
Качество : Высокий
Добавление ID3-тэга : Нет
Утилита сжатия : H:\Program Files\Monkey's Audio\MAC.exe


TOC извлечённого CD

Трек | Старт | Длительность | Начальный сектор | Конечный сектор
––––––––––––––––––––––––––––––––––-
1 | 0:00.33 | 3:15.12 | 33 | 14669
2 | 3:15.45 | 2:32.70 | 14670 | 26139
3 | 5:48.40 | 2:34.00 | 26140 | 37689
4 | 8:22.40 | 3:10.25 | 37690 | 51964
5 | 11:32.65 | 3:01.00 | 51965 | 65539
6 | 14:33.65 | 3:03.38 | 65540 | 79302
7 | 17:37.28 | 2:53.10 | 79303 | 92287
8 | 20:30.38 | 3:44.50 | 92288 | 109137
9 | 24:15.13 | 5:47.40 | 109138 | 135202
10 | 30:02.53 | 3:53.10 | 135203 | 152687
11 | 33:55.63 | 3:50.47 | 152688 | 169984
12 | 37:46.35 | 4:02.65 | 169985 | 188199
13 | 41:49.25 | 3:22.03 | 188200 | 203352
14 | 45:11.28 | 7:50.32 | 203353 | 238634
15 | 53:01.60 | 13:29.73 | 238635 | 299382
16 | 66:31.58 | 4:39.55 | 299383 | 320362


Трек 1

Имя файла D:\MUSIC\Miles Davis - Evolution Of A Genius - 1945-1954\Miles Davis - Now's The Time.wav

Длина предзазора 0:00:02.33

Пиковый уровень 68.1 %
Качество трека 99.9 %
CRC копии 7ED8676B
Копирование… OK

Трек 2

Имя файла D:\MUSIC\Miles Davis - Evolution Of A Genius - 1945-1954\Miles Davis - Donna Lee.wav

Длина предзазора 0:00:00.05

Пиковый уровень 69.2 %
Качество трека 100.0 %
CRC копии 0977A714
Копирование… OK

Трек 3

Имя файла D:\MUSIC\Miles Davis - Evolution Of A Genius - 1945-1954\Miles Davis - Milestones.wav

Пиковый уровень 73.1 %
Качество трека 100.0 %
CRC копии 6359BEB9
Копирование… OK

Трек 4

Имя файла D:\MUSIC\Miles Davis - Evolution Of A Genius - 1945-1954\Miles Davis - Jeru.wav

Длина предзазора 0:00:00.05

Пиковый уровень 71.4 %
Качество трека 100.0 %
CRC копии 98506D5F
Копирование… OK

Трек 5

Имя файла D:\MUSIC\Miles Davis - Evolution Of A Genius - 1945-1954\Miles Davis - Boplicity.wav

Пиковый уровень 79.5 %
Качество трека 99.9 %
CRC копии 6CBBDA65
Копирование… OK

Трек 6

Имя файла D:\MUSIC\Miles Davis - Evolution Of A Genius - 1945-1954\Miles Davis - Rocker.wav

Пиковый уровень 83.6 %
Качество трека 100.0 %
CRC копии 9D36FA47
Копирование… OK

Трек 7

Имя файла D:\MUSIC\Miles Davis - Evolution Of A Genius - 1945-1954\Miles Davis - Ezz-Thetic.wav

Пиковый уровень 72.6 %
Качество трека 100.0 %
CRC копии 1C645B50
Копирование… OK

Трек 8

Имя файла D:\MUSIC\Miles Davis - Evolution Of A Genius - 1945-1954\Miles Davis - Yesterdays.wav

Длина предзазора 0:00:00.05

Пиковый уровень 64.3 %
Качество трека 100.0 %
CRC копии C87000D7
Копирование… OK

Трек 9

Имя файла D:\MUSIC\Miles Davis - Evolution Of A Genius - 1945-1954\Miles Davis - Compulsion.wav

Пиковый уровень 78.7 %
Качество трека 100.0 %
CRC копии DD12E584
Копирование… OK

Трек 10

Имя файла D:\MUSIC\Miles Davis - Evolution Of A Genius - 1945-1954\Miles Davis - Tempus Fugit.wav

Пиковый уровень 69.1 %
Качество трека 100.0 %
CRC копии 8F0B79A1
Копирование… OK

Трек 11

Имя файла D:\MUSIC\Miles Davis - Evolution Of A Genius - 1945-1954\Miles Davis - Tune Up.wav

Пиковый уровень 68.4 %
Качество трека 100.0 %
CRC копии 0222CA3E
Копирование… OK

Трек 12

Имя файла D:\MUSIC\Miles Davis - Evolution Of A Genius - 1945-1954\Miles Davis - It Never Entered My Mind.wav

Длина предзазора 0:00:00.05

Пиковый уровень 74.6 %
Качество трека 100.0 %
CRC копии B8F877C9
Копирование… OK

Трек 13

Имя файла D:\MUSIC\Miles Davis - Evolution Of A Genius - 1945-1954\Miles Davis - Old Devil Moon.wav

Пиковый уровень 72.1 %
Качество трека 100.0 %
CRC копии 6C3B05E4
Копирование… OK

Трек 14

Имя файла D:\MUSIC\Miles Davis - Evolution Of A Genius - 1945-1954\Miles Davis - I'll Remember April.wav

Пиковый уровень 76.9 %
Качество трека 100.0 %
CRC копии 69ACA72D
Копирование… OK

Трек 15

Имя файла D:\MUSIC\Miles Davis - Evolution Of A Genius - 1945-1954\Miles Davis - Walkin'.wav

Пиковый уровень 71.4 %
Качество трека 100.0 %
CRC копии CD589350
Копирование… OK

Трек 16

Имя файла D:\MUSIC\Miles Davis - Evolution Of A Genius - 1945-1954\Miles Davis - But Not For Me.wav

Пиковый уровень 79.3 %
Качество трека 100.0 %
CRC копии 59C02ED3
Копирование… OK

Ошибок не произошло

Конец отчёта

Miles Davis - Evolution Of A Genius: 1945-1954 (1990)