Subcategories

The Miles Davis All-Stars featuring John Coltrane - Broadcast Sessions 1958-59 (2008) {Acrobat Music ACMCD4325}

Posted By: ruskaval
The Miles Davis All-Stars featuring John Coltrane - Broadcast Sessions 1958-59 (2008) {Acrobat Music ACMCD4325}

The Miles Davis All-Stars featuring John Coltrane - Broadcast Sessions 1958-59 (2008) {Acrobat Music ACMCD4325}
EAC rip (secure mode) | FLAC (tracks)+CUE+LOG -> 294 Mb | MP3 @320 -> 168 Mb
Full Artwork @ 600 dpi (png) -> 389 Mb | 5% repair rar
© 1958-59, 2008 Acrobat Music | ACMCD4325
Jazz / Bop / Cool / Hard Bop / Modal Music / Trumpet

Many musicians lived and were musically active during multiple jazz periods, and some of them actually made significant contributions during all of the periods during which they recorded. But few can claim, as Miles Davis could, to have actually helped design the architecture in every case. Bebop, cool, and fusion all have Davis' handprints deep in the cement of their foundations, and this disc documents some of his best work during the second of those periods. In the mid-'50s he started what would be a tumultuous musical relationship with John Coltrane, and what would eventually become one of the greatest combos in jazz history began to coalesce: alto saxophonist Cannonball Adderley, pianist Red Garland, bassist Paul Chambers, and drummer Philly Joe Jones in addition to Davis and Coltrane.

The tracks on this CD were selected from four live-in-the-studio recordings made by Davis' combo shortly after the sessions for the Milestones LP were completed, and it features burning renditions of such period favorites as "Bye Bye Blackbird" (featuring some unfortunately inaudible piano by Bill Evans), "Bag's Groove" (featuring some strangely incongruous Latin percussion), and Thelonious Monk's "Straight, No Chaser" (in a particularly blistering, hard-charging version). Coltrane is fresh from having kicked his heroin habit and is in especially sharp form here – these sessions are a major find.
The Miles Davis All-Stars featuring John Coltrane - Broadcast Sessions 1958-59 (2008) {Acrobat Music ACMCD4325}


Personnel:
Miles Davis: trumpet
John Coltrane: tenor sax
Cannonball Adderley: alto sax
Red Garland: piano
Bill Evans: piano
Wynton Kelly: piano
Paul Chambers: bass
Philly Joe Jones: drums
Jimmy Cobb: drums
Gerry Mulligan: baritone sax
Candido: percussion

The Miles Davis All-Stars featuring John Coltrane - Broadcast Sessions 1958-59 (2008) {Acrobat Music ACMCD4325}


TRACKLISTING:

01 - Four
02 - Bye Bye Blackbird
03 - Walkin'
04 - Two Bass Hit
05 - Sids Ahead
06 - Bye Bye Blackbird
07 - Straight, No Chaser
08 - What Is This Thing Called Love
09 - Bag's Groove
10 - All Of You (incomplete)

Exact Audio Copy V1.3 from 2. September 2016

EAC extraction logfile from 30. September 2017, 7:18

The Miles Davis All-Stars featuring John Coltrane / Broadcast Sessions 1958-59

Used drive : TSSTcorpCDDVDW SE-208DB Adapter: 1 ID: 1

Read mode : Secure
Utilize accurate stream : Yes
Defeat audio cache : Yes
Make use of C2 pointers : No

Read offset correction : 6
Overread into Lead-In and Lead-Out : No
Fill up missing offset samples with silence : Yes
Delete leading and trailing silent blocks : No
Null samples used in CRC calculations : Yes
Used interface : Native Win32 interface for Win NT & 2000
Gap handling : Appended to previous track

Used output format : User Defined Encoder
Selected bitrate : 1024 kBit/s
Quality : High
Add ID3 tag : No
Command line compressor : C:\Program Files (x86)\FLAC Frontend\tools\flac.exe
Additional command line options : -8 -V -T "ARTIST=%artist%" -T "TITLE=%title%" -T "ALBUM=%albumtitle%" -T "DATE=%year%" -T "TRACKNUMBER=%tracknr%" -T "TOTALTRACKS=%numtracks%" -T "GENRE=%genre%" -T "ALBUMARTIST=%albumartist%" -T "ALBUM ARTIST=%albumartist%" -T "COMMENT=EAC Secure Mode, Test & Copy, AccurateRip, FLAC -8" %source%


TOC of the extracted CD

Track | Start | Length | Start sector | End sector
––––––––––––––––––––––––––––-
1 | 0:00.00 | 5:02.04 | 0 | 22653
2 | 5:02.04 | 6:52.73 | 22654 | 53626
3 | 11:55.02 | 6:28.72 | 53627 | 82798
4 | 18:23.74 | 1:09.31 | 82799 | 88004
5 | 19:33.30 | 9:02.17 | 88005 | 128671
6 | 28:35.47 | 6:40.52 | 128672 | 158723
7 | 35:16.24 | 3:41.62 | 158724 | 175360
8 | 38:58.11 | 12:03.74 | 175361 | 229659
9 | 51:02.10 | 14:24.01 | 229660 | 294460
10 | 65:26.11 | 5:20.35 | 294461 | 318495


Track 1

Filename E:\EAC_RIP\Miles Davis - Broadcast Sessions 1958-59 (2008) [FLAC] {Acrobat Music ACMCD4325}\01 - Four.wav

Pre-gap length 0:00:02.00

Peak level 97.6 %
Extraction speed 2.6 X
Track quality 100.0 %
Test CRC 6B8AA203
Copy CRC 6B8AA203
Accurately ripped (confidence 2) [129B637B] (AR v1)
Copy OK

Track 2

Filename E:\EAC_RIP\Miles Davis - Broadcast Sessions 1958-59 (2008) [FLAC] {Acrobat Music ACMCD4325}\02 - Bye Bye Blackbird.wav

Peak level 79.1 %
Extraction speed 2.8 X
Track quality 99.9 %
Test CRC 0C17C12D
Copy CRC 0C17C12D
Accurately ripped (confidence 2) [AA87AA53] (AR v1)
Copy OK

Track 3

Filename E:\EAC_RIP\Miles Davis - Broadcast Sessions 1958-59 (2008) [FLAC] {Acrobat Music ACMCD4325}\03 - Walkin'.wav

Pre-gap length 0:00:02.70

Peak level 85.9 %
Extraction speed 3.6 X
Track quality 100.0 %
Test CRC B25A689D
Copy CRC B25A689D
Accurately ripped (confidence 2) [B8E18711] (AR v1)
Copy OK

Track 4

Filename E:\EAC_RIP\Miles Davis - Broadcast Sessions 1958-59 (2008) [FLAC] {Acrobat Music ACMCD4325}\04 - Two Bass Hit.wav

Pre-gap length 0:00:02.70

Peak level 80.7 %
Extraction speed 2.6 X
Track quality 100.0 %
Test CRC CBB32FB5
Copy CRC CBB32FB5
Accurately ripped (confidence 2) [EEC3E10F] (AR v1)
Copy OK

Track 5

Filename E:\EAC_RIP\Miles Davis - Broadcast Sessions 1958-59 (2008) [FLAC] {Acrobat Music ACMCD4325}\05 - Sids Ahead.wav

Pre-gap length 0:00:02.69

Peak level 93.2 %
Extraction speed 4.2 X
Track quality 100.0 %
Test CRC 83355684
Copy CRC 83355684
Accurately ripped (confidence 2) [94273758] (AR v1)
Copy OK

Track 6

Filename E:\EAC_RIP\Miles Davis - Broadcast Sessions 1958-59 (2008) [FLAC] {Acrobat Music ACMCD4325}\06 - Bye Bye Blackbird.wav

Peak level 81.0 %
Extraction speed 3.8 X
Track quality 99.9 %
Test CRC D0F25B46
Copy CRC D0F25B46
Accurately ripped (confidence 2) [AC6CA7E7] (AR v1)
Copy OK

Track 7

Filename E:\EAC_RIP\Miles Davis - Broadcast Sessions 1958-59 (2008) [FLAC] {Acrobat Music ACMCD4325}\07 - Straight, No Chaser.wav

Peak level 87.3 %
Extraction speed 4.3 X
Track quality 100.0 %
Test CRC B66F210F
Copy CRC B66F210F
Accurately ripped (confidence 2) [73136C0F] (AR v1)
Copy OK

Track 8

Filename E:\EAC_RIP\Miles Davis - Broadcast Sessions 1958-59 (2008) [FLAC] {Acrobat Music ACMCD4325}\08 - What Is This Thing Called Love.wav

Pre-gap length 0:00:02.70

Peak level 89.1 %
Extraction speed 5.1 X
Track quality 100.0 %
Test CRC 61D26FD2
Copy CRC 61D26FD2
Accurately ripped (confidence 2) [F463D232] (AR v1)
Copy OK

Track 9

Filename E:\EAC_RIP\Miles Davis - Broadcast Sessions 1958-59 (2008) [FLAC] {Acrobat Music ACMCD4325}\09 - Bag's Groove.wav

Pre-gap length 0:00:02.69

Peak level 100.0 %
Extraction speed 5.7 X
Track quality 100.0 %
Test CRC CE2C26D0
Copy CRC CE2C26D0
Accurately ripped (confidence 2) [C9D2D786] (AR v1)
Copy OK

Track 10

Filename E:\EAC_RIP\Miles Davis - Broadcast Sessions 1958-59 (2008) [FLAC] {Acrobat Music ACMCD4325}\10 - All Of You (incomplete).wav

Peak level 84.1 %
Extraction speed 5.6 X
Track quality 100.0 %
Test CRC C9190E85
Copy CRC C9190E85
Accurately ripped (confidence 2) [03800B48] (AR v1)
Copy OK


All tracks accurately ripped

No errors occurred

End of status report

–– CUETools DB Plugin V2.1.6

[CTDB TOCID: XBgJMQgPWda1UFXlCdDbxrTP2p8-] found
Submit result: XBgJMQgPWda1UFXlCdDbxrTP2p8- has been confirmed
Track | CTDB Status
1 | ( 2/11) Accurately ripped
2 | ( 2/11) Accurately ripped
3 | ( 2/11) Accurately ripped
4 | ( 2/11) Accurately ripped
5 | ( 2/11) Accurately ripped
6 | ( 2/11) Accurately ripped
7 | ( 2/11) Accurately ripped
8 | ( 2/11) Accurately ripped
9 | ( 2/11) Accurately ripped
10 | ( 2/11) Accurately ripped


==== Log checksum 7DA68CC67BA980D37BD966D0D967B7AEA2D880F153C58889090AEC713CEF545F ====


The Miles Davis All-Stars featuring John Coltrane - Broadcast Sessions 1958-59 (2008) {Acrobat Music ACMCD4325}

The Miles Davis All-Stars featuring John Coltrane - Broadcast Sessions 1958-59 (2008) {Acrobat Music ACMCD4325}



===