Subcategories

Miles Davis - European Tour '56 with The Modern Jazz Quartet & Lester Young (2006) {Definitive DRCD11294}

Posted By: ruskaval
Miles Davis - European Tour '56 with The Modern Jazz Quartet & Lester Young (2006) {Definitive DRCD11294}

Miles Davis - European Tour '56 with The Modern Jazz Quartet & Lester Young (2006) {Definitive DRCD11294}
EAC rip (secure mode) | FLAC (tracks)+CUE+LOG -> 257 Mb | MP3 @320 -> 161 Mb
Full Artwork @ 600 dpi (png) -> 176 Mb | 5% repair rar
© 1956, 2006 Definitive Records / Disconforme | DRCD11294
Jazz / Bop / Hard Bop / Cool / Trumpet

This fascinating release comprises live recordings made at the end of 1956, when Miles accepted an offer to tour Europe with a formation called the Birdland All Stars, which also included Lester Young and the Modern Jazz Quartet, along with European musicians such as pianist René Urtréger, bassist Pierre Michelot and drummer Christian Garros. We have here the one and only existing evidence of Miles playing with Lester Young and with the MJQ. It also presents a rare occasion to find Miles playing as the sole horn in a quartet format.

As a complement, we offer the complete 1955 Newport Jazz Festival performance, in which Miles played a famous version of Around Midnight backed by Thelonious Monk and Gerry Mulligan.
The two bonus tracks come from a rare Birdland broadcast featuring Miles with tenor saxophonist Bobby Jaspar. Tunes include jazz standards and Miles Davis compositions: How High the Moon, Lester Leaps In, Tune Up, Whats New, Indiana, Four, Walkin, Lady Be Good, Hackensack, Around Midnight, Nows the Time, All of You and a second version of Four.

And then George Wein had an All-Star band that had Zoot Sims, Gerry Mulligan, Monk, Percy Heath, Connie Kay; he later added me. They played a couple of tunes without me and then I joined them on Nows the Time, which was a tribute to Birds memory. And then we played Round Midnight, Monks tune. I played it with a mute and everybody went crazy. It was something. I got a standing ovation. When I got off the bandstand, everybody was looking at me, offering me record deals. All the musicians there were treating me like I was a God, and all for a solo that I had trouble learning a long time ago. It was something else, man, looking up and applauding for what I had done. –Miles Davis (From the liner notes)

Personnel:

Miles Davis / trumpet (1-14)
Lester Young / tenor saxophone (1-14)
Zoot Sims / tenor saxophone (9-12)
Bobby Jaspar / tenor saxophone (13-14)
Gerry Mulligan / baritone saxophone (9-12)
John Lewis / piano (1-2)
René Urtreger / piano (3-5)
Thelonious Monk / piano (9-12)
Tommy Flanagan / piano (13-14)
Percy Heath / bass (1-2, 9-12)
Pierre Michelot / bass (3-5)
Paul Chambers / bass (13-14)
Milt Jackson / vibraphone (1-2)
Connie Kay / drums (1-2, 9-12)
Christian Garros / drums (3-5)
Philly Joe Jones / drums (13-14)

TRACKLISTING:

01 - How High The Moon
02 - Lester Leaps In
03 - Tune Up
04 - What's New
05 - Indiana
06 - Four
07 - Walkin'
08 - Lady Be Good
09 - Introduction By Duke Ellington *
10 - Hackensack *
11 - Around Midnight *
12 - Now's The Time *
13 - All Of You *
14 - Four *

Released by Definitive Records in 2006 with 6 bonus tracks (*)

Tracks 1-5 recorded November 12, 1956 in Germany
Tracks 6-8 recorded November 19, 1956 in Switzerland
Tracks 9-12 recorded July 17, 1955 in Newport, Rhode Island
Tracks 13-14 recorded October 1957 at Birdland, New York


Exact Audio Copy V1.3 from 2. September 2016

EAC extraction logfile from 8. August 2017, 19:34

Miles Davis / European Tour '56 (With The Modern Jazz Quartet & Lester Young)

Used drive : TSSTcorpCDDVDW SE-208DB Adapter: 1 ID: 1

Read mode : Secure
Utilize accurate stream : Yes
Defeat audio cache : Yes
Make use of C2 pointers : No

Read offset correction : 6
Overread into Lead-In and Lead-Out : No
Fill up missing offset samples with silence : Yes
Delete leading and trailing silent blocks : No
Null samples used in CRC calculations : Yes
Used interface : Native Win32 interface for Win NT & 2000
Gap handling : Appended to previous track

Used output format : User Defined Encoder
Selected bitrate : 1024 kBit/s
Quality : High
Add ID3 tag : No
Command line compressor : C:\Program Files (x86)\FLAC Frontend\tools\flac.exe
Additional command line options : -8 -V -T "ARTIST=%artist%" -T "TITLE=%title%" -T "ALBUM=%albumtitle%" -T "DATE=%year%" -T "TRACKNUMBER=%tracknr%" -T "TOTALTRACKS=%numtracks%" -T "GENRE=%genre%" -T "ALBUMARTIST=%albumartist%" -T "ALBUM ARTIST=%albumartist%" -T "COMMENT=EAC Secure Mode, Test & Copy, AccurateRip, FLAC -8" %source%


TOC of the extracted CD

Track | Start | Length | Start sector | End sector
––––––––––––––––––––––––––––-
1 | 0:00.01 | 8:09.04 | 1 | 36679
2 | 8:09.05 | 9:11.28 | 36680 | 78032
3 | 17:20.33 | 2:51.05 | 78033 | 90862
4 | 20:11.38 | 3:36.59 | 90863 | 107121
5 | 23:48.22 | 2:33.63 | 107122 | 118659
6 | 26:22.10 | 2:53.22 | 118660 | 131656
7 | 29:15.32 | 2:35.59 | 131657 | 143340
8 | 31:51.16 | 5:34.36 | 143341 | 168426
9 | 37:25.52 | 1:24.61 | 168427 | 174787
10 | 38:50.38 | 7:52.39 | 174788 | 210226
11 | 46:43.02 | 6:03.47 | 210227 | 237498
12 | 52:46.49 | 8:33.00 | 237499 | 275973
13 | 61:19.49 | 8:28.01 | 275974 | 314074
14 | 69:47.50 | 4:29.52 | 314075 | 334301


Track 1

Filename E:\EAC_RIP\Miles Davis - European Tour '56 (2006) [FLAC] {Definitive DRCD11294}\01 - How High The Moon.wav

Pre-gap length 0:00:02.01

Peak level 66.3 %
Extraction speed 1.1 X
Track quality 99.9 %
Test CRC 5DAD09C7
Copy CRC 5DAD09C7
Accurately ripped (confidence 4) [27872162] (AR v2)
Copy OK

Track 2

Filename E:\EAC_RIP\Miles Davis - European Tour '56 (2006) [FLAC] {Definitive DRCD11294}\02 - Lester Leaps In.wav

Peak level 79.1 %
Extraction speed 1.4 X
Track quality 100.0 %
Test CRC A64EAC40
Copy CRC A64EAC40
Accurately ripped (confidence 4) [108A5FBB] (AR v2)
Copy OK

Track 3

Filename E:\EAC_RIP\Miles Davis - European Tour '56 (2006) [FLAC] {Definitive DRCD11294}\03 - Tune Up.wav

Peak level 67.8 %
Extraction speed 1.3 X
Track quality 100.0 %
Test CRC BA8496C1
Copy CRC BA8496C1
Accurately ripped (confidence 4) [791E9720] (AR v2)
Copy OK

Track 4

Filename E:\EAC_RIP\Miles Davis - European Tour '56 (2006) [FLAC] {Definitive DRCD11294}\04 - What's New.wav

Peak level 76.0 %
Extraction speed 1.1 X
Track quality 99.9 %
Test CRC 8741462E
Copy CRC 8741462E
Accurately ripped (confidence 4) [93CBEE87] (AR v2)
Copy OK

Track 5

Filename E:\EAC_RIP\Miles Davis - European Tour '56 (2006) [FLAC] {Definitive DRCD11294}\05 - Indiana.wav

Peak level 83.3 %
Extraction speed 1.3 X
Track quality 100.0 %
Test CRC 0025602B
Copy CRC 0025602B
Accurately ripped (confidence 4) [F6EE5FAD] (AR v2)
Copy OK

Track 6

Filename E:\EAC_RIP\Miles Davis - European Tour '56 (2006) [FLAC] {Definitive DRCD11294}\06 - Four.wav

Peak level 93.4 %
Extraction speed 1.1 X
Track quality 99.9 %
Test CRC 605E0A73
Copy CRC 605E0A73
Accurately ripped (confidence 4) [A4E65C83] (AR v2)
Copy OK

Track 7

Filename E:\EAC_RIP\Miles Davis - European Tour '56 (2006) [FLAC] {Definitive DRCD11294}\07 - Walkin'.wav

Peak level 88.4 %
Extraction speed 1.4 X
Track quality 100.0 %
Test CRC 9763C030
Copy CRC 9763C030
Accurately ripped (confidence 4) [F8904CAC] (AR v2)
Copy OK

Track 8

Filename E:\EAC_RIP\Miles Davis - European Tour '56 (2006) [FLAC] {Definitive DRCD11294}\08 - Lady Be Good.wav

Peak level 75.3 %
Extraction speed 1.6 X
Track quality 100.0 %
Test CRC 98DFF27E
Copy CRC 98DFF27E
Accurately ripped (confidence 4) [4F1B434D] (AR v2)
Copy OK

Track 9

Filename E:\EAC_RIP\Miles Davis - European Tour '56 (2006) [FLAC] {Definitive DRCD11294}\09 - Introduction By Duke Ellington.wav

Peak level 79.6 %
Extraction speed 1.2 X
Track quality 100.0 %
Test CRC 0A065A3E
Copy CRC 0A065A3E
Accurately ripped (confidence 4) [1233A8AD] (AR v2)
Copy OK

Track 10

Filename E:\EAC_RIP\Miles Davis - European Tour '56 (2006) [FLAC] {Definitive DRCD11294}\10 - Hackensack.wav

Peak level 84.6 %
Extraction speed 1.8 X
Track quality 100.0 %
Test CRC BC934F04
Copy CRC BC934F04
Accurately ripped (confidence 4) [5586F8DF] (AR v2)
Copy OK

Track 11

Filename E:\EAC_RIP\Miles Davis - European Tour '56 (2006) [FLAC] {Definitive DRCD11294}\11 - Around Midnight.wav

Peak level 83.2 %
Extraction speed 1.8 X
Track quality 100.0 %
Test CRC 0898D577
Copy CRC 0898D577
Accurately ripped (confidence 4) [01A16E96] (AR v2)
Copy OK

Track 12

Filename E:\EAC_RIP\Miles Davis - European Tour '56 (2006) [FLAC] {Definitive DRCD11294}\12 - Now's The Time.wav

Peak level 79.1 %
Extraction speed 2.0 X
Track quality 100.0 %
Test CRC A3E69470
Copy CRC A3E69470
Accurately ripped (confidence 4) [1B8BAC03] (AR v2)
Copy OK

Track 13

Filename E:\EAC_RIP\Miles Davis - European Tour '56 (2006) [FLAC] {Definitive DRCD11294}\13 - All Of You.wav

Peak level 69.7 %
Extraction speed 2.0 X
Track quality 100.0 %
Test CRC 8FDB9729
Copy CRC 8FDB9729
Accurately ripped (confidence 4) [6D56CC1A] (AR v2)
Copy OK

Track 14

Filename E:\EAC_RIP\Miles Davis - European Tour '56 (2006) [FLAC] {Definitive DRCD11294}\14 - Four.wav

Peak level 83.8 %
Extraction speed 1.9 X
Track quality 100.0 %
Test CRC FA570B8C
Copy CRC FA570B8C
Accurately ripped (confidence 4) [A42DAB61] (AR v2)
Copy OK


All tracks accurately ripped

No errors occurred

End of status report

–– CUETools DB Plugin V2.1.6

[CTDB TOCID: GnWliKuSrr8q21ZH328dfWWmt9w-] found
Submit result: GnWliKuSrr8q21ZH328dfWWmt9w- has been confirmed
Track | CTDB Status
1 | (1/1) Accurately ripped
2 | (1/1) Accurately ripped
3 | (1/1) Accurately ripped
4 | (1/1) Accurately ripped
5 | (1/1) Accurately ripped
6 | (1/1) Accurately ripped
7 | (1/1) Accurately ripped
8 | (1/1) Accurately ripped
9 | (1/1) Accurately ripped
10 | (1/1) Accurately ripped
11 | (1/1) Accurately ripped
12 | (1/1) Accurately ripped
13 | (1/1) Accurately ripped
14 | (1/1) Accurately ripped


==== Log checksum D3981320DF0B709D6FD95E53FA47F3C6FC0DE18AE06D5A0AF795DE864E47CC5F ====


Miles Davis - European Tour '56 with The Modern Jazz Quartet & Lester Young (2006) {Definitive DRCD11294}

Miles Davis - European Tour '56 with The Modern Jazz Quartet & Lester Young (2006) {Definitive DRCD11294}



===