Subcategories

Miles Davis Quintet - Freedom Jazz Dance: The Bootleg Series, Vol. 5 (2016) {3CD Set Columbia-Legacy 88985357372 rec 1966-68}

Posted By: ruskaval
Miles Davis Quintet - Freedom Jazz Dance: The Bootleg Series, Vol. 5 (2016) {3CD Set Columbia-Legacy 88985357372 rec 1966-68}

Miles Davis Quintet - Freedom Jazz Dance: The Bootleg Series, Vol. 5 (2016) {3CD Set Columbia-Legacy 88985357372 rec 1966-68}
EAC rip (secure mode) | FLAC (tracks)+CUE+LOG -> 1.05 Gb | MP3 @320 -> 458 Mb
Full Artwork @ 600 dpi (png) -> 958 Mb | 5% repair rar
© 1966-68, 2016 Columbia / Legacy / Sony Music | 88985357372
Jazz / Hard Bop / Modal Music / Trumpet

A 3CD box set collection chronicling Miles’ musical evolution in the studio from 1966-1968 working with his “second great quintet,” the latest edition in Columbia/Legacy’s acclaimed Miles Davis Bootleg Series provides an unprecedented look into the artist’s creative process, drawing on full session reels including all rehearsals, partial and alternate takes, extensive and fascinating studio conversation and more.

Celebrating the 50th anniversary of Miles Smiles, the groundbreaking second studio album from the Miles Davis Quintet–Miles Davis (trumpet), Wayne Shorter (tenor saxophone), Herbie Hancock (piano), Ron Carter (bass) and Tony Williams (drums)–this definitive new collection includes the master takes of performances which would appear on the Miles Smiles (1967), Nefertiti (1968) and Water Babies (recorded 1967, released 1976) albums alongside more than two hours worth of previously unreleased studio recordings from original sessions produced by Teo Macero (with the exception of “Fall,” produced by Howard A. Roberts).
Miles Davis Quintet - Freedom Jazz Dance: The Bootleg Series, Vol. 5 (2016) {3CD Set Columbia-Legacy 88985357372 rec 1966-68}

* 3CD set celebrating Miles’ “second great quintet” featuring Wayne Shorter, Herbie Hancock, Ron Carter and Tony Williams
* Over two hours of previously unreleased recordings—includes master takes and unedited session reels featuring alternate takes and studio session dialogue
* Mixed and mastered in high resolution (24-bit/192 kHz) audio
* Also includes “Blues in F (My Ding),” a unique home recording featuring Miles on piano
* Liner notes by Ashley Kahn

Miles Davis Quintet - Freedom Jazz Dance: The Bootleg Series, Vol. 5 (2016) {3CD Set Columbia-Legacy 88985357372 rec 1966-68}


The fifth volume of Miles Davis’ The Bootleg Series will focus on studio recordings of Miles Davis’ “second great quintet,” celebrating the 50th anniversary of their landmark album Miles Smiles.

Miles Davis Quintet: Freedom Jazz Dance: The Bootleg Series Vol. 5 finds Miles Davis in 1966, during the prime time he spent playing with a quintet he’d assembled two years prior. Wayne Shorter (tenor saxophone), Herbie Hancock (piano), Ron Carter (bass) and Tony Williams (drums) were all bold, young talents in the jazz world, and their energy revitalized Miles’ own. Their first LP together, 1965’s E.S.P., featured material written mostly by the other members of the quintet, and Miles’ own free jazz-inspired “time, no changes” performance style with these vibrant musicians allowed for a much greater group dynamic than ever before.

Miles Davis Quintet - Freedom Jazz Dance: The Bootleg Series, Vol. 5 (2016) {3CD Set Columbia-Legacy 88985357372 rec 1966-68}


The material on the three-disc Freedom Jazz Dance was recorded mostly in sessions for Columbia Records between 1966 and 1968 with longtime Miles Davis producer Teo Macero. Most of the master takes of this material were first released on Miles Smiles, the quintet’s second album, released in 1967, while other tracks appeared on the albums Nefertiti (1968) and Water Babies (1976).

Miles Davis Quintet - Freedom Jazz Dance: The Bootleg Series, Vol. 5 (2016) {3CD Set Columbia-Legacy 88985357372 rec 1966-68}


Sourced from original four-track analog session reels and master tapes transferred and mixed in high resolution at 24-bit/192 kHz, the full presentation of these recordings on Freedom Jazz Dance, produced for release by the multiple Grammy Award-winning team of Steve Berkowitz, Michael Cuscuna, Richard Seidel and engineer Mark Wilder, allows for a richer look at Miles and his quintet. These performances anticipate the bold new directions Miles and members of this quintet would take during his “electric” period at the end of the 1960s. Accompanying studio dialogue allows us to hear the development of master tracks, offering a rare peak into the creative process of these legends.

Miles Davis Quintet - Freedom Jazz Dance: The Bootleg Series, Vol. 5 (2016) {3CD Set Columbia-Legacy 88985357372 rec 1966-68}


The collection also includes a unique, unreleased track, “Blues in F (My Ding).” Recorded at home by Miles during the same period as the studio sessions, “Blues in F (My Ding)” finds Miles working out a new composition on piano and engaging in lively, informal conversation with Wayne Shorter.

Grammy Award-winning author Ashley Kahn, author of Kind of Blue: The Making of the Miles Davis Masterpiece, will pen the liner notes to this collection.
Miles Davis Quintet - Freedom Jazz Dance: The Bootleg Series, Vol. 5 (2016) {3CD Set Columbia-Legacy 88985357372 rec 1966-68}


AAJ INFO

Personnel:
Miles Davis - trumpet
Wayne Shorter - tenor saxophone
Herbie Hancock - piano
Ron Carter - bass
Tony Williams - drums

tracklist:
CD1

01 - Freedom Jazz Dance (session reel)
02 - Freedom Jazz Dance (master take)
03 - Circle (session reel)
04 - Circle (take 5 - closing theme used on master take)
05 - Circle (take 6 - released master take excluding closing theme)
06 - Dolores (session reel)
07 - Dolores (master take)

Miles Davis Quintet - Freedom Jazz Dance: The Bootleg Series, Vol. 5 (2016) {3CD Set Columbia-Legacy 88985357372 rec 1966-68}


CD2
01 - Orbits (session reel)
02 - Orbits (master take)
03 - Footprints (session reel)
04 - Footprints (master take)
05 - Gingerbread Boy (session reel)
06 - Gingerbread Boy (master take)
07 - Nefertiti (session reel)
08 - Nefertiti (master take)

Miles Davis Quintet - Freedom Jazz Dance: The Bootleg Series, Vol. 5 (2016) {3CD Set Columbia-Legacy 88985357372 rec 1966-68}


CD3
01 - Fall (session reel)
02 - Fall (master take)
03 - Water Babies (session reel)
04 - Water Babies (master take)
05 - Masqualero (alternate take-take 3)
06 - Country Son (rythm section rehearsal)
07 - Blues In F (My Ding)
08 - Play Your Eight (Miles Speaks)

Miles Davis Quintet - Freedom Jazz Dance: The Bootleg Series, Vol. 5 (2016) {3CD Set Columbia-Legacy 88985357372 rec 1966-68}


Exact Audio Copy V1.1 from 23. June 2015

EAC extraction logfile from 15. November 2016, 17:45

Miles Davis Quintet / Freedom Jazz Dance: The Bootleg Series, Vol. 5 (CD1)

Used drive : HL-DT-STDVDRAM GP50NW41 Adapter: 1 ID: 0

Read mode : Secure
Utilize accurate stream : Yes
Defeat audio cache : Yes
Make use of C2 pointers : No

Read offset correction : 6
Overread into Lead-In and Lead-Out : No
Fill up missing offset samples with silence : Yes
Delete leading and trailing silent blocks : No
Null samples used in CRC calculations : Yes
Used interface : Native Win32 interface for Win NT & 2000
Gap handling : Appended to previous track

Used output format : User Defined Encoder
Selected bitrate : 1024 kBit/s
Quality : High
Add ID3 tag : No
Command line compressor : C:\Program Files (x86)\FLAC Frontend\tools\flac.exe
Additional command line options : -8 -V -T "ARTIST=%artist%" -T "TITLE=%title%" -T "ALBUM=%albumtitle%" -T "DATE=%year%" -T "TRACKNUMBER=%tracknr%" -T "TOTALTRACKS=%numtracks%" -T "GENRE=%genre%" -T "ALBUMARTIST=%albumartist%" -T "ALBUM ARTIST=%albumartist%" -T "COMMENT=EAC Secure Mode, Test & Copy, AccurateRip, FLAC -8" %source%


TOC of the extracted CD

Track | Start | Length | Start sector | End sector
––––––––––––––––––––––––––––-
1 | 0:00.00 | 23:13.26 | 0 | 104500
2 | 23:13.26 | 7:16.67 | 104501 | 137267
3 | 30:30.18 | 11:44.63 | 137268 | 190130
4 | 42:15.06 | 5:23.11 | 190131 | 214366
5 | 47:38.17 | 5:51.26 | 214367 | 240717
6 | 53:29.43 | 5:16.48 | 240718 | 264465
7 | 58:46.16 | 6:23.27 | 264466 | 293217


Track 1

Filename D:\_EAC\Miles Davis Quintet - Freedom Jazz Dance (2016) [FLAC] {3CD Set}\CD1\01 - Freedom Jazz Dance (session reel).wav

Pre-gap length 0:00:02.00

Peak level 98.2 %
Extraction speed 1.6 X
Track quality 100.0 %
Test CRC 87AAF3BB
Copy CRC 87AAF3BB
Track not present in AccurateRip database
Copy OK

Track 2

Filename D:\_EAC\Miles Davis Quintet - Freedom Jazz Dance (2016) [FLAC] {3CD Set}\CD1\02 - Freedom Jazz Dance (master take).wav

Peak level 96.4 %
Extraction speed 1.8 X
Track quality 99.9 %
Test CRC E058E7CB
Copy CRC E058E7CB
Track not present in AccurateRip database
Copy OK

Track 3

Filename D:\_EAC\Miles Davis Quintet - Freedom Jazz Dance (2016) [FLAC] {3CD Set}\CD1\03 - Circle (session reel).wav

Pre-gap length 0:00:02.74

Peak level 82.0 %
Extraction speed 2.1 X
Track quality 99.9 %
Test CRC F4AE514D
Copy CRC F4AE514D
Track not present in AccurateRip database
Copy OK

Track 4

Filename D:\_EAC\Miles Davis Quintet - Freedom Jazz Dance (2016) [FLAC] {3CD Set}\CD1\04 - Circle (take 5 - closing theme used on master take).wav

Peak level 65.5 %
Extraction speed 2.3 X
Track quality 100.0 %
Test CRC 9245BA8C
Copy CRC 9245BA8C
Track not present in AccurateRip database
Copy OK

Track 5

Filename D:\_EAC\Miles Davis Quintet - Freedom Jazz Dance (2016) [FLAC] {3CD Set}\CD1\05 - Circle (take 6 - released master take excluding closing theme).wav

Peak level 72.9 %
Extraction speed 2.4 X
Track quality 100.0 %
Test CRC 9E8842B0
Copy CRC 9E8842B0
Track not present in AccurateRip database
Copy OK

Track 6

Filename D:\_EAC\Miles Davis Quintet - Freedom Jazz Dance (2016) [FLAC] {3CD Set}\CD1\06 - Dolores (session reel).wav

Pre-gap length 0:00:03.02

Peak level 92.2 %
Extraction speed 2.5 X
Track quality 100.0 %
Test CRC 1C53B1C8
Copy CRC 1C53B1C8
Track not present in AccurateRip database
Copy OK

Track 7

Filename D:\_EAC\Miles Davis Quintet - Freedom Jazz Dance (2016) [FLAC] {3CD Set}\CD1\07 - Dolores (master take).wav

Peak level 98.7 %
Extraction speed 2.6 X
Track quality 100.0 %
Test CRC F353A893
Copy CRC F353A893
Track not present in AccurateRip database
Copy OK


None of the tracks are present in the AccurateRip database

No errors occurred

End of status report

==== Log checksum 5253864BA92055ED0FAD118B290B8337022C274C5BC8349AD6A049CF1BEC6418 ====

Exact Audio Copy V1.1 from 23. June 2015

EAC extraction logfile from 15. November 2016, 18:56

Miles Davis Quintet / Freedom Jazz Dance: The Bootleg Series, Vol. 5 (CD2)

Used drive : HL-DT-STDVDRAM GP50NW41 Adapter: 1 ID: 0

Read mode : Secure
Utilize accurate stream : Yes
Defeat audio cache : Yes
Make use of C2 pointers : No

Read offset correction : 6
Overread into Lead-In and Lead-Out : No
Fill up missing offset samples with silence : Yes
Delete leading and trailing silent blocks : No
Null samples used in CRC calculations : Yes
Used interface : Native Win32 interface for Win NT & 2000
Gap handling : Appended to previous track

Used output format : User Defined Encoder
Selected bitrate : 1024 kBit/s
Quality : High
Add ID3 tag : No
Command line compressor : C:\Program Files (x86)\FLAC Frontend\tools\flac.exe
Additional command line options : -8 -V -T "ARTIST=%artist%" -T "TITLE=%title%" -T "ALBUM=%albumtitle%" -T "DATE=%year%" -T "TRACKNUMBER=%tracknr%" -T "TOTALTRACKS=%numtracks%" -T "GENRE=%genre%" -T "ALBUMARTIST=%albumartist%" -T "ALBUM ARTIST=%albumartist%" -T "COMMENT=EAC Secure Mode, Test & Copy, AccurateRip, FLAC -8" %source%


TOC of the extracted CD

Track | Start | Length | Start sector | End sector
––––––––––––––––––––––––––––-
1 | 0:00.00 | 14:43.39 | 0 | 66263
2 | 14:43.39 | 4:44.36 | 66264 | 87599
3 | 19:28.00 | 5:47.55 | 87600 | 113679
4 | 25:15.55 | 9:54.41 | 113680 | 158270
5 | 35:10.21 | 3:43.56 | 158271 | 175051
6 | 38:54.02 | 7:50.53 | 175052 | 210354
7 | 46:44.55 | 11:05.29 | 210355 | 260258
8 | 57:50.09 | 8:04.27 | 260259 | 296585


Track 1

Filename D:\_EAC\Miles Davis Quintet - Freedom Jazz Dance (2016) [FLAC] {3CD Set}\CD2\01 - Orbits (session reel).wav

Pre-gap length 0:00:02.00

Peak level 100.0 %
Extraction speed 1.5 X
Track quality 100.0 %
Test CRC DE7F64AE
Copy CRC DE7F64AE
Track not present in AccurateRip database
Copy OK

Track 2

Filename D:\_EAC\Miles Davis Quintet - Freedom Jazz Dance (2016) [FLAC] {3CD Set}\CD2\02 - Orbits (master take).wav

Peak level 98.8 %
Extraction speed 1.7 X
Track quality 100.0 %
Test CRC 00C3C486
Copy CRC 00C3C486
Track not present in AccurateRip database
Copy OK

Track 3

Filename D:\_EAC\Miles Davis Quintet - Freedom Jazz Dance (2016) [FLAC] {3CD Set}\CD2\03 - Footprints (session reel).wav

Pre-gap length 0:00:02.74

Peak level 90.6 %
Extraction speed 1.8 X
Track quality 100.0 %
Test CRC DB6BDA5A
Copy CRC DB6BDA5A
Track not present in AccurateRip database
Copy OK

Track 4

Filename D:\_EAC\Miles Davis Quintet - Freedom Jazz Dance (2016) [FLAC] {3CD Set}\CD2\04 - Footprints (master take).wav

Peak level 99.2 %
Extraction speed 2.1 X
Track quality 100.0 %
Test CRC 977CBF15
Copy CRC 977CBF15
Track not present in AccurateRip database
Copy OK

Track 5

Filename D:\_EAC\Miles Davis Quintet - Freedom Jazz Dance (2016) [FLAC] {3CD Set}\CD2\05 - Gingerbread Boy (session reel).wav

Pre-gap length 0:00:02.74

Peak level 98.9 %
Extraction speed 1.8 X
Track quality 99.9 %
Test CRC 8B81E25D
Copy CRC 8B81E25D
Track not present in AccurateRip database
Copy OK

Track 6

Filename D:\_EAC\Miles Davis Quintet - Freedom Jazz Dance (2016) [FLAC] {3CD Set}\CD2\06 - Gingerbread Boy (master take).wav

Peak level 99.9 %
Extraction speed 2.3 X
Track quality 100.0 %
Test CRC E0E49330
Copy CRC E0E49330
Track not present in AccurateRip database
Copy OK

Track 7

Filename D:\_EAC\Miles Davis Quintet - Freedom Jazz Dance (2016) [FLAC] {3CD Set}\CD2\07 - Nefertiti (session reel).wav

Pre-gap length 0:00:05.74

Peak level 98.1 %
Extraction speed 2.6 X
Track quality 100.0 %
Test CRC C923595C
Copy CRC C923595C
Track not present in AccurateRip database
Copy OK

Track 8

Filename D:\_EAC\Miles Davis Quintet - Freedom Jazz Dance (2016) [FLAC] {3CD Set}\CD2\08 - Nefertiti (master take).wav

Peak level 86.2 %
Extraction speed 2.7 X
Track quality 100.0 %
Test CRC 49758B46
Copy CRC 49758B46
Track not present in AccurateRip database
Copy OK


None of the tracks are present in the AccurateRip database

No errors occurred

End of status report

==== Log checksum 735864A8143519A904AC522820B366506B090C27FCAF1E541AE6E924570E1E96 ====

Exact Audio Copy V1.1 from 23. June 2015

EAC extraction logfile from 15. November 2016, 20:08

Miles Davis Quintet / Freedom Jazz Dance: The Bootleg Series, Vol. 5 (CD3)

Used drive : HL-DT-STDVDRAM GP50NW41 Adapter: 1 ID: 0

Read mode : Secure
Utilize accurate stream : Yes
Defeat audio cache : Yes
Make use of C2 pointers : No

Read offset correction : 6
Overread into Lead-In and Lead-Out : No
Fill up missing offset samples with silence : Yes
Delete leading and trailing silent blocks : No
Null samples used in CRC calculations : Yes
Used interface : Native Win32 interface for Win NT & 2000
Gap handling : Appended to previous track

Used output format : User Defined Encoder
Selected bitrate : 1024 kBit/s
Quality : High
Add ID3 tag : No
Command line compressor : C:\Program Files (x86)\FLAC Frontend\tools\flac.exe
Additional command line options : -8 -V -T "ARTIST=%artist%" -T "TITLE=%title%" -T "ALBUM=%albumtitle%" -T "DATE=%year%" -T "TRACKNUMBER=%tracknr%" -T "TOTALTRACKS=%numtracks%" -T "GENRE=%genre%" -T "ALBUMARTIST=%albumartist%" -T "ALBUM ARTIST=%albumartist%" -T "COMMENT=EAC Secure Mode, Test & Copy, AccurateRip, FLAC -8" %source%


TOC of the extracted CD

Track | Start | Length | Start sector | End sector
––––––––––––––––––––––––––––-
1 | 0:00.00 | 19:44.01 | 0 | 88800
2 | 19:44.01 | 6:43.60 | 88801 | 119085
3 | 26:27.61 | 8:32.55 | 119086 | 157540
4 | 35:00.41 | 5:12.06 | 157541 | 180946
5 | 40:12.47 | 8:02.36 | 180947 | 217132
6 | 48:15.08 | 7:46.02 | 217133 | 252084
7 | 56:01.10 | 7:32.04 | 252085 | 285988
8 | 63:33.14 | 0:05.46 | 285989 | 286409


Track 1

Filename D:\_EAC\Miles Davis Quintet - Freedom Jazz Dance (2016) [FLAC] {3CD Set}\CD3\01 - Fall (session reel).wav

Pre-gap length 0:00:02.00

Peak level 92.9 %
Extraction speed 1.6 X
Track quality 100.0 %
Test CRC 10875165
Copy CRC 10875165
Track not present in AccurateRip database
Copy OK

Track 2

Filename D:\_EAC\Miles Davis Quintet - Freedom Jazz Dance (2016) [FLAC] {3CD Set}\CD3\02 - Fall (master take).wav

Peak level 82.8 %
Extraction speed 1.9 X
Track quality 100.0 %
Test CRC B991707F
Copy CRC B991707F
Track not present in AccurateRip database
Copy OK

Track 3

Filename D:\_EAC\Miles Davis Quintet - Freedom Jazz Dance (2016) [FLAC] {3CD Set}\CD3\03 - Water Babies (session reel).wav

Pre-gap length 0:00:02.47

Peak level 76.4 %
Extraction speed 2.1 X
Track quality 100.0 %
Test CRC AF9A6780
Copy CRC AF9A6780
Track not present in AccurateRip database
Copy OK

Track 4

Filename D:\_EAC\Miles Davis Quintet - Freedom Jazz Dance (2016) [FLAC] {3CD Set}\CD3\04 - Water Babies (master take).wav

Peak level 94.1 %
Extraction speed 2.0 X
Track quality 99.9 %
Test CRC 8B4780C4
Copy CRC 8B4780C4
Track not present in AccurateRip database
Copy OK

Track 5

Filename D:\_EAC\Miles Davis Quintet - Freedom Jazz Dance (2016) [FLAC] {3CD Set}\CD3\05 - Masqualero (alternate take-take 3).wav

Pre-gap length 0:00:02.64

Peak level 98.2 %
Extraction speed 2.4 X
Track quality 100.0 %
Test CRC 411CB000
Copy CRC 411CB000
Track not present in AccurateRip database
Copy OK

Track 6

Filename D:\_EAC\Miles Davis Quintet - Freedom Jazz Dance (2016) [FLAC] {3CD Set}\CD3\06 - Country Son (rythm section rehearsal).wav

Pre-gap length 0:00:02.74

Peak level 83.6 %
Extraction speed 2.5 X
Track quality 100.0 %
Test CRC 9875C4F1
Copy CRC 9875C4F1
Track not present in AccurateRip database
Copy OK

Track 7

Filename D:\_EAC\Miles Davis Quintet - Freedom Jazz Dance (2016) [FLAC] {3CD Set}\CD3\07 - Blues In F (My Ding).wav

Pre-gap length 0:00:02.74

Peak level 28.8 %
Extraction speed 2.6 X
Track quality 100.0 %
Test CRC 0C71341A
Copy CRC 0C71341A
Track not present in AccurateRip database
Copy OK

Track 8

Filename D:\_EAC\Miles Davis Quintet - Freedom Jazz Dance (2016) [FLAC] {3CD Set}\CD3\08 - Play Your Eight (Miles Speaks).wav

Pre-gap length 0:00:02.74

Peak level 16.8 %
Extraction speed 0.3 X
Track quality 100.0 %
Test CRC A6F5E754
Copy CRC A6F5E754
Track not present in AccurateRip database
Copy OK


None of the tracks are present in the AccurateRip database

No errors occurred

End of status report

==== Log checksum AAD29E62EA36CFAF427669B8FD989BCE52C83DCC69B56E51A76C49C3F7466CB9 ====


Miles Davis Quintet - Freedom Jazz Dance: The Bootleg Series, Vol. 5 (2016) {3CD Set Columbia-Legacy 88985357372 rec 1966-68}



===