Subcategories

Miles Davis - In Concert: Live at Philharmonic Hall (1972) {2CD Set Columbia COL 476910 2}

Posted By: ruskaval
Miles Davis - In Concert: Live at Philharmonic Hall (1972) {2CD Set Columbia COL 476910 2}

Miles Davis - In Concert: Live at Philharmonic Hall (1972) {2CD Set Columbia COL 476910 2}
EAC rip (secure mode) | FLAC (tracks)+CUE+LOG -> 507 Mb | MP3 @320 -> 198 Mb
Full Artwork @ 600 dpi (png) -> 162 Mb | 5% repair rar
© 1972 Columbia / Sony Music | COL 476910 2
Jazz / Fusion / Jazz Funk / Jazz Rock / Trumpet

Of the myriad double-live sets Miles Davis recorded in the early '70s, In Concert: Live at Philharmonic Hall is the only one documenting his On the Corner street-funk period, which is immediately obvious from the cover art. Actually, in terms of repertoire, the material from Get Up With It, Big Fun, and A Tribute to Jack Johnson each takes up a greater percentage of space, but the hard-driving rhythms and plentiful effects make it clear which of Davis' fusion aesthetics applied. In Concert begins to move Davis' live work even farther away from jazz tradition, as he largely forgoes concepts of soloing or space.

Instead, Davis presides over a pulsating mound of rhythm, expanding his percussion section and using traditional lead instruments more to create texture – including his own horn, which he feeds through a wah-wah pedal and other amplification effects. Drummer Al Foster, tabla player Badal Roy, and percussionist Mtume are the centers of the recording, and electric sitar player Khalil Balakrishna adds an exotic dimension to the already tripped-out sonic stew. And "stew" isn't too far off – the individual voices and elements in the music tend to get mixed and muddled together, which may be frustrating for some jazz fans not used to listening for the thick layers of texture in the soundscapes or the furious energy in the grooves. There are few melodies to latch onto, save for a theme from On the Corner that Davis frequently uses during the first disc to signal transitions. But melody isn't the point of this music; it's about power, rhythm, and the sum energy of the collective, and of Davis' electric jazz-rock albums, In Concert does one of the most mind-bending jobs of living up to those ideals.
Miles Davis - In Concert: Live at Philharmonic Hall (1972) {2CD Set Columbia COL 476910 2}


Personnel:
Miles Davis - electric trumpet with wah-wah
Carlos Garnett - soprano & tenor saxophone
Cedric Lawson - electric piano, synthesizer
Reggie Lucas - electric guitar
Khalil Balakrishna - electric sitar
Michael Henderson - electric bass
Al Foster - drums
Badal Roy - tablas
James Mtume - percussion

tracklist:
CD1

01 - Miles Davis In Concert - Side One
02 - Miles Davis In Concert - Side Two

Miles Davis - In Concert: Live at Philharmonic Hall (1972) {2CD Set Columbia COL 476910 2}


CD2
01 - Miles Davis In Concert - Side Three
02 - Miles Davis In Concert - Side Four

Miles Davis - In Concert: Live at Philharmonic Hall (1972) {2CD Set Columbia COL 476910 2}


Exact Audio Copy V1.3 from 2. September 2016

EAC extraction logfile from 6. March 2017, 8:33

Miles Davis / In Concert (CD1)

Used drive : HL-DT-STDVDRAM GT20N Adapter: 1 ID: 0

Read mode : Secure
Utilize accurate stream : Yes
Defeat audio cache : Yes
Make use of C2 pointers : No

Read offset correction : 667
Overread into Lead-In and Lead-Out : No
Fill up missing offset samples with silence : Yes
Delete leading and trailing silent blocks : No
Null samples used in CRC calculations : Yes
Used interface : Native Win32 interface for Win NT & 2000
Gap handling : Appended to previous track

Used output format : User Defined Encoder
Selected bitrate : 1024 kBit/s
Quality : High
Add ID3 tag : No
Command line compressor : C:\Program Files (x86)\FLAC Frontend\tools\flac.exe
Additional command line options : -8 -V -T "ARTIST=%artist%" -T "TITLE=%title%" -T "ALBUM=%albumtitle%" -T "DATE=%year%" -T "TRACKNUMBER=%tracknr%" -T "TOTALTRACKS=%numtracks%" -T "GENRE=%genre%" -T "ALBUMARTIST=%albumartist%" -T "ALBUM ARTIST=%albumartist%" -T "COMMENT=EAC Secure Mode, Test & Copy, AccurateRip, FLAC -8" %source%


TOC of the extracted CD

Track | Start | Length | Start sector | End sector
––––––––––––––––––––––––––––-
1 | 0:00.00 | 20:50.10 | 0 | 93759
2 | 20:50.10 | 25:24.60 | 93760 | 208119


Track 1

Filename C:\EAC_FLAC\Miles Davis - In Concert (1972) [FLAC] {2CD Columbia COL 476910 2}\CD1\01 - Miles Davis In Concert - Side One.wav

Pre-gap length 0:00:02.00

Peak level 84.2 %
Extraction speed 1.6 X
Track quality 100.0 %
Test CRC 30291243
Copy CRC 30291243
Accurately ripped (confidence 11) [F8E11D9F] (AR v2)
Copy OK

Track 2

Filename C:\EAC_FLAC\Miles Davis - In Concert (1972) [FLAC] {2CD Columbia COL 476910 2}\CD1\02 - Miles Davis In Concert - Side Two.wav

Pre-gap length 0:00:03.20

Peak level 87.0 %
Extraction speed 2.3 X
Track quality 100.0 %
Test CRC BEECF8B6
Copy CRC BEECF8B6
Accurately ripped (confidence 11) [7B5E241A] (AR v2)
Copy OK


All tracks accurately ripped

No errors occurred

End of status report

–– CUETools DB Plugin V2.1.6

[CTDB TOCID: 0auIlThXZYkJNty3OvbF2v9XUy0-] found
Submit result: 0auIlThXZYkJNty3OvbF2v9XUy0- has been confirmed
Track | CTDB Status
1 | (3/3) Accurately ripped
2 | (3/3) Accurately ripped


==== Log checksum 98424AF67B7D7A6BCE03909A62D548E7A01CEBEB0282522D74821E3665F8EEA3 ====

Exact Audio Copy V1.3 from 2. September 2016

EAC extraction logfile from 6. March 2017, 9:26

Miles Davis / In Concert (CD2)

Used drive : HL-DT-STDVDRAM GT20N Adapter: 1 ID: 0

Read mode : Secure
Utilize accurate stream : Yes
Defeat audio cache : Yes
Make use of C2 pointers : No

Read offset correction : 667
Overread into Lead-In and Lead-Out : No
Fill up missing offset samples with silence : Yes
Delete leading and trailing silent blocks : No
Null samples used in CRC calculations : Yes
Used interface : Native Win32 interface for Win NT & 2000
Gap handling : Appended to previous track

Used output format : User Defined Encoder
Selected bitrate : 1024 kBit/s
Quality : High
Add ID3 tag : No
Command line compressor : C:\Program Files (x86)\FLAC Frontend\tools\flac.exe
Additional command line options : -8 -V -T "ARTIST=%artist%" -T "TITLE=%title%" -T "ALBUM=%albumtitle%" -T "DATE=%year%" -T "TRACKNUMBER=%tracknr%" -T "TOTALTRACKS=%numtracks%" -T "GENRE=%genre%" -T "ALBUMARTIST=%albumartist%" -T "ALBUM ARTIST=%albumartist%" -T "COMMENT=EAC Secure Mode, Test & Copy, AccurateRip, FLAC -8" %source%


TOC of the extracted CD

Track | Start | Length | Start sector | End sector
––––––––––––––––––––––––––––-
1 | 0:00.00 | 18:16.15 | 0 | 82214
2 | 18:16.15 | 20:21.67 | 82215 | 173856


Track 1

Filename C:\EAC_FLAC\Miles Davis - In Concert (1972) [FLAC] {2CD Columbia COL 476910 2}\CD2\01 - Miles Davis In Concert - Side Three.wav

Pre-gap length 0:00:02.00

Peak level 89.3 %
Extraction speed 1.6 X
Track quality 100.0 %
Test CRC A12CE477
Copy CRC A12CE477
Accurately ripped (confidence 11) [8DEB4F10] (AR v2)
Copy OK

Track 2

Filename C:\EAC_FLAC\Miles Davis - In Concert (1972) [FLAC] {2CD Columbia COL 476910 2}\CD2\02 - Miles Davis In Concert - Side Four.wav

Pre-gap length 0:00:03.13

Peak level 83.9 %
Extraction speed 2.1 X
Track quality 100.0 %
Test CRC 72B42263
Copy CRC 72B42263
Accurately ripped (confidence 12) [746FF1A7] (AR v2)
Copy OK


All tracks accurately ripped

No errors occurred

End of status report

–– CUETools DB Plugin V2.1.6

[CTDB TOCID: AvDio7QKSUaZLMxNtK1pRYU71dg-] found
Submit result: AvDio7QKSUaZLMxNtK1pRYU71dg- has been confirmed
Track | CTDB Status
1 | (3/3) Accurately ripped
2 | (3/3) Accurately ripped


==== Log checksum 640CABEE417E63E00A599D95101C58F45B6FCC96CBC9FA741F42D2D971CD978D ====


Miles Davis - In Concert: Live at Philharmonic Hall (1972) {2CD Set Columbia COL 476910 2}



===