Subcategories

Miles Davis - In Person Saturday Night At The Blackhawk Vol.2 (1961) {2014 Japan Jazz Collection 1000 Columbia-RCA Series}

Posted By: ruskaval
Miles Davis - In Person Saturday Night At The Blackhawk Vol.2 (1961) {2014 Japan Jazz Collection 1000 Columbia-RCA Series}

Miles Davis - In Person Saturday Night At The Blackhawk, San Francisco Vol.2 (1961) {2014 Japan Jazz Collection 1000 Columbia-RCA Series SICP 3964}
EAC rip (secure mode) | FLAC (tracks)+CUE+LOG -> 412 Mb | MP3 @320 -> 144 Mb
Full Artwork @ 600 dpi (png) -> 179 Mb | 5% repair rar
© 1961, 2014 Columbia / Sony Music Japan | SICP 3964
Jazz / Cool / Bop / Hard Bop / Trumpet

Reissue with latest remastering. Comes with new liner notes. This cd is the second of 2 put out to chronicle Miles' stay at the Blackhawk in San Francisco in 1961. After a period of transition which included the sometimes uneven results of the "Someday My Prince Will Come" lp, Miles' working band of Hank Mobley on tenor sax, Wynton Kelly on piano, Paul Chambers, bass, and drummer Jimmy Cobb, were coming together as a tight unit. Both dates of the Blackhawk shows are prime examples of the greatness of this working group.
Miles Davis - In Person Saturday Night At The Blackhawk Vol.2 (1961) {2014 Japan Jazz Collection 1000 Columbia-RCA Series}

While the Friday night show contained mainly ballads, Saturday night finds the band taking on more up-tempo numbers, and with it the band relaxes into a wonderful groove. Even the slower numbers, like "So What," are sped up during this particular evening. The band was definitely up for the change of pace.
Hank Mobley is the major recipient of the up-tempo nature of the show. His time spent with Art Blakey's Jazz Messengers proved that he had the chops needed to play quickly and confidently. Mobley at his best within Miles' group comes with his solo on Sonny Rollins' "Oleo." While the solo lasts a mere minute or so, Mobley took the tension created by Miles' calculated, reserved, mute solo, and blows it out of the water with his frenzied attack, which is certainly akin to what both Rollins and Coltrane were playing at the time. Mobley's attack is what the rhythm section of Kelly, Chambers, and Cobb needed. It allowed them to pick up the pace, and led to Kelly's tasty solo after Mobley's. Kelly's solo is a bit more refined, but no less impressive. The piece showed off prime solo chops by 2 of jazz's legends.
The rest of the lp is no less impressive. The pieces are up-tempo, with all parties involved bringing their "A" games to the table. Miles' playing is wonderful, and dominated by his harmon mute. As always, his solos are short, conpact, very to the point. Mobley's playing throughout is inspired. One can sense that Mobley was on that night, and that he KNEW it, as well. Kelly's solos are always a delight to hear. His playing moves a lot, taking on octaves, arpeggios, and more of a lead character even when he's playing accompanying block chords. Chambers and Cobb were as tight a low end rhythm section as jazz had, and the lp allows them to dominate the proceedings in an up-tempo way.

In my view, this cd is much better than the Friday night set. The looseness of the band is what made the difference here, as did the up-tempo nature of the show. Both cds are recommended to hear the full scale of what this short-lived working band could accomplish, but for me, this set is prime stuff.
Miles Davis - In Person Saturday Night At The Blackhawk Vol.2 (1961) {2014 Japan Jazz Collection 1000 Columbia-RCA Series}


Personnel:
Miles Davis - trumpet
Hank Mobley - tenor saxophone
Wynton Kelly - piano
Paul Chambers - bass
Jimmy Cobb - drums

tracklist:
01 - Well You Needn't
02 - Fran-Dance
03 - So What
04 - Oleo
05 - If I Were A Bell
06 - Neo

Exact Audio Copy V1.0 beta 3 from 29. August 2011

EAC extraction logfile from 21. December 2014, 15:56

Miles Davis / In Person Saturday Night At The Blackhawk, San Francisco Vol.2

Used drive : ATAPI iHAS124 B Adapter: 2 ID: 1

Read mode : Secure
Utilize accurate stream : Yes
Defeat audio cache : Yes
Make use of C2 pointers : No

Read offset correction : 6
Overread into Lead-In and Lead-Out : No
Fill up missing offset samples with silence : Yes
Delete leading and trailing silent blocks : No
Null samples used in CRC calculations : Yes
Used interface : Native Win32 interface for Win NT & 2000
Gap handling : Appended to previous track

Used output format : User Defined Encoder
Selected bitrate : 1024 kBit/s
Quality : High
Add ID3 tag : No
Command line compressor : C:\Program Files (x86)\FLAC Frontend\tools\flac.exe
Additional command line options : -8 -V -T "ARTIST=%artist%" -T "TITLE=%title%" -T "ALBUM=%albumtitle%" -T "DATE=%year%" -T "TRACKNUMBER=%tracknr%" -T "TOTALTRACKS=%numtracks%" -T "GENRE=%genre%" -T "ALBUMARTIST=%albumartist%" -T "ALBUM ARTIST=%albumartist%" -T "COMMENT=EAC Secure Mode, Test & Copy, AccurateRip, FLAC -8" %source%


TOC of the extracted CD

Track | Start | Length | Start sector | End sector
––––––––––––––––––––––––––––-
1 | 0:00.00 | 8:11.65 | 0 | 36889
2 | 8:11.65 | 7:37.53 | 36890 | 71217
3 | 15:49.43 | 12:41.27 | 71218 | 128319
4 | 28:30.70 | 7:06.35 | 128320 | 160304
5 | 35:37.30 | 12:36.00 | 160305 | 217004
6 | 48:13.30 | 12:41.00 | 217005 | 274079


Track 1

Filename C:\Miles Davis - In Person Saturday Night At The Blackhawk, San Francisco Vol.2 (1961) {2014 Japan Jazz Collection 1000 Columbia-RCA Series}\01 - Well You Needn't.wav

Pre-gap length 0:00:02.00

Peak level 95.3 %
Extraction speed 2.3 X
Track quality 100.0 %
Test CRC 6EAD4707
Copy CRC 6EAD4707
Accurately ripped (confidence 2) [C8F3B116] (AR v2)
Copy OK

Track 2

Filename C:\Miles Davis - In Person Saturday Night At The Blackhawk, San Francisco Vol.2 (1961) {2014 Japan Jazz Collection 1000 Columbia-RCA Series}\02 - Fran-Dance.wav

Peak level 94.8 %
Extraction speed 2.7 X
Track quality 100.0 %
Test CRC EC7CB4F7
Copy CRC EC7CB4F7
Accurately ripped (confidence 2) [ADD67DCE] (AR v2)
Copy OK

Track 3

Filename C:\Miles Davis - In Person Saturday Night At The Blackhawk, San Francisco Vol.2 (1961) {2014 Japan Jazz Collection 1000 Columbia-RCA Series}\03 - So What.wav

Peak level 94.5 %
Extraction speed 3.3 X
Track quality 100.0 %
Test CRC 6F077474
Copy CRC 6F077474
Accurately ripped (confidence 2) [CE240B14] (AR v2)
Copy OK

Track 4

Filename C:\Miles Davis - In Person Saturday Night At The Blackhawk, San Francisco Vol.2 (1961) {2014 Japan Jazz Collection 1000 Columbia-RCA Series}\04 - Oleo.wav

Peak level 95.5 %
Extraction speed 3.5 X
Track quality 100.0 %
Test CRC 2C432690
Copy CRC 2C432690
Accurately ripped (confidence 2) [BB362E83] (AR v2)
Copy OK

Track 5

Filename C:\Miles Davis - In Person Saturday Night At The Blackhawk, San Francisco Vol.2 (1961) {2014 Japan Jazz Collection 1000 Columbia-RCA Series}\05 - If I Were A Bell.wav

Peak level 96.2 %
Extraction speed 4.0 X
Track quality 100.0 %
Test CRC 04B3878E
Copy CRC 04B3878E
Accurately ripped (confidence 2) [009394DA] (AR v2)
Copy OK

Track 6

Filename C:\Miles Davis - In Person Saturday Night At The Blackhawk, San Francisco Vol.2 (1961) {2014 Japan Jazz Collection 1000 Columbia-RCA Series}\06 - Neo.wav

Peak level 95.2 %
Extraction speed 4.4 X
Track quality 100.0 %
Test CRC 10A952E5
Copy CRC 10A952E5
Accurately ripped (confidence 2) [CFAE09CB] (AR v2)
Copy OK


All tracks accurately ripped

No errors occurred

End of status report

==== Log checksum 4B1A7A2B48A5CF41BE4FFFE8CB75DE5439F25508D1D2647C295D6B07A92A7B9C ====


Miles Davis - In Person Saturday Night At The Blackhawk Vol.2 (1961) {2014 Japan Jazz Collection 1000 Columbia-RCA Series}

Miles Davis - In Person Saturday Night At The Blackhawk Vol.2 (1961) {2014 Japan Jazz Collection 1000 Columbia-RCA Series}


see more Japan Jazz Collection 1000 Columbia-RCA Series…


===